(Choral / Sacred) Rossini - Petite messe solennelle (van Bork, Lensky, Loomis, Maurer - Societa Cameristica di Lugano, Loehrer) - 2001, APE (image+.cue) lossless


Статистика раздачи [Обновить пиров]
Размер:  275 MB   |    Зарегистрирован:  8 месяцев 14 дней   |    Скачан:  0 раз

Полного источника не было: Никогда

 
   
 
 
 

[Цитировать]

Gioachino Rossini - Petite messe solennelle
Жанр: Choral / Sacred
Страна-производитель диска: Denmark
Год издания диска: 2001
Издатель (лейбл): Classic Options
Номер по каталогу: CO 3508
Дата записи: 1968
Аудиокодек: APE
Тип рипа: image+.cue
Битрейт аудио: lossless
Продолжительность: 77'57
Источник: собственный рип
Наличие сканов в содержимом раздачи: да
Треклист:
1. Kyrie (Andante maestoso)
2. Gloria (Allegro maestoso)
3. Gratias (Andante grazioso)
4. Domine Deus (Allegro giusto)
5. Qui tollis (Andantino)
6. Quoniam (Allegro moderato)
7. Cum Sancto Spiritu (Allegro maestoso)
8. Credo (Allegro cristiano)
9. Crucifixus (Andantino sostenuto)
10. Et resurrexit (Allegro)
11. Preludio religioso (Andante maestoso)
12. Sanctus (Andantino mosso)
13. O salutaris (Andante mosso)
14. Agnus Dei (Largo)
Исполнители:
Gioachino Rossini - Petite messe solennelle, for soloists, 2 pianos, harmonium & choir
Hanneke van Bork, Soprano
Margaret Lensky, Alto
James Loomis, Bass
Serge Maurer, Tenor
Luciano Sgrizzi, Piano
Georges Bernand, Piano
Bruno Canino, Harmonium
Società Cameristica di Lugano
Edwin Loehrer

Лог создания рипа

Exact Audio Copy V1.0 beta 3 from 29. August 2011
EAC extraction logfile from 26. September 2014, 11:59
Rossini / Petite Messe Solennelle, Loehrer
Used drive : TSSTcorpCDDVDW SE-208AB Adapter: 1 ID: 0
Read mode : Secure
Utilize accurate stream : Yes
Defeat audio cache : Yes
Make use of C2 pointers : No
Read offset correction : 6
Overread into Lead-In and Lead-Out : No
Fill up missing offset samples with silence : Yes
Delete leading and trailing silent blocks : No
Null samples used in CRC calculations : Yes
Used interface : Native Win32 interface for Win NT & 2000
Used output format : Monkey's Audio Lossless Encoder
Selected bitrate : High Lossless Compression
Quality : High
Add ID3 tag : No
Command line compressor : C:\Program Files (x86)\Exact Audio Copy\MAC\MAC.exe
TOC of the extracted CD
Track | Start | Length | Start sector | End sector
---------------------------------------------------------
1 | 0:00.00 | 5:45.55 | 0 | 25929
2 | 5:45.55 | 2:38.72 | 25930 | 37851
3 | 8:24.52 | 4:36.73 | 37852 | 58624
4 | 13:01.50 | 5:16.27 | 58625 | 82351
5 | 18:18.02 | 6:47.18 | 82352 | 112894
6 | 25:05.20 | 7:33.35 | 112895 | 146904
7 | 32:38.55 | 6:07.22 | 146905 | 174451
8 | 38:46.02 | 4:06.20 | 174452 | 192921
9 | 42:52.22 | 2:56.30 | 192922 | 206151
10 | 45:48.52 | 8:13.50 | 206152 | 243176
11 | 54:02.27 | 7:05.50 | 243177 | 275101
12 | 61:08.02 | 3:45.50 | 275102 | 292026
13 | 64:53.52 | 5:58.30 | 292027 | 318906
14 | 70:52.07 | 7:05.50 | 318907 | 350831
Range status and errors
Selected range
Filename D:\EAC\Rossini - Petite Messe Solennelle, Loehrer.wav
Peak level 93.3 %
Extraction speed 5.2 X
Range quality 100.0 %
Test CRC 23756BAA
Copy CRC 23756BAA
Copy OK
No errors occurred
AccurateRip summary
Track 1 accurately ripped (confidence 2) [C3BA2475] (AR v1)
Track 2 accurately ripped (confidence 2) [925A5ADE] (AR v1)
Track 3 accurately ripped (confidence 2) [F00C86A1] (AR v1)
Track 4 accurately ripped (confidence 2) [218F46A8] (AR v1)
Track 5 accurately ripped (confidence 2) [E9166204] (AR v1)
Track 6 accurately ripped (confidence 2) [F149BFDE] (AR v1)
Track 7 accurately ripped (confidence 2) [79F77AAE] (AR v1)
Track 8 accurately ripped (confidence 2) [F1AE0821] (AR v1)
Track 9 accurately ripped (confidence 2) [70FEAC7F] (AR v1)
Track 10 accurately ripped (confidence 2) [861F8678] (AR v1)
Track 11 accurately ripped (confidence 2) [542DBDA0] (AR v1)
Track 12 accurately ripped (confidence 2) [5996DDC9] (AR v1)
Track 13 accurately ripped (confidence 2) [1394597F] (AR v1)
Track 14 accurately ripped (confidence 2) [5B301438] (AR v1)
All tracks accurately ripped
End of status report
---- CUETools DB Plugin V2.1.3
[CTDB TOCID: y0LRCbbvGrf3nyAwNmNLDaQRLug-] disk not present in database, Submit result: y0LRCbbvGrf3nyAwNmNLDaQRLug- has been uploaded
==== Log checksum DC87813365692F1519A94D4311B786FD8FA2EE0786E60CB429DEB41042229AA9 ====

Содержание индексной карты (.CUE)

REM GENRE Chorus
REM DATE 1968
REM DISCID C012450E
REM COMMENT "ExactAudioCopy v1.0b3"
CATALOG 0000000000000
PERFORMER "Rossini"
TITLE "Petite Messe Solennelle, Loehrer"
FILE "Rossini - Petite Messe Solennelle, Loehrer.ape" WAVE
TRACK 01 AUDIO
TITLE "Kyrie"
PERFORMER "Rossini"
INDEX 01 00:00:00
TRACK 02 AUDIO
TITLE "Gloria"
PERFORMER "Rossini"
INDEX 01 05:45:55
TRACK 03 AUDIO
TITLE "Gratias"
PERFORMER "Rossini"
INDEX 01 08:24:52
TRACK 04 AUDIO
TITLE "Domine Deus"
PERFORMER "Rossini"
INDEX 01 13:01:50
TRACK 05 AUDIO
TITLE "Qui tollis"
PERFORMER "Rossini"
INDEX 01 18:18:02
TRACK 06 AUDIO
TITLE "Quoniam"
PERFORMER "Rossini"
INDEX 01 25:05:20
TRACK 07 AUDIO
TITLE "Cum Sancto Spiritu"
PERFORMER "Rossini"
INDEX 01 32:38:55
TRACK 08 AUDIO
TITLE "Credo"
PERFORMER "Rossini"
INDEX 01 38:46:02
TRACK 09 AUDIO
TITLE "Crucifixus"
PERFORMER "Rossini"
INDEX 01 42:52:22
TRACK 10 AUDIO
TITLE "Et resurrexit"
PERFORMER "Rossini"
INDEX 01 45:48:52
TRACK 11 AUDIO
TITLE "Preludio religioso"
PERFORMER "Rossini"
INDEX 01 54:02:27
TRACK 12 AUDIO
TITLE "Sanctus"
PERFORMER "Rossini"
INDEX 01 61:08:02
INDEX 02 61:45:00
TRACK 13 AUDIO
TITLE "O salutaris"
PERFORMER "Rossini"
INDEX 01 64:53:52
TRACK 14 AUDIO
TITLE "Agnus Dei"
PERFORMER "Rossini"
INDEX 01 70:52:07
[teatrix.ru].t20377.torrent 
Торрент: Зарегистрирован [ 2016-03-19 20:38 ] · 5EF0B39D32B68430A87D8CBBE2E9CAFE4131EECC

Скачать .torrent

Скачать

12 KB

Статус: проверено
Скачан: 0 раз
Размер: 275 MB
terms.php



Быстрый ответ

Имя:

      
Для отправки сообщений необходимо включить JavaScript
Показать сообщения:    

Текущее время: 03-Дек 01:22

Часовой пояс: UTC + 3


Вы можете начинать темы
Вы можете отвечать на сообщения
Вы не можете редактировать свои сообщения
Вы не можете удалять свои сообщения
Вы не можете голосовать в опросах
Вы не можете прикреплять файлы к сообщениям
Вы можете скачивать файлы