(Classical) Heinrich Schütz (Schuetz, Schutz) - Symphoniae Sacrae II, SWV 341-367 (Peter Schreier, Dresdner Kreuzchor, Capella Fidicinia, cond. Hans Grüss (Gruess, Gruss)) 3 CDs - 1988, FLAC (tracks+.cue) lossless


Статистика раздачи [Обновить пиров]
Размер:  830 MB   |    Зарегистрирован:  8 месяцев 21 день   |    Скачан:  0 раз

Полного источника не было: Никогда

 
   
 
 
 

[Цитировать]

Heinrich Schütz - Symphoniae Sacrae II, SWV 341-367 (Peter Schreier, Ekkehard Wagner, Hermann Christian Polster, Dresdner Kreuzchor, Capella Fidicinia, cond. Hans Grüss) 3 CDs
Жанр: Classical
Страна-производитель диска: West Germany
Год издания диска: 1988
Издатель (лейбл): Capriccio, Delta Music GmbH
Номер по каталогу: LC 8748
Дата записи: 1985-1986
Аудиокодек: FLAC
Тип рипа: tracks+.cue
Битрейт аудио: lossless
Продолжительность: 2:43:16 (50:48 + 55:31 + 56:57)
Источник: собственный рип
Наличие сканов в содержимом раздачи: да
Треклист (с исполнителями для каждого трека):

Disk 1: SWV 343, 344, 346, 347, 351, 352, 357, 359, 360, 364

[1] Herr unser Herrscher, wie herrlich ist dein Nam SWV 343 ... [5:36]

Исполнители

PETER SCHREIER, Tenor/tenor/ténor
Manfred Otte, Violine I/violin I/violon I; Hans Gette, Violine II/violin II/violon II; Reiner Gebauer, Sopran- und Alt Flöte I/soprano and alto flute I/flûte soprano et alto en sol I; Claudia Gebauer, Alt-Flöte II/alto flute II/flûte alto en sol II;
Basso continuo: Günter Angerhöfer, Baß-Dulzian; Siegfried Pank, Tenor-Viola da gamba/tenor viola da gamba/viole de gambe ténor; Achim Beyer, Violone; Roland Zimmer, Laute I/ lute I/luth I; Franz Just, Laute II/lute II/luth II; Christine Schornsheim, Orgel/organ/orgue
[2] Hütet euch, daß eure Herzen nicht beschweret werden SWV 351 ... [4:36]

Исполнители

HERMANN CHRISTIAN POLSTER, Baß/bass/basse
Eberhard Palm, Violine I/violin I/violon I; Manfred Otte, Violine II/violin II/violon II; Thekla Waldbaur, Alt-Flöte I/alto flute I/flûte alto en sol I; Reiner Gebauer, Tenor-Flöte II/ tenor flute II/flûte ténor II; Basso continuo: Siegfried Pank, Tenor-Viola da gamba/tenor viola da gamba/viole de gambe ténor; Achim Beyer, Violone; Roland Zimmer, Laute I/lute I/luth I; Franz Just, Laute II/lute II/luth II; Raphael Alpermann, Orgel/organ/orgue
[3] Ich werde nicht sterben, sondern leben SWV 346 ... [5:20]
(Erster Teil)
[4] Ich danke dir, Herr, von ganzem Herzen SWV 347 ... [4:28]
(Anderer Teil)

Исполнители

PETER SCHREIER, Tenor/tenor/ténor
Manfred Otte, Violine I/violin I/violon I; Hans Gette, Violine II/violin II/violon II; Reiner Gebauer, Alt- und Tenorflöte I/alto and tenor flute I/flûte alto en sol et ténor I; Claudia Gebauer, Alt- und Tenorflöte II/alto and tenor flute II/flûte alto en sol et ténor II; Basso continuo: Siegfried Pank, Tenor-Viola da gamba/tenor viola da gamba/viole de gambe ténor; Achim Beyer, Violone; Roland Zimmer, Laute I/lute I/luth I; Franz Just, Laute II/lute II/luth II; Christine Schornsheim, Orgel/organ/orgue
[5] Zweierlei bitte ich, Herr, von dir SWV 360 ... [6:03]

Исполнители

EKKEHARD WAGNER, Tenor I/tenor I/ténor I
ALBRECHT LEPETIT, Tenor II/tenor II/ténor II
Jutta Redder, Violine I/violin I/violon I; Manfred Otte, Violine II/violin II/violon II; Thekla Waldbaur, Sopran-und Alt-Flöte I/soprano and alto flute I/flûte soprano et alto en sol I; Reiner Gebauer, Sopran- und Tenor-Flöte II/soprano and tenor flute II/flûte soprano et ténor II; Andreas Voigt, Cornetto I/cornett I/cornet à bouquin I; Heiner Ullmann, Cornetto II/cornett II/ cornet à bouquin II; Basso continuo: Siegfried Pank, Tenor-Viola da gamba/tenor viola da gamba/ viole de gambe ténor; Achim Beyer, Violone; Armin Thalheim, Orgel/organ/orgue
[6] Meine Seele erhebt den Herren SWV 344 ... [7:35]

Исполнители

PETER SCHREIER, Tenor/tenor/ténor
Manfred Otte, Violine I/violin I/violon I; Hans Gette, Violine II/violin II/violon II; Reiner Gebauer, Flautino I; Claudia Gebauer, Flautino II; Andreas Voigt, Zink I/cornett I/ cornet à bouquin I; Heiner Ullmann, Zink II/cornett II/cornet à bouquin II; Gerhard Weißenborn, Alt-Posaune I/alto trombone I/trombone alto I; Jörg Richter, Alt-Posaune II/alto trombone II/trombone alto II; Basso continuo: Siegfried Pank, Tenor-Viola da gamba/tenor viola da gamba/viole de gambe ténor; Achim Beyer, Violone; Roland Zimmer, Laute I/lute I/luth I; Franz Just, Laute II/lute II/luth II; Christine Schornsheim, Orgel/organ/orgue
[7] Herr, nun lässest du deinen Diener im Friede fahren SWV 352 ... [3:59]

Исполнители

HERMANN CHRISTIAN POLSTER, Baß/bass/basse
Manfred Otte, Violine I/violin I/violon I; Hans Gette, Violine II/violin II/violon II; Basso continuo: Günter Angerhöfer, Baß-Dulzian; Achim Beyer, Violone; Christine Schornsheim, Orgel/organ/orgue
[8] Wie ein Rubin in feinem Golde leuchtet SWV 357 ... [2:44]

Исполнители

GABRIELE AUENMÜLLER, Sopran/soprano
EKKEHARD WAGNER, Altus
Thekla Waldbaur, Tenor-Flöte I/tenor flute I/flûte ténor I; Reiner Gebauer, Tenor-Flöte II/ tenor flute II/flûte tenor II; Basso continuo: Günter Angerhöfer, Baß-Dulzian; Achim Beyer, Violone; Roland Zimmer, Laute I/lute I/luth I; Franz Just, Laute II/lute II/luth II; Christine Schornsheim, Orgel/organ/orgue
[9] Die so ihr den Herren fürchtet SWV 364 ... [5:08]

Исполнители

EKKEHARD WAGNER, Altus
REINHART GINZEL, Tenor/tenor/ténor
HERMANN CHRISTIAN POLSTER, Baß/bass/basse
Helga Glöckner, Violine I/violin I/violon I; Werner Thomsch, Violine II/violin II/violon II; Thekla Waldbaur, Sopran-Flöte I/soprano flute I/flûte soprano I; Reiner Gebauer, Sopran-Flöte II/soprano flute II/flûte soprano II; Basso continuo: Frank Beyer, Baß-Posaune/bass trombone/trombone basse; Monika Tutschku, Tenor-Viola da gamba/tenor viola da gamba/viole de gambe ténor; Roland Zimmer, Laute I/lute I/luth I; Franz Just, Laute II/lute II/luth II; Raphael Alpermann, Orgel/organ/orgue
[10] Der Herr ist mein Licht und mein Heil SWV 359 ... [5:12]

Исполнители

EKKEHARD WAGNER, Tenor I/tenor I/ténor I
ALBRECHT LEPETIT, Tenor II/tenor II/ténor II
Jutta Redder, Violine I/violin I/violon I; Manfred Otte, Violine II/violin II/violon II; Andreas Voigt, Cornetto I/cornett I/cornet à bouquin I; Heiner Ullmann, Cornetto II/cornett II/ cornet à bouquin II
CAPELLA FIDICINIA ■ HANS GRÜSS (Leitung/direction)

Disk 2: SWV 341, 345 (two versions), 346, 347, 353, 354, 355, 358, 362, 363, 366

[1] Mein Herz ist bereit, Gott, daß ich singe SWV 341 ... [3:33]

Исполнители

PETER SCHREIER, Tenor/tenor/ténor
Manfred Otte, Violine I/violin I/violon I; Hans Gette, Violine II/violin II/violon II; Reiner Gebauer, Tenor-Flöte I/tenor flute I/flûte ténor I; Claudia Gebauer, Tenor-Flöte II/tenor flute II/flûte ténor II;
Basso continuo: Siegfried Pank, Tenor-Viola da gamba/tenor viola da gamba/viole de gambe ténor; Achim Beyer, Violone; Christine Schornsheim, Orgel/organ/orgue
[2] Von Gott will ich nicht lassen SWV 366 ... [8:08]

Исполнители

GABRIELE AUENMÜLLER, Sopran I/soprano I
ELISABETH WILKE, Sopran II/soprano II
HERMANN CHRISTIAN POLSTER, Baß/bass/basse
Jutta Redder, Violine I/violin I/violon I; Manfred Otte, Violine II/violin II/violon II; Thekla Waldbaur, Sopran-Flöte I/soprano flute I/flûte soprano I; Reiner Gebauer, Sopran-Flöte II/soprano flute II/flûte soprano II; Basso continuo: Günter Angerhöfer, Baß-Dulzian; Achim Beyer, Violone; Armin Thalheim, Orgel/organ/orgue
[3] Verleih uns Frieden genädiglich SWV 354 ... [4:00]
(Erster Teil)
[4] Gib unsern Fürsten und aller Obrigkeit SWV 355 ... [3:47]
(Anderer Teil)

Исполнители

CLAUDIUS DECKERT, NORBERT KLEINSCHMIDT, MARKUS SCHLEGEL, Knabensopran I
STEPHAN LOGES, JAN LÜTH, HELGE TITTELBACH, Knabensopran II (Kruzianer/Members of/Membres du: DRESDNER KREUZCHOR)
Jutta Redder, Violine I/violin I/violon II; Andreas Voigt, Cornetto I/cornett I/cornet à bouquin I; Heiner Ullmann, Cornetto II/cornett II/cornet à bouquin II;
Basso continuo: Frank Beyer, Baß-Posaune/bass trombone/trombone basse; Siegfried Pank, Tenor-Viola da gamba/tenor viola da gamba/viole de gambe ténor; Achim Beyer, Violone; Raphael Alpermann, Orgel/organ/orgue
[5] Iß dein Brot mit Freuden SWV 358 ... [4:29]

Исполнители

JOCHEN KOWALSKI, Countertenor/countertenor/contraténor
GÜNTHER SCHMIDT, Baß/bass/basse
Thekla Waldbaur, Sopran-Flöte I/soprano flute I/flûte soprano I;
Reiner Gebauer, Sopran-Flöte II/soprano flute II/flûte soprano II;
Siegfried Pank, Tenor-Viola da gamba I/tenor viola da gamba I/viole de gambe ténor I;
Monika Tutschku, Tenor-Viola da gamba II/tenor viola da gamba II/viole de gambe ténor II;
Basso continuo: Günter Angerhöfer, Baß-Dulzian; Achim Beyer, Violone;
Roland Zimmer, Laute I/lute I/luth I; Franz Just, Laute II/lute II/luth II;
Christine Schornsheim, Orgel/organ/orgue
[6] Der Herr ist meine Stärke SWV 345 ... [3:03]

Исполнители

ALBRECHT LEPETIT, Tenor/tenor/ténor
Thekla Waldbaur, Sopran-Flöte I/soprano flute I/flûte soprano I;
Reiner Gebauer, Sopran-Flöte II/soprano flute II/flûte soprano II;
Siegfried Pank, Tenor-Viola da gamba I/tenor viola da gamba I/viole de gambe ténor I;
Monika Tutschku, Tenor-Viola da gamba II/tenor viola da gamba II/viole de gambe ténor II;
Basso continuo: Günter Angerhöfer, Baß-Dulzian; Achim Beyer, Violone;
Roland Zimmer, Laute I/lute I/luth I; Franz Just, Laute II/lute II/luth II;
Raphael Alpermann, Regal/regal/régale
[7] Lobet den Herrn, alle Heiden SWV 363 ... [3:17]

Исполнители

EKKEHARD WAGNER, Altus
REINHART GINZEL, Tenor/tenor/ténor
GÜNTHER SCHMIDT, Baß/bass/basse
Jutta Redder, Violine I/violin I/violon I; Christian Redder, Violine II/violin II/violon II;
Andreas Voigt, Cornettino I/E-flat cornet I/cornettino I;
Heiner Ullmann, Cornettino II/E-flat cornet II/cornettino II;
Basso continuo: Frank Beyer, Baß-Posaune/bass trombone/trombone basse;
Achim Beyer, Violone; Raphael Alpermann, Regal/regal/régale
[8] Was betrübst du dich, meine Seele SWV 353 ... [6:17]

Исполнители

GISELA BURKHARDT, Sopran I/soprano I
ELISABETH WILKE, Soprano II/soprano II
Jutta Redder, Violine I/violin I/violon I; Manfred Otte, Violine II/violin II/violon II; Thekla Waldbaur, Alt- und Tenor-Flöte I/alto and tenor flute I/flûte alto et ténor I; Reiner Gebauer, Tenor-Flöte II/tenor flute II/flûte ténor II;
Basso continuo: Siegfried Pank, Tenor-Viola da gamba/tenor viola da gamba/viole de gambe ténor;
Achim Beyer, Violone; Roland Zimmer, Laute I/lute I/luth I;
Franz Just, Laute II/lute II/luth II; Armin Thalheim, Cembalo/harpsichord/clavecin
[9] Der Herr ist meine Stärke SWV 345 ... [3:21]

Исполнители

NORBERT KLEINSCHMIDT, Knabensopran
(Kruzianer/Member of/Membre du: DRESDNER KREUZCHOR)
Manfred Otte, Violine I/violin I/violon I; Hans Gette, Violine II/violin II/violon II;
Basso continuo: Siegfried Pank, Tenor-Viola da gamba/tenor viola da gamba/viole de gambe ténor;
Achim Beyer, Violone; Roland Zimmer, Laute I/lute I/luth I;
Franz Just, Laute II/lute II/luth II; Christine Schornsheim, Orgel/organ/orgue
[10] Von Aufgang der Sonnen bis zu ihrem Niedergang SWV 363 ... [5:37]

Исполнители

GÜNTHER SCHMIDT, Baß I/bass I/basse I
HERMANN CHRISTIAN POLSTER, Baß II/bass II/basse II
Manfred Otte, Violine I/violin I/violon I; Hans Gette, Violine II/violin II/violon II;
Thekla Waldbaur, Sopran-Flöte I/soprano flute I/flûte soprano I;
Reiner Gebauer, Sopran-Flöte II/soprano flute II/flûte soprano II;
Basso continuo: Frank Beyer, Baß-Posaune/bass trombone/trombone basse;
Monika Tutschku, Tenor-Viola da gamba/tenor viola da gamba/viole de gambe ténor;
Achim Beyer, Violone; Roland Zimmer, Laute I/lute I/luth I;
Franz Just, Laute II/lute II/luth II;
Raphael Alpermann, Regal/regal/régale
[11] Ich werde nicht sterben, sondern leben SWV 346 ... [5:15]
(Erster Teil)
[12] Ich danke dir, Herr, von ganzem Herzen SWV 347 ... [4:31]
(Anderer Teil)

Исполнители

ELISABETH WILKE, Alt/contralto
Manfred Otte, Violine I/violin I/violon I;
Hans Gette, Violine II/violin II/violon II;
Thekla Waldbaur, Sopran-Flöte I/soprano flute I/flûte soprano I;
Reiner Gebauer, Sopran-Flöte II/soprano flute II/flûte soprano II;
Basso continuo: Siegfried Pank, Tenor-Viola da gamba/tenor viola da gamba/viole de gambe ténor; Achim Beyer, Violone; Roland Zimmer, Laute I/lute I/luth I; Franz Just, Laute II/lute II/luth II; Christine Schornsheim, Orgel/organ/orgue
CAPELLA FIDICINIA
HANS GRÜSS (Leitung/direction)

Disk 3: SWV 342, 348, 349, 350, 356, 358, 361, 365, 367; Monteverdi ‘Armato il cor’, ‘Zefiro torna’

[1] Singet dem Herrn ein neues Lied SWV 342 [4:29]

Исполнители

PETER SCHREIER, Tenor/tenor/ténor
Manfred Otte, Violine I/violin I/violon I; Hans Gette, Violine II/violin II/violon II; Reiner Gebauer, Sopran- und Tenor-Flöte I/soprano and tenor flute I/flûte soprano et ténor I; Claudia Gebauer, Sopran- und Tenor-Flöte II/soprano and tenor flute II/flûte soprano et ténor II; Basso continuo: Günter Angerhöfer, Baß-Dulzian; Siegfried Pank, Tenor-Viola da gamba/ tenor viola da gamba/viole de gambe ténor; Achim Beyer, Violone; Roland Zimmer, Laute I/ lute I/luth I; Franz Just, Laute II/lute II/luth II; Christine Schornsheim, Regal/regal/régale
[2] CLAUDIO MONTEVERDI (1567-1643)
Armato il cor [2:44]
(Madrigal)

Исполнители

PETER SCHREIER, Tenor I/tenor I/ténor I
EBERHARD BÜCHNER, Tenor II/tenor II/ténor II
Basso continuo: Siegfried Pank, Tenor-Viola da gamba/tenor viola da gamba/viole de gambe ténor; Achim Beyer, Violone; Christine Schornsheim, Virginal
[3] CLAUDIO MONTEVERDI
Zefiro torna [6'27]
(Madrigal)

Исполнители

PETER SCHREIER, Tenor I/tenor I/ténor I
EBERHARD BÜCHNER, Tenor II/tenor II/ténor II
Basso continuo: Siegfried Pank, Tenor-Viola da gamba/tenor viola da gamba/viole de gambe ténor; Achim Beyer, Violone; Roland Zimmer, Laute I/lute I/luth I; Franz Just, Laute II/lute II/luth II; Christine Schornsheim, Virginal
[4] Es steh Gott auf, daß seine Feind zerstreuet werden SWV 356 .. [6:27]
(Adaption der Madrigale Armato il cor und Zefiro torna von Claudio Monteverdi/Adaptation of Claudio Monteverdi's madrigals Armato il cor and Zefiro torna/Adaptation des madrigaux Armato il cor et Zefiro torna de Claudio Monteverdi)

Исполнители

PETER SCHREIER, Tenor I/tenor I/ténor I
EBERHARD BÜCHNER, Tenor II/tenor II/ténor II
Manfred Otte, Violine I/violin I/violon I; Hans Gette, Violine II/violin II/violon II; Reiner Gebauer, Alt-Flöte I/alto flute I/flûte alto I; Claudia Gebauer, Alt-Flöte II/alto flute II/ flûte alto II • Basso continuo: Siegfried Pank, Tenor-Viola da gamba/tenor viola da gamba/viole de gambe ténor; Achim Beyer, Violone; Roland Zimmer, Laute I/lute I/luth I; Franz Just, Laute II/ lute II/luth II; Christine Schornsheim, Orgel/organ/orgue
[5] Iß dein Brot mit Freuden SWV 358 [4:16]

Исполнители

GISELA BURKHARDT, Sopran/soprano
ALBRECHT LEPETIT, Tenor/tenor/ténor
Jutta Redder, Violine I/violin I/violon I; Christian Redder, Violine II/violin II/violon II; Thekla Waldbaur, Sopran- und Tenor-Flöte I/soprano and tenor flute I/flûte soprano et ténor I; Reiner Gebauer, Sopran- und Tenor-Flöte II/soprano and tenor flute II/flûte soprano et ténor II
Basso continuo: Günter Angerhöfer, Baß-Dulzian; Siegfried Pank, Tenor-Viola da gamba/ tenor viola da gamba/viole de gambe ténor; Achim Beyer, Violone; Christine Schornsheim, Cembalo/harpsichord/clavecin
[6] Herr, neige deine Himmel und fahr herab SWV 361....[4:51]

Исполнители

GÜNTHER SCHMIDT, Baß I/bass I/basse I
HERMANN CHRISTIAN POLSTER, Baß II/bass II/basse II
Manfred Otte, Violine I/violin I/violon I; Hans Gette, Violine II/violin II/violon II;
Thekla Waldbaur, Sopran-Flöte I/soprano flute I/flûte soprano I;
Reiner Gebauer, Sopran-Flöte II/soprano flute II/flûte soprano II;
Andreas Voigt, Cornetto I/cornett I/cornet à bouquin I; Heiner Ullmann, Cornetto II/cornett II/ cornet à bouquin II
Basso continuo: Günter Angerhöfer, Baß-Dulzian; Siegfried Pank, Tenor-Viola da gamba/ tenor viola da gamba/viole de gambe ténor; Achim Beyer, Violone; Roland Zimmer, Laute I/ lute I/luth I; Franz Just, Laute II/lute II/luth II; Christine Schornsheim, Orgel/organ/orgue
[7] Frohlocket mit Händen und jauchzet dem Herren SWV 349... [4:12]

Исполнители

PETER SCHREIER, Tenor
Manfred Otte, Violine I/violin I/violon I; Hans Gette, Violine II/violin II/violon II; Reiner Gebauer, Alt-Flöte I/alto flute I/flûte alto I; Claudia Gebauer, Alt-Flöte II/alto flute II/ flûte alto II • Basso continuo: Jürgen Richter, Tenor-Posaune/tenor trombone/trombone ténor; Siegfried Pank, Tenor-Viola da gamba/tenor viola da gamba/viole de gambe ténor; Achim Beyer, Violone; Roland Zimmer, Laute I/lute I/luth I; Franz Just, Laute II/lute II/luth II; Christine Schornsheim, Regal/regal/régale
[8] Drei schöne Dinge seind SWV 365 ... [8:11]

Исполнители

ALBRECHT LEPETIT, Tenor I/tenor I/ténor I
EKKEHARD WAGNER, Tenor II/tenor II/ténor II
HERMANN CHRISTIAN POLSTER, Baß/bass/basse
Jutta Redder, Violine I/violin I/violon I; Christian Redder, Violine II/violin II/violon II;
Thekla Waldbaur, Sopran- und Tenor-Flöte I/soprano and tenor flute I/flûte soprano et ténor I; Reiner Gebauer, Sopran- und Tenor-Flöte II/soprano and tenor flute II/flûte soprano et ténor II; Siegfried Pank, Tenor-Viola da gamba I/tenor viola da gamba I/viole de gambe ténor I; Monika Tutschku, Tenor-Viola da gamba II/tenor viola da gambe II/viole de gambe ténor II
Basso continuo: Günter Angerhöfer, Baß-Dulzian; Achim Beyer, Violone; Roland Zimmer, Laute I/lute I/luth II; Raphael Alpermann, Orgel/organ/orgue
[9] Herzlich lieb hab ich dich, o Herr, meine Stärke SWV 348 ... [4:45]

Исполнители

EKKEHARD WAGNER, Altus
Eberhard Palm, Violine I/violin I/violon I; Manfred Otte, Violine II/violin II/violon II; Thekla Waldbaur, Sopran- und Alt-Flöte I/soprano and alto flute I/flûte soprano et alto I; Reiner Gebauer, Sopran- und Tenor-Flöte II/soprano and tenor flute II/flûte soprano et ténor II
Basso continuo: Siegfried Pank, Tenor-Viola da gamba/tenor viola da gamba/viole de gambe ténor; Achim Beyer, Violone; Roland Zimmer, Laute I/lute I/luth I; Franz Just, Laute II/lute II/luth II; Raphael Alpermann, Orgel/organ/orgue
[10] Lobet den Herrn in seinem Heiligtum SWV 350 .. [4:52]

Исполнители

PETER SCHREIER, Tenor/tenor/ténor
Manfred Otte, Violine I/violin I/violon I; Hans Gette, Violine II/violin II/violon II; Reiner Gebauer, Sopran- und Alt-Flöte I/soprano and alto flute I/flûte soprano et alto I; Claudia Gebauer, Sopran- und Alt-Flöte II/soprano and alto flute II/flûte soprano et alto II; Andreas Voigt, Zink I/cornett I/cornet à bouquin I; Heiner Ullmann, Zink II/cornett II/ cornet à bouquin II • Basso continuo: Gerhard Weißenborn, Tenor- und Baß-Posaune/tenor and bass trombone/trombone ténor et basse; Siegfried Pank, Tenor-Viola da gamba/tenor viola da gamba/viole de gambe ténor; Achim Beyer, Violone; Christine Schornsheim, Orgel/organ/orgue
[11] Freuet euch des Herren, ihr Gerechten SWV 367 ... [5:36]

Исполнители

EKKEHARD WAGNER, Altus
REINHART GINZEL, Tenor/tenor/ténor
HERMANN CHRISTIAN POLSTER, Baß/bass/basse
Manfred Otte, Violine I/violin I/violon I; Hans Gette, Violine II/violin II/violon II
Basso continuo: Gerhard Weißenborn, Baß-Posaune/bass trombone/trombone basse; Siegfried Pank, Tenor-Viola da gamba/tenor viola da gamba/viole de gambe ténor; Achim Beyer, Violone; Christine Schornsheim, Orgel/organ/orgue
CAPELLA FIDICINIA
HANS GRÜSS (Leitung/direction)

Образцовые исполнения музыки Генриха Шютца (Heinrich Schütz, 1585-1672) Дрезденским Кройцхором (Dresdner Kreuzchor) и "лейпцигско-дрезденской" группой (Петер Шрайер и другие) под управлением Ханса Грюсса в серии, начатой 25-м кройцкантором Рудольфом Мауэрсбергером (Rudolf Mauersberger); другие раздачи этой серии см. ниже. На этих трех дисках записан второй том "трехтомника" Symphoniae Sacrae (SWV 341-367, опубликован в 1647 году в Дрездене; том I c SWV 257–276 вышел в 1629 в Венеции, а том III c SWV 398–418 - в 1650 году снова в Дрездене). В серию эта запись входит по праву - здесь и мальчиковые сопрано самого Дрезденского Кройцхора, и экс-кройцхоровец тенор Петер Шрайер и другие солисты, и наконец дирижер-аутентист Ханс Грюсс и его "Капелла Фидикиния", с которой записывал свои диски Мауэрсбергер. Однако внимание! - данная запись не воспроизводит выпущенные VEB Deutsche Schallplatten (серия ETERNA) две виниловые пластики Symphoniae Sacrae 1 и 2 (цифры тут не случайно не римские - они просто призваны отличать одну пластинку от другой и к римской нумерации томов Шютца не имеют никакого отношения); те были записаны в 1967 году п/у Мауэрсбергера и включали в себя несколько вещей из всех трех томов, но близко не подходили к полной записи (на пластинке 1 были следующие вещи из тома III: SWV 405, 407, 409, 413-416, 418; на пластинке 2 были SWV 260-262 из тома I, 359-360 из тома II и 403, 406 и 411 из тома III). Данное издание не является, стало быть, переизданием "Этерны"; его, на сегодняшний день, собственно, увы, и не существует - фирме Edel, наследнику VEB Deutsche Schallplatten, еще работать и работать. Мауэрсбергер, как известно, планировал записать всего Шютца; сколько реально им было записано из Symphoniae Sacrae на основании треклистов пластинок судить сложно, и кто его знает, может в архивах "Этерны" есть что-то еще помимо непереизданных двух пластинок; но наличие предложенной в раздаче записи (а также записи Symphoniae Sacrae I этим же составом, доступной в этой раздаче), сделанной ближайшими союзниками Мауэрсбергера (более того - они же, собственно, и записывали в 1967 те две виниловые пластики) "кагбе намекает", что едва ли - и что сама эта запись есть реализация проекта, который скончавшийся в 1971 году Мауэрсбергер реализовать не успел (и пришлось за него 20 лет спустя дирижировать уже самому Грюссу).
На втором диске Грюсс и Ко. помещают два мадригала Клаудио Монтеверди, Armato il cor и Zefiro torna - с целью дать слушателям возможность ознакомиться с оригиналами симфонии Шютца Es steh Gott auf, daß seine Feind zerstreuet werden (SWV 356), в которую они были им переработаны (и о чем Шютц сам пишет в предисловии к сборнику).
В раздачу включены сканы обложек, дисков и буклетов (которые содержат и тексты исполняемых произведений).

Подробнее о буклетах, или Что это там за пдф-ка такая на 12 мег в корневом каталоге болтается?

Издание представляет собой, с одной стороны, единое целое, с другой - оно не было выпущено издателем как единый boxed-set, и в этой связи в каждом диске имеется свой буклет. Буклеты эти отличаются, во-первых, некоторой идиосинкразией, во-вторых, обильными повторами. Во всех трех буклетах повторены совершенно буквально, "под ксерокс", статья Ханса Грюсса о Шютце и этой записи на немецком, выходные данные, все иллюстрации и подписи к ним. (Списки треков и исполнителей, а равно обложки, понятно, уникальные). Идиосинкразия заключается в том, что перевод статьи Грюсса на французский и английский, во-первых, не полон (пропущены почему-то три абзаца после первого), а во-вторых, бережно порезан на три разные части, по одной для каждого буклета. Ужасно удобно, не правда ли? По сей причине ваш непокорный слуга взял на себя труд, во-первых, в целях экономии объема раздачи удалить из сканов все повторы (поэтому статья Грюсса и все иллюстрации живут в соотв. каталоге диска 1, а каталоги дисков 2 и 3 содержат сканы только тех страниц, которые уникальны для буклетов этих дисков), а во-вторых сделать единый буклет, в котором собрать "паззл" французского и английского перевода. В этот буклет я включил и обложки дисков, и иллюстрации с подписями, и, конечно, тексты. Думаю, это будет удобно скачивающим. А для еще пущего удобства я включил в раздачу не только pdf этого сборного буклета, но и оригинал в формате MS Word 2010. Enjoy!


Выходные данные записи

Aufführungspraktische Einrichtung / Scores prepared for this recording / Cet enregistrement se base sur des partions préparées de: Hans Grüß
DDD
Aufnahme/Recording/Enregistrement: VEB Deutsche Schallplatten, Berlin/DDR; Dresden, Lukaskirche, 10/1985, 4/1986, 10/1986
Künstlerische Aufnahmeleitung/Recording Supervision/Directeurs de l'enregistrement: Dagmar Vorwerk, Heinz Wegner
Toningenieur/Recording Engineer/Ingénieur du son: Horst Kunze
Cover Illustration: Heinrich Schütz, Symphoniae sacrae II. Titelblatt des Stimmbuchs Prima Vox. Buchdruck (zweifarbig), Dresden 1647. Dresden. Sächsische Landesbibliothek, Mus. 1479 E 2 (Photo: Deutsche Fotothek Dresden)
Cover Design: Adam Backhausen, Köln
® 1988 CAPRICCIO — Ein Produkt der Delta Music GmbH, D-5020 Königsdorf
LC 8748

Исполнители

Общий список на все 3 диска

PETER SCHREIER, ALBRECHT LEPETIT, REINHART GINZEL, EBERHARD BÜCHNER, Tenor / tenor / ténor
EKKEHARD WAGNER, Tenor / tenor / ténor, Altus
JOCHEN KOWALSKI, Countertenor / countertenor / contraténor
HERMANN CHRISTIAN POLSTER, GÜNTHER SCHMIDT, Baß / bass / basse
GABRIELE AUENMÜLLER, GISELA BURKHARDT, Sopran/soprano
ELISABETH WILKE, Sopran, Alt / soprano, contralto
CLAUDIUS DECKERT, NORBERT KLEINSCHMIDT, MARKUS SCHLEGEL, STEPHAN LOGES, JAN LÜTH, HELGE TITTELBACH, Knabensopran / boy soprano (Kruzianer / Member of/ Membre du DRESDNER KREUZCHOR)
Manfred Otte, Hans Gette, Eberhard Palm, Christian Redder, Jutta Redder, Helga Glöckner, Werner Thomsch, Violine /violin / violon
Reiner Gebauer, Claudia Gebauer, Flautino, Sopran-, Tenor- und Alt Flöte / flautino, soprano, tenor and alto flute / flautino, flûte soprano, ténor et alto en sol
Thekla Waldbaur, Tenor-, Sopran-und Alt-Flöte / tenor, soprano and alto flute / flûte ténor, soprano et alto en sol
Gerhard Weißenborn, Jörg Richter, Alt-Posaune / alto trombone / trombone alto
Andreas Voigt, Heiner Ullmann, Zink, Cornetto, Cornettino / cornett, E-flat cornet /cornet à bouquin, cornettino
Basso continuo:
Siegfried Pank, Monika Tutschku, Tenor-Viola da gamba / tenor viola da gamba / viole de gambe ténor
Achim Beyer, Violone
Roland Zimmer, Franz Just, Laute / lute / luth
Günter Angerhöfer, Baß-Dulzian
Jürgen Richter, Tenor-Posaune / tenor trombone / trombone ténor
Gerhard Weißenborn, Tenor- und Baß-Posaune / tenor and bass trombone / trombone ténor et basse
Frank Beyer, Baß-Posaune / bass trombone / trombone basse
Christine Schornsheim, Orgel, Virginal, Cembalo, Regal / organ, virginals, harpsichord, regal /orgue, virginal, clavecin, régale
Raphael Alpermann, Orgel, Regal / organ, regal / orgue, régale
Armin Thalheim, Orgel, Cembalo / organ, haprsichord / orgue, clavecin
DRESDNER KREUZCHOR ■ CAPELLA FIDICINIA ■ HANS GRÜSS (Leitung/direction)

Лог создания рипаDisk 1

Exact Audio Copy V1.0 beta 3 from 29. August 2011
Отчёт EAC об извлечении, выполненном 16. января 2015, 12:37
Heinrich Schuetz / Capella Fidicinia / Symphoniae Sacrae II, Vol. 1
Дисковод: MATSHITABD-MLT UJ240ES Adapter: 2 ID: 0
Режим чтения : Достоверность
Использование точного потока : Да
Отключение кэша аудио : Да
Использование указателей C2 : Нет
Коррекция смещения при чтении : 103
Способность читать области Lead-in и Lead-out : Нет
Заполнение пропущенных сэмплов тишиной : Да
Удаление блоков с тишиной в начале и конце : Нет
При вычислениях CRC использовались нулевые сэмплы : Да
Интерфейс : Встроенный Win32-интерфейс для Win NT/2000
Обработка зазоров : Добавлено к предыдущему треку
Выходной формат : Пользовательский кодировщик
Выбранный битрейт : 1024 kBit/s
Качество : Высокий
Добавление ID3-тега : Нет
Утилита сжатия : C:\Program Files (x86)\Exact Audio Copy\Flac\flac.exe
Дополнительные параметры : -V -8 -T "Genre=%genre%" -T "Artist=%artist%" -T "Title=%title%" -T "Album=%albumtitle%" -T "Date=%year%" -T "Tracknumber=%tracknr%" -T "Comment=%comment%" %source%
TOC извлечённого CD
Трек | Старт | Длительность | Начальный сектор | Конечный сектор
---------------------------------------------------------------------
1 | 0:00.00 | 5:36.32 | 0 | 25231
2 | 5:36.32 | 4:38.70 | 25232 | 46151
3 | 10:15.27 | 5:20.18 | 46152 | 70169
4 | 15:35.45 | 4:29.20 | 70170 | 90364
5 | 20:04.65 | 6:05.10 | 90365 | 117749
6 | 26:10.00 | 7:35.02 | 117750 | 151876
7 | 33:45.02 | 3:58.68 | 151877 | 169794
8 | 37:43.70 | 2:43.50 | 169795 | 182069
9 | 40:27.45 | 5:08.20 | 182070 | 205189
10 | 45:35.65 | 5:12.15 | 205190 | 228604
Трек 1
Имя файла C:\Users\Nornore\Documents\EAC rips\SchutzSymphoniaeSacraeII-1\01. Herr unser Herscher, wie herrlich ist dein Nam SWV 343.wav
Длина предзазора 0:00:02.00
Пиковый уровень 78.4 %
Скорость извлечения 2.6 X
Качество трека 100.0 %
CRC теста D2392DC8
CRC копии D2392DC8
Точное извлечение (достоверность 2) [9CD8192D] (AR v2)
Копирование... OK
Трек 2
Имя файла C:\Users\Nornore\Documents\EAC rips\SchutzSymphoniaeSacraeII-1\02. Hütet euch, daß eure Herzen nicht beschweret werden SWV 351.wav
Пиковый уровень 43.6 %
Скорость извлечения 2.9 X
Качество трека 100.0 %
CRC теста F3996C96
CRC копии F3996C96
Точное извлечение (достоверность 2) [09B9B491] (AR v2)
Копирование... OK
Трек 3
Имя файла C:\Users\Nornore\Documents\EAC rips\SchutzSymphoniaeSacraeII-1\03. Ich werde nicht sterben, sondern leben SWV 346.wav
Длина предзазора 0:00:02.47
Пиковый уровень 57.2 %
Скорость извлечения 3.3 X
Качество трека 100.0 %
CRC теста C9BF78CF
CRC копии C9BF78CF
Точное извлечение (достоверность 2) [1BC499D4] (AR v2)
Копирование... OK
Трек 4
Имя файла C:\Users\Nornore\Documents\EAC rips\SchutzSymphoniaeSacraeII-1\04. Ich danke dir, Herr, von ganzem Herzen SWV 347.wav
Пиковый уровень 62.2 %
Скорость извлечения 3.1 X
Качество трека 99.9 %
CRC теста A9C10C69
CRC копии A9C10C69
Точное извлечение (достоверность 2) [9CD665CD] (AR v2)
Копирование... OK
Трек 5
Имя файла C:\Users\Nornore\Documents\EAC rips\SchutzSymphoniaeSacraeII-1\05. Zweierlei bitte ich, Herr, von dir SWV 360.wav
Длина предзазора 0:00:01.00
Пиковый уровень 79.9 %
Скорость извлечения 3.9 X
Качество трека 100.0 %
CRC теста 4FD1FEA4
CRC копии 4FD1FEA4
Точное извлечение (достоверность 2) [EE6F4778] (AR v2)
Копирование... OK
Трек 6
Имя файла C:\Users\Nornore\Documents\EAC rips\SchutzSymphoniaeSacraeII-1\06. Meine Seele erhebt den Herren SWV 344.wav
Длина предзазора 0:00:01.50
Пиковый уровень 50.0 %
Скорость извлечения 4.2 X
Качество трека 100.0 %
CRC теста EDE508ED
CRC копии EDE508ED
Точное извлечение (достоверность 2) [E291211C] (AR v2)
Копирование... OK
Трек 7
Имя файла C:\Users\Nornore\Documents\EAC rips\SchutzSymphoniaeSacraeII-1\07. Herr, nun läßt du deinen Diener in Frieden fahren SWV 352.wav
Пиковый уровень 34.1 %
Скорость извлечения 4.2 X
Качество трека 100.0 %
CRC теста BD9FBDE5
CRC копии BD9FBDE5
Точное извлечение (достоверность 2) [0857C7AD] (AR v2)
Копирование... OK
Трек 8
Имя файла C:\Users\Nornore\Documents\EAC rips\SchutzSymphoniaeSacraeII-1\08. Wie ein Rubin in feinem Golde leuchtet SWV 357.wav
Пиковый уровень 41.5 %
Скорость извлечения 3.5 X
Качество трека 99.9 %
CRC теста CD02C268
CRC копии CD02C268
Точное извлечение (достоверность 2) [27D9C4F5] (AR v2)
Копирование... OK
Трек 9
Имя файла C:\Users\Nornore\Documents\EAC rips\SchutzSymphoniaeSacraeII-1\09. Die so ihr den Herren fürchtet SWV 364.wav
Пиковый уровень 60.6 %
Скорость извлечения 4.6 X
Качество трека 100.0 %
CRC теста 07D59E68
CRC копии 07D59E68
Точное извлечение (достоверность 2) [040B4D54] (AR v2)
Копирование... OK
Трек 10
Имя файла C:\Users\Nornore\Documents\EAC rips\SchutzSymphoniaeSacraeII-1\10. Der Herr ist mein Licht und Heil SWV 359.wav
Пиковый уровень 70.8 %
Скорость извлечения 4.9 X
Качество трека 100.0 %
CRC теста 4FD4A552
CRC копии 4FD4A552
Точное извлечение (достоверность 2) [41B4D947] (AR v2)
Копирование... OK
Все треки извлечены точно
Ошибок не произошло
Конец отчёта
==== Контрольная сумма отчёта A2F0973D24E5DF0AED8E9AB42F94EF2AE28DDBDC1763601A3527ACFEEB055E27 ====

Disk 2

Exact Audio Copy V1.0 beta 3 from 29. August 2011
Отчёт EAC об извлечении, выполненном 14. января 2015, 15:43
Heinrich Schuetz / Dresdner Kreuzchor, Capella Fidicinia / Symphoniae Sacrae II, Vol. 2
Дисковод: MATSHITABD-MLT UJ240ES Adapter: 2 ID: 0
Режим чтения : Достоверность
Использование точного потока : Да
Отключение кэша аудио : Да
Использование указателей C2 : Нет
Коррекция смещения при чтении : 103
Способность читать области Lead-in и Lead-out : Нет
Заполнение пропущенных сэмплов тишиной : Да
Удаление блоков с тишиной в начале и конце : Нет
При вычислениях CRC использовались нулевые сэмплы : Да
Интерфейс : Встроенный Win32-интерфейс для Win NT/2000
Обработка зазоров : Добавлено к предыдущему треку
Выходной формат : Пользовательский кодировщик
Выбранный битрейт : 1024 kBit/s
Качество : Высокий
Добавление ID3-тега : Нет
Утилита сжатия : C:\Program Files (x86)\Exact Audio Copy\Flac\flac.exe
Дополнительные параметры : -V -8 -T "Genre=%genre%" -T "Artist=%artist%" -T "Title=%title%" -T "Album=%albumtitle%" -T "Date=%year%" -T "Tracknumber=%tracknr%" -T "Comment=%comment%" %source%
TOC извлечённого CD
Трек | Старт | Длительность | Начальный сектор | Конечный сектор
---------------------------------------------------------------------
1 | 0:00.00 | 3:33.25 | 0 | 15999
2 | 3:33.25 | 8:11.60 | 16000 | 52884
3 | 11:45.10 | 4:00.30 | 52885 | 70914
4 | 15:45.40 | 3:47.05 | 70915 | 87944
5 | 19:32.45 | 4:29.17 | 87945 | 108136
6 | 24:01.62 | 3:03.33 | 108137 | 121894
7 | 27:05.20 | 3:19.55 | 121895 | 136874
8 | 30:25.00 | 6:21.27 | 136875 | 165476
9 | 36:46.27 | 3:20.53 | 165477 | 180529
10 | 40:07.05 | 5:37.07 | 180530 | 205811
11 | 45:44.12 | 5:15.30 | 205812 | 229466
12 | 50:59.42 | 4:31.35 | 229467 | 249826
Трек 1
Имя файла C:\Users\Nornore\Documents\EAC rips\SchutzSymphoniae SacraeII-2\01. SWV341 Mein Herz ist bereit, Gott, dass ich singe.wav
Длина предзазора 0:00:02.00
Пиковый уровень 42.9 %
Скорость извлечения 2.4 X
Качество трека 100.0 %
CRC теста 8126AB11
CRC копии 8126AB11
Точное извлечение (достоверность 5) [D09C8F36] (AR v2)
Копирование... OK
Трек 2
Имя файла C:\Users\Nornore\Documents\EAC rips\SchutzSymphoniae SacraeII-2\02. SWV366 Von Gott will ich nicht lassen.wav
Пиковый уровень 85.8 %
Скорость извлечения 3.0 X
Качество трека 100.0 %
CRC теста 305390FC
CRC копии 305390FC
Точное извлечение (достоверность 5) [6109A57D] (AR v2)
Копирование... OK
Трек 3
Имя файла C:\Users\Nornore\Documents\EAC rips\SchutzSymphoniae SacraeII-2\03. SWV354 Verleih uns Frieden gnädiglich (Erster Teil).wav
Длина предзазора 0:00:03.65
Пиковый уровень 93.3 %
Скорость извлечения 3.2 X
Качество трека 100.0 %
CRC теста 7E919E73
CRC копии 7E919E73
Точное извлечение (достоверность 5) [18A8F3C5] (AR v2)
Копирование... OK
Трек 4
Имя файла C:\Users\Nornore\Documents\EAC rips\SchutzSymphoniae SacraeII-2\04. SWV355 Gib unsern Fürsten und aller Obrigkeit (Anderer Teil).wav
Пиковый уровень 50.0 %
Скорость извлечения 3.0 X
Качество трека 99.9 %
CRC теста DB2BB223
CRC копии DB2BB223
Точное извлечение (достоверность 5) [AFC5E609] (AR v2)
Копирование... OK
Трек 5
Имя файла C:\Users\Nornore\Documents\EAC rips\SchutzSymphoniae SacraeII-2\05. SWV358 Iss dein Brot mit Freuden.wav
Пиковый уровень 52.3 %
Скорость извлечения 3.3 X
Качество трека 99.9 %
CRC теста D3D28715
CRC копии D3D28715
Точное извлечение (достоверность 5) [169D23F2] (AR v2)
Копирование... OK
Трек 6
Имя файла C:\Users\Nornore\Documents\EAC rips\SchutzSymphoniae SacraeII-2\06. SWV345 Der Herr ist meine Stärke.wav
Пиковый уровень 42.3 %
Скорость извлечения 3.6 X
Качество трека 100.0 %
CRC теста 6A3098E9
CRC копии 6A3098E9
Точное извлечение (достоверность 5) [ACDC045D] (AR v2)
Копирование... OK
Трек 7
Имя файла C:\Users\Nornore\Documents\EAC rips\SchutzSymphoniae SacraeII-2\07. SWV363 Lobet den Herrn, alle Heiden.wav
Пиковый уровень 64.7 %
Скорость извлечения 3.8 X
Качество трека 100.0 %
CRC теста 0B553933
CRC копии 0B553933
Точное извлечение (достоверность 5) [C397CAE7] (AR v2)
Копирование... OK
Трек 8
Имя файла C:\Users\Nornore\Documents\EAC rips\SchutzSymphoniae SacraeII-2\08. SWV353 Was betrübst du dich, meine Seele.wav
Длина предзазора 0:00:02.28
Пиковый уровень 75.9 %
Скорость извлечения 4.3 X
Качество трека 100.0 %
CRC теста 63F582FA
CRC копии 63F582FA
Точное извлечение (достоверность 5) [32957410] (AR v2)
Копирование... OK
Трек 9
Имя файла C:\Users\Nornore\Documents\EAC rips\SchutzSymphoniae SacraeII-2\09. SWV345 Der Herr ist meine Stärke.wav
Длина предзазора 0:00:04.00
Пиковый уровень 28.8 %
Скорость извлечения 4.2 X
Качество трека 100.0 %
CRC теста B4DC83DB
CRC копии B4DC83DB
Точное извлечение (достоверность 5) [74B88ED3] (AR v2)
Копирование... OK
Трек 10
Имя файла C:\Users\Nornore\Documents\EAC rips\SchutzSymphoniae SacraeII-2\10. SWV362 Vom Aufgang der Sonnen bis zu ihrem Niedergang.wav
Пиковый уровень 36.9 %
Скорость извлечения 4.7 X
Качество трека 100.0 %
CRC теста BFB0B4E4
CRC копии BFB0B4E4
Точное извлечение (достоверность 5) [6DE1D586] (AR v2)
Копирование... OK
Трек 11
Имя файла C:\Users\Nornore\Documents\EAC rips\SchutzSymphoniae SacraeII-2\11. SWV346 Ich werde nicht sterben, sondern leben (Erster Teil).wav
Пиковый уровень 49.7 %
Скорость извлечения 4.4 X
Качество трека 99.9 %
CRC теста 4E4A299C
CRC копии 4E4A299C
Точное извлечение (достоверность 5) [C8B02589] (AR v2)
Копирование... OK
Трек 12
Имя файла C:\Users\Nornore\Documents\EAC rips\SchutzSymphoniae SacraeII-2\12. SWV347 Ich danke dir, Herr, von ganzem Herzen (Anderer Teil).wav
Пиковый уровень 55.2 %
Скорость извлечения 5.0 X
Качество трека 100.0 %
CRC теста 3761641E
CRC копии 3761641E
Точное извлечение (достоверность 5) [F437FA3D] (AR v2)
Копирование... OK
Все треки извлечены точно
Ошибок не произошло
Конец отчёта
==== Контрольная сумма отчёта 24A6043C548D5B876BC5B8464BE74587123C531402C6FA9FF63D5FD7082DAC14 ====

Disk 3

Exact Audio Copy V1.0 beta 3 from 29. August 2011
Отчёт EAC об извлечении, выполненном 14. января 2015, 17:52
Heinrich Schuetz / Capella Fidicinia / Symphoniae Sacrae II, Vol. 3
Дисковод: MATSHITABD-MLT UJ240ES Adapter: 2 ID: 0
Режим чтения : Достоверность
Использование точного потока : Да
Отключение кэша аудио : Да
Использование указателей C2 : Нет
Коррекция смещения при чтении : 103
Способность читать области Lead-in и Lead-out : Нет
Заполнение пропущенных сэмплов тишиной : Да
Удаление блоков с тишиной в начале и конце : Нет
При вычислениях CRC использовались нулевые сэмплы : Да
Интерфейс : Встроенный Win32-интерфейс для Win NT/2000
Обработка зазоров : Добавлено к предыдущему треку
Выходной формат : Пользовательский кодировщик
Выбранный битрейт : 1024 kBit/s
Качество : Высокий
Добавление ID3-тега : Нет
Утилита сжатия : C:\Program Files (x86)\Exact Audio Copy\Flac\flac.exe
Дополнительные параметры : -V -8 -T "Genre=%genre%" -T "Artist=%artist%" -T "Title=%title%" -T "Album=%albumtitle%" -T "Date=%year%" -T "Tracknumber=%tracknr%" -T "Comment=%comment%" %source%
TOC извлечённого CD
Трек | Старт | Длительность | Начальный сектор | Конечный сектор
---------------------------------------------------------------------
1 | 0:00.00 | 4:28.50 | 0 | 20149
2 | 4:28.50 | 2:44.37 | 20150 | 32486
3 | 7:13.12 | 6:27.20 | 32487 | 61531
4 | 13:40.32 | 6:27.35 | 61532 | 90591
5 | 20:07.67 | 4:16.10 | 90592 | 109801
6 | 24:24.02 | 4:52.73 | 109802 | 131774
7 | 29:17.00 | 4:12.07 | 131775 | 150681
8 | 33:29.07 | 8:11.13 | 150682 | 187519
9 | 41:40.20 | 4:47.60 | 187520 | 209104
10 | 46:28.05 | 4:52.37 | 209105 | 231041
11 | 51:20.42 | 5:35.73 | 231042 | 256239
Трек 1
Имя файла C:\Users\Nornore\Documents\EAC rips\SchutzSymphoniaeSacraeII-3\01. Singet dem Herrn ein neues Lied (SWV 342).wav
Длина предзазора 0:00:02.00
Пиковый уровень 37.9 %
Скорость извлечения 0.7 X
Качество трека 100.0 %
CRC теста 5FFF4064
CRC копии 5FFF4064
Точное извлечение (достоверность 4) [FFFEF323] (AR v2)
Копирование... OK
Трек 2
Имя файла C:\Users\Nornore\Documents\EAC rips\SchutzSymphoniaeSacraeII-3\02. Claudio Monteverdi- Armato il cor.wav
Пиковый уровень 50.3 %
Скорость извлечения 0.8 X
Качество трека 100.0 %
CRC теста 086310D7
CRC копии 086310D7
Точное извлечение (достоверность 3) [70071652] (AR v2)
Копирование... OK
Трек 3
Имя файла C:\Users\Nornore\Documents\EAC rips\SchutzSymphoniaeSacraeII-3\03. Claudio Monteverdi- Zefiro torna.wav
Пиковый уровень 55.2 %
Скорость извлечения 0.9 X
Качество трека 100.0 %
CRC теста 96D17DB7
CRC копии 96D17DB7
Точное извлечение (достоверность 3) [11C6FAF8] (AR v2)
Копирование... OK
Трек 4
Имя файла C:\Users\Nornore\Documents\EAC rips\SchutzSymphoniaeSacraeII-3\04. Es steh Gott auf, daß seine Feind zerstreuet werden (SWV 356).wav
Пиковый уровень 62.8 %
Скорость извлечения 1.1 X
Качество трека 100.0 %
CRC теста 70B51DAF
CRC копии 70B51DAF
Точное извлечение (достоверность 4) [D386BB10] (AR v2)
Копирование... OK
Трек 5
Имя файла C:\Users\Nornore\Documents\EAC rips\SchutzSymphoniaeSacraeII-3\05. Iß dein Brot mit Freuden (SWV 358).wav
Пиковый уровень 57.4 %
Скорость извлечения 1.1 X
Качество трека 100.0 %
CRC теста BD4226D6
CRC копии BD4226D6
Точное извлечение (достоверность 4) [3D1389AD] (AR v2)
Копирование... OK
Трек 6
Имя файла C:\Users\Nornore\Documents\EAC rips\SchutzSymphoniaeSacraeII-3\06. Herr, neige deine Himmel und fahr herab (SWV 361).wav
Пиковый уровень 48.1 %
Скорость извлечения 1.2 X
Качество трека 100.0 %
CRC теста 44287BC0
CRC копии 44287BC0
Точное извлечение (достоверность 4) [B9CBA6D5] (AR v2)
Копирование... OK
Трек 7
Имя файла C:\Users\Nornore\Documents\EAC rips\SchutzSymphoniaeSacraeII-3\07. Frohlocket mit Händen und jauchzet dem Herren (SWV 349).wav
Длина предзазора 0:00:02.03
Пиковый уровень 50.0 %
Скорость извлечения 1.2 X
Качество трека 100.0 %
CRC теста F2B72ED0
CRC копии F2B72ED0
Точное извлечение (достоверность 4) [8BDFAE0C] (AR v2)
Копирование... OK
Трек 8
Имя файла C:\Users\Nornore\Documents\EAC rips\SchutzSymphoniaeSacraeII-3\08. Drei schöne Dinge seind (SWV 365).wav
Пиковый уровень 47.2 %
Скорость извлечения 1.4 X
Качество трека 100.0 %
CRC теста 5FC5F299
CRC копии 5FC5F299
Точное извлечение (достоверность 4) [F94F6F6A] (AR v2)
Копирование... OK
Трек 9
Имя файла C:\Users\Nornore\Documents\EAC rips\SchutzSymphoniaeSacraeII-3\09. Herrlich lieb hab ich dich,o Herr, meine Stärke (SWV 348).wav
Пиковый уровень 57.2 %
Скорость извлечения 1.3 X
Качество трека 99.9 %
CRC теста 1E653085
CRC копии 1E653085
Точное извлечение (достоверность 4) [ACA8BB91] (AR v2)
Копирование... OK
Трек 10
Имя файла C:\Users\Nornore\Documents\EAC rips\SchutzSymphoniaeSacraeII-3\10. Lobet den Herren in seinem Heilgtum (SWV 350).wav
Длина предзазора 0:00:02.40
Пиковый уровень 62.2 %
Скорость извлечения 1.3 X
Качество трека 99.9 %
CRC теста D29E0B73
CRC копии D29E0B73
Точное извлечение (достоверность 4) [7A82B2FA] (AR v2)
Копирование... OK
Трек 11
Имя файла C:\Users\Nornore\Documents\EAC rips\SchutzSymphoniaeSacraeII-3\11. Freut euch des Herren, ihr Gerechten (SWV 367).wav
Пиковый уровень 50.1 %
Скорость извлечения 1.4 X
Качество трека 99.9 %
CRC теста 22B17245
CRC копии 22B17245
Точное извлечение (достоверность 4) [F3B0ADD0] (AR v2)
Копирование... OK
Все треки извлечены точно
Ошибок не произошло
Конец отчёта
==== Контрольная сумма отчёта 8BC94E8779084AEE8842A28F996C20BF673C3E60347DBA01362849827D17766B ====

Содержание индексной карты (.CUE)Disk 1

REM GENRE "Geistliche Musik"
REM DATE 1988
REM DISCID 870BE80A
REM COMMENT "ExactAudioCopy v1.0b3"
CATALOG 4006408101109
PERFORMER "Heinrich Schuetz / Capella Fidicinia"
TITLE "Symphoniae Sacrae II, Vol. 1"
FILE "01. Herr unser Herscher, wie herrlich ist dein Nam SWV 343.wav" WAVE
TRACK 01 AUDIO
TITLE "Herr unser Herscher, wie herrlich ist dein Nam SWV 343"
PERFORMER "Heinrich Schuetz / Capella Fidicinia"
INDEX 01 00:00:00
FILE "02. Hütet euch, daß eure Herzen nicht beschweret werden SWV 351.wav" WAVE
TRACK 02 AUDIO
TITLE "Hütet euch, daß eure Herzen nicht beschweret werden SWV 351"
PERFORMER "Heinrich Schuetz / Capella Fidicinia"
INDEX 01 00:00:00
TRACK 03 AUDIO
TITLE "Ich werde nicht sterben, sondern leben SWV 346"
PERFORMER "Heinrich Schuetz / Capella Fidicinia"
INDEX 00 04:36:23
FILE "03. Ich werde nicht sterben, sondern leben SWV 346.wav" WAVE
INDEX 01 00:00:00
FILE "04. Ich danke dir, Herr, von ganzem Herzen SWV 347.wav" WAVE
TRACK 04 AUDIO
TITLE "Ich danke dir, Herr, von ganzem Herzen SWV 347"
PERFORMER "Heinrich Schuetz / Capella Fidicinia"
INDEX 01 00:00:00
TRACK 05 AUDIO
TITLE "Zweierlei bitte ich, Herr, von dir SWV 360"
PERFORMER "Heinrich Schuetz / Capella Fidicinia"
INDEX 00 04:28:20
FILE "05. Zweierlei bitte ich, Herr, von dir SWV 360.wav" WAVE
INDEX 01 00:00:00
TRACK 06 AUDIO
TITLE "Meine Seele erhebt den Herren SWV 344"
PERFORMER "Heinrich Schuetz / Capella Fidicinia"
INDEX 00 06:03:35
FILE "06. Meine Seele erhebt den Herren SWV 344.wav" WAVE
INDEX 01 00:00:00
FILE "07. Herr, nun läßt du deinen Diener in Frieden fahren SWV 352.wav" WAVE
TRACK 07 AUDIO
TITLE "Herr, nun läßt du deinen Diener in Frieden fahren SWV 352"
PERFORMER "Heinrich Schuetz / Capella Fidicinia"
INDEX 01 00:00:00
FILE "08. Wie ein Rubin in feinem Golde leuchtet SWV 357.wav" WAVE
TRACK 08 AUDIO
TITLE "Wie ein Rubin in feinem Golde leuchtet SWV 357"
PERFORMER "Heinrich Schuetz / Capella Fidicinia"
INDEX 01 00:00:00
FILE "09. Die so ihr den Herren fürchtet SWV 364.wav" WAVE
TRACK 09 AUDIO
TITLE "Die so ihr den Herren fürchtet SWV 364"
PERFORMER "Heinrich Schuetz / Capella Fidicinia"
INDEX 01 00:00:00
FILE "10. Der Herr ist mein Licht und Heil SWV 359.wav" WAVE
TRACK 10 AUDIO
TITLE "Der Herr ist mein Licht und Heil SWV 359"
PERFORMER "Heinrich Schuetz / Capella Fidicinia"
INDEX 01 00:00:00

Disk 2

REM GENRE "Geistliche Musik"
REM DATE 1988
REM DISCID 9F0D030C
REM COMMENT "ExactAudioCopy v1.0b3"
CATALOG 4006408101116
PERFORMER "Heinrich Schuetz / Dresdner Kreuzchor, Capella Fidicinia"
TITLE "Symphoniae Sacrae II, Vol. 2"
FILE "01. SWV341 Mein Herz ist bereit, Gott, dass ich singe.wav" WAVE
TRACK 01 AUDIO
TITLE "SWV341 Mein Herz ist bereit, Gott, dass ich singe"
PERFORMER "Heinrich Schuetz / Dresdner Kreuzchor, Capella Fidicinia"
INDEX 01 00:00:00
FILE "02. SWV366 Von Gott will ich nicht lassen.wav" WAVE
TRACK 02 AUDIO
TITLE "SWV366 Von Gott will ich nicht lassen"
PERFORMER "Heinrich Schuetz / Dresdner Kreuzchor, Capella Fidicinia"
INDEX 01 00:00:00
TRACK 03 AUDIO
TITLE "SWV354 Verleih uns Frieden gnädiglich (Erster Teil)"
PERFORMER "Heinrich Schuetz / Dresdner Kreuzchor, Capella Fidicinia"
INDEX 00 08:07:70
FILE "03. SWV354 Verleih uns Frieden gnädiglich (Erster Teil).wav" WAVE
INDEX 01 00:00:00
FILE "04. SWV355 Gib unsern Fürsten und aller Obrigkeit (Anderer Teil).wav" WAVE
TRACK 04 AUDIO
TITLE "SWV355 Gib unsern Fürsten und aller Obrigkeit (Anderer Teil)"
PERFORMER "Heinrich Schuetz / Dresdner Kreuzchor, Capella Fidicinia"
INDEX 01 00:00:00
FILE "05. SWV358 Iss dein Brot mit Freuden.wav" WAVE
TRACK 05 AUDIO
TITLE "SWV358 Iss dein Brot mit Freuden"
PERFORMER "Heinrich Schuetz / Dresdner Kreuzchor, Capella Fidicinia"
INDEX 01 00:00:00
FILE "06. SWV345 Der Herr ist meine Stärke.wav" WAVE
TRACK 06 AUDIO
TITLE "SWV345 Der Herr ist meine Stärke"
PERFORMER "Heinrich Schuetz / Dresdner Kreuzchor, Capella Fidicinia"
INDEX 01 00:00:00
FILE "07. SWV363 Lobet den Herrn, alle Heiden.wav" WAVE
TRACK 07 AUDIO
TITLE "SWV363 Lobet den Herrn, alle Heiden"
PERFORMER "Heinrich Schuetz / Dresdner Kreuzchor, Capella Fidicinia"
INDEX 01 00:00:00
TRACK 08 AUDIO
TITLE "SWV353 Was betrübst du dich, meine Seele"
PERFORMER "Heinrich Schuetz / Dresdner Kreuzchor, Capella Fidicinia"
INDEX 00 03:17:27
FILE "08. SWV353 Was betrübst du dich, meine Seele.wav" WAVE
INDEX 01 00:00:00
TRACK 09 AUDIO
TITLE "SWV345 Der Herr ist meine Stärke"
PERFORMER "Heinrich Schuetz / Dresdner Kreuzchor, Capella Fidicinia"
INDEX 00 06:17:27
FILE "09. SWV345 Der Herr ist meine Stärke.wav" WAVE
INDEX 01 00:00:00
FILE "10. SWV362 Vom Aufgang der Sonnen bis zu ihrem Niedergang.wav" WAVE
TRACK 10 AUDIO
TITLE "SWV362 Vom Aufgang der Sonnen bis zu ihrem Niedergang"
PERFORMER "Heinrich Schuetz / Dresdner Kreuzchor, Capella Fidicinia"
INDEX 01 00:00:00
FILE "11. SWV346 Ich werde nicht sterben, sondern leben (Erster Teil).wav" WAVE
TRACK 11 AUDIO
TITLE "SWV346 Ich werde nicht sterben, sondern leben (Erster Teil)"
PERFORMER "Heinrich Schuetz / Dresdner Kreuzchor, Capella Fidicinia"
INDEX 01 00:00:00
FILE "12. SWV347 Ich danke dir, Herr, von ganzem Herzen (Anderer Teil).wav" WAVE
TRACK 12 AUDIO
TITLE "SWV347 Ich danke dir, Herr, von ganzem Herzen (Anderer Teil)"
PERFORMER "Heinrich Schuetz / Dresdner Kreuzchor, Capella Fidicinia"
INDEX 01 00:00:00

Disk 3

REM GENRE Classical
REM DATE 1988
REM DISCID 820D580B
REM COMMENT "ExactAudioCopy v1.0b3"
CATALOG 4006408101123
PERFORMER "Heinrich Schuetz / Capella Fidicinia"
TITLE "Symphoniae Sacrae II, Vol. 3"
FILE "01. Singet dem Herrn ein neues Lied (SWV 342).wav" WAVE
TRACK 01 AUDIO
TITLE "Singet dem Herrn ein neues Lied (SWV 342)"
PERFORMER "Heinrich Schuetz / Capella Fidicinia"
INDEX 01 00:00:00
FILE "02. Claudio Monteverdi- Armato il cor.wav" WAVE
TRACK 02 AUDIO
TITLE "Claudio Monteverdi: Armato il cor"
PERFORMER "Heinrich Schuetz / Capella Fidicinia"
INDEX 01 00:00:00
FILE "03. Claudio Monteverdi- Zefiro torna.wav" WAVE
TRACK 03 AUDIO
TITLE "Claudio Monteverdi: Zefiro torna"
PERFORMER "Heinrich Schuetz / Capella Fidicinia"
INDEX 01 00:00:00
FILE "04. Es steh Gott auf, daß seine Feind zerstreuet werden (SWV 356).wav" WAVE
TRACK 04 AUDIO
TITLE "Es steh Gott auf, daß seine Feind zerstreuet werden (SWV 356)"
PERFORMER "Heinrich Schuetz / Capella Fidicinia"
INDEX 01 00:00:00
FILE "05. Iß dein Brot mit Freuden (SWV 358).wav" WAVE
TRACK 05 AUDIO
TITLE "Iß dein Brot mit Freuden (SWV 358)"
PERFORMER "Heinrich Schuetz / Capella Fidicinia"
INDEX 01 00:00:00
FILE "06. Herr, neige deine Himmel und fahr herab (SWV 361).wav" WAVE
TRACK 06 AUDIO
TITLE "Herr, neige deine Himmel und fahr herab (SWV 361)"
PERFORMER "Heinrich Schuetz / Capella Fidicinia"
INDEX 01 00:00:00
TRACK 07 AUDIO
TITLE "Frohlocket mit Händen und jauchzet dem Herren (SWV 349)"
PERFORMER "Heinrich Schuetz / Capella Fidicinia"
INDEX 00 04:50:70
FILE "07. Frohlocket mit Händen und jauchzet dem Herren (SWV 349).wav" WAVE
INDEX 01 00:00:00
FILE "08. Drei schöne Dinge seind (SWV 365).wav" WAVE
TRACK 08 AUDIO
TITLE "Drei schöne Dinge seind (SWV 365)"
PERFORMER "Heinrich Schuetz / Capella Fidicinia"
INDEX 01 00:00:00
FILE "09. Herrlich lieb hab ich dich,o Herr, meine Stärke (SWV 348).wav" WAVE
TRACK 09 AUDIO
TITLE "Herrlich lieb hab ich dich,o Herr, meine Stärke (SWV 348)"
PERFORMER "Heinrich Schuetz / Capella Fidicinia"
INDEX 01 00:00:00
TRACK 10 AUDIO
TITLE "Lobet den Herren in seinem Heilgtum (SWV 350)"
PERFORMER "Heinrich Schuetz / Capella Fidicinia"
INDEX 00 04:45:20
FILE "10. Lobet den Herren in seinem Heilgtum (SWV 350).wav" WAVE
INDEX 01 00:00:00
FILE "11. Freut euch des Herren, ihr Gerechten (SWV 367).wav" WAVE
TRACK 11 AUDIO
TITLE "Freut euch des Herren, ihr Gerechten (SWV 367)"
PERFORMER "Heinrich Schuetz / Capella Fidicinia"
INDEX 01 00:00:00
[teatrix.ru].t20379.torrent 
Торрент: Зарегистрирован [ 2016-03-19 20:38 ] · 3BA6E62522C545F1176A6C54FB05A00527AA42E1

Скачать .torrent

Скачать

23 KB

Статус: проверено
Скачан: 0 раз
Размер: 830 MB
terms.php



Быстрый ответ

Имя:

      
Для отправки сообщений необходимо включить JavaScript
Показать сообщения:    

Текущее время: 10-Дек 19:35

Часовой пояс: UTC + 3


Вы можете начинать темы
Вы можете отвечать на сообщения
Вы не можете редактировать свои сообщения
Вы не можете удалять свои сообщения
Вы не можете голосовать в опросах
Вы не можете прикреплять файлы к сообщениям
Вы можете скачивать файлы