(Chamber, Vocal) Wagner - Werke fur Kammerorchester - original und bearbeitet (Maria Riccarda Wesseling, mezzo soprano, Kammerphipharmonie Graubunden, Marcus Bosch - 2009, FLAC (image+.cue), lossless


 

[Цитировать]

Wagner - Werke für Kammerorchester - Bosch
Жанр: Chamber, Vocal
Страна-производитель диска: EU
Год издания диска: 2009
Издатель (лейбл): Coviello Classics
Номер по каталогу: COV 30901
Дата записи: 01-04.11.2007
Аудиокодек: FLAC
Тип рипа: image+.cue
Битрейт аудио: lossless
Продолжительность: 58.27
Источник: собственный рип
Наличие сканов в содержимом раздачи: да
Исполнители:
Maria Riccarda Wesseling, mezzo soprano
Kammerphipharmonie Graubünden
Marcus Bosch

Треклист:

01. Vorspiel (zum 3. Aufzug Die Meistersinger von Nürnberg)
Fünf Gedichte von Mathilde Wesendonck:
02. I. Der Engel
03. II. Stehe still!
04. III. Im Treibhaus
05. IV. Schmerzen
06. V. Traüme
07. Waldweben (aus Siegfried)
08. Gretchen am Spinnrade (aus Sieben Kompositionen zu Goethes Faust)
09. Les adieux de Marie Stuart (Pierre Jean de Beranger)
10. Siegfried-Idyll
Total 58.27

Лог создания рипа:

Exact Audio Copy V1.0 beta 3 from 29. August 2011
Отчёт EAC об извлечении, выполненном 15. февраля 2015, 4:02
Richard Wagner / Werke fur Kammerorchester - original und bearbeitet
Дисковод: Optiarc DVD RW AD-7260S Adapter: 0 ID: 1
Режим чтения : Достоверность
Использование точного потока : Да
Отключение кэша аудио : Да
Использование указателей C2 : Нет
Коррекция смещения при чтении : 48
Способность читать области Lead-in и Lead-out : Нет
Заполнение пропущенных сэмплов тишиной : Да
Удаление блоков с тишиной в начале и конце : Нет
При вычислениях CRC использовались нулевые сэмплы : Да
Интерфейс : Встроенный Win32-интерфейс для Win NT/2000
Выходной формат : Пользовательский кодировщик
Выбранный битрейт : 896 kBit/s
Качество : Высокий
Добавление ID3-тега : Нет
Утилита сжатия : C:\Program Files\FLAC Frontend\tools\flac.exe
Дополнительные параметры : -V -8 -T "Date=%year%" -T "Genre=%genre%" %source%
TOC извлечённого CD
Трек | Старт | Длительность | Начальный сектор | Конечный сектор
---------------------------------------------------------------------
1 | 0:00.00 | 5:13.74 | 0 | 23548
2 | 5:13.74 | 3:07.53 | 23549 | 37626
3 | 8:21.52 | 3:59.36 | 37627 | 55587
4 | 12:21.13 | 5:31.01 | 55588 | 80413
5 | 17:52.14 | 2:10.40 | 80414 | 90203
6 | 20:02.54 | 4:31.58 | 90204 | 110586
7 | 24:34.37 | 8:10.38 | 110587 | 147374
8 | 32:45.00 | 2:03.06 | 147375 | 156605
9 | 34:48.06 | 6:03.48 | 156606 | 183878
10 | 40:51.54 | 17:35.36 | 183879 | 263039
Характеристики диапазона извлечения и сообщения об ошибках
Выбранный диапазон
Имя файла N:\Wagner - Werke fur Kammerorchester - Bosch\Richard Wagner - Werke fur Kammerorchester - original und bearbeitet.wav
Пиковый уровень 98.1 %
Скорость извлечения 4.0 X
Качество диапазона 100.0 %
CRC теста 3B2D2F18
CRC копии 3B2D2F18
Копирование... OK
Ошибок не произошло
AccurateRip: сводка
Трек 1 отсутствует в базе данных
Трек 2 отсутствует в базе данных
Трек 3 отсутствует в базе данных
Трек 4 отсутствует в базе данных
Трек 5 отсутствует в базе данных
Трек 6 отсутствует в базе данных
Трек 7 отсутствует в базе данных
Трек 8 отсутствует в базе данных
Трек 9 отсутствует в базе данных
Трек 10 отсутствует в базе данных
Ни одного трека нет в базе AccurateRip
Конец отчёта
==== Контрольная сумма отчёта 65C0DAE565B2803A10E2FEE63CCD41AE3B3D4895384FE03B396BA3014A4B4323 ====



Показать сообщения:    

Текущее время: 10-Дек 19:42

Часовой пояс: UTC + 3


Вы не можете начинать темы
Вы не можете отвечать на сообщения
Вы не можете редактировать свои сообщения
Вы не можете удалять свои сообщения
Вы не можете голосовать в опросах
Вы не можете прикреплять файлы к сообщениям
Вы не можете скачивать файлы