(Classical Crossover, Piano) [CD] Gabriela Montero - Bach & Beyond: Improvisations on Themes by J.S. Bach - 2006, FLAC (tracks+.cue), lossless


 

[Цитировать]

Gabriela Montero - Bach & Beyond: Improvisations on Themes by J.S. Bach
Жанр: Classical Crossover, Piano
Страна-производитель диска: EU
Год издания диска: 2006
Издатель (лейбл): EMI Classics
Номер по каталогу: 0946 3 57477 2 0
Аудиокодек: FLAC
Тип рипа: tracks+.cue
Битрейт аудио: lossless
Продолжительность: 54:51
Источник (релизер): weisguy (what)
Наличие сканов в содержимом раздачи: нет
Треклист:
01. Jesu, Joy of Man's Desiring (5:26)
02. Presto from Italian Concerto (2:34)
03. Beyond Bach (4:23)
04. Air in G (3:29)
05. Aria (7:37)
06. Adagio (5:01)
07. Preluce in C (4:18)
08. Sheep may safely graze (3:46)
09. Two-Part Invention in D minor (2:40)
10. Allegro (6:03)
11. Adagio (6:23)
12. Toccata in D minor (3:11)
Gabriela Montero - piano

Лог создания рипа

Exact Audio Copy V0.99 prebeta 5 from 4. May 2009
EAC extraction logfile from 24. August 2010, 20:29
Gabriela Montero / Bach and Beyond
Used drive : HL-DT-STDVD-ROM GDR8162B Adapter: 0 ID: 0
Read mode : Secure
Utilize accurate stream : Yes
Defeat audio cache : Yes
Make use of C2 pointers : No
Read offset correction : 102
Overread into Lead-In and Lead-Out : No
Fill up missing offset samples with silence : Yes
Delete leading and trailing silent blocks : No
Null samples used in CRC calculations : Yes
Used interface : Native Win32 interface for Win NT & 2000
Gap handling : Appended to previous track
Used output format : User Defined Encoder
Selected bitrate : 192 kBit/s
Quality : High
Add ID3 tag : No
Command line compressor : C:\Program Files (x86)\Exact Audio Copy\mareo6b2\mareo.exe
Additional command line options : mareo.ini %s %d "%a" "%g" "%t" "%n" %y "%m"
TOC of the extracted CD
Track | Start | Length | Start sector | End sector
---------------------------------------------------------
1 | 0:00.00 | 5:25.58 | 0 | 24432
2 | 5:25.58 | 2:33.69 | 24433 | 35976
3 | 7:59.52 | 4:23.22 | 35977 | 55723
4 | 12:22.74 | 3:29.20 | 55724 | 71418
5 | 15:52.19 | 7:36.63 | 71419 | 105681
6 | 23:29.07 | 5:01.30 | 105682 | 128286
7 | 28:30.37 | 4:18.16 | 128287 | 147652
8 | 32:48.53 | 3:46.07 | 147653 | 164609
9 | 36:34.60 | 2:40.06 | 164610 | 176615
10 | 39:14.66 | 6:03.23 | 176616 | 203863
11 | 45:18.14 | 6:23.25 | 203864 | 232613
12 | 51:41.39 | 3:11.37 | 232614 | 246975
Track 1
Filename D:\wave dumps\01 - Gabriela Montero - Jesu, Joy of Man's Desiring.wav
Pre-gap length 0:00:02.00
Peak level 74.7 %
Track quality 99.9 %
Test CRC 2C7F0548
Copy CRC 2C7F0548
Cannot be verified as accurate (confidence 16) [A3BC1240], AccurateRip returned [F64AF65F]
Copy OK
Track 2
Filename D:\wave dumps\02 - Gabriela Montero - Presto from Italian Concerto.wav
Peak level 88.3 %
Track quality 100.0 %
Test CRC ADAA85C5
Copy CRC ADAA85C5
Cannot be verified as accurate (confidence 16) [6783AB4F], AccurateRip returned [B8978279]
Copy OK
Track 3
Filename D:\wave dumps\03 - Gabriela Montero - Beyond Bach.wav
Peak level 60.0 %
Track quality 100.0 %
Test CRC 4F402FEA
Copy CRC 4F402FEA
Cannot be verified as accurate (confidence 17) [CBC1AFC7], AccurateRip returned [3D4C2635]
Copy OK
Track 4
Filename D:\wave dumps\04 - Gabriela Montero - Air in G.wav
Peak level 70.5 %
Track quality 100.0 %
Test CRC 4BD8F7C3
Copy CRC 4BD8F7C3
Cannot be verified as accurate (confidence 17) [C4FD172A], AccurateRip returned [ADE4A160]
Copy OK
Track 5
Filename D:\wave dumps\05 - Gabriela Montero - Aria.wav
Peak level 95.0 %
Track quality 100.0 %
Test CRC 5C016D52
Copy CRC 5C016D52
Cannot be verified as accurate (confidence 16) [9D42F3FF], AccurateRip returned [24239FEA]
Copy OK
Track 6
Filename D:\wave dumps\06 - Gabriela Montero - Adagio.wav
Peak level 23.6 %
Track quality 100.0 %
Test CRC 0CEA9DB3
Copy CRC 0CEA9DB3
Cannot be verified as accurate (confidence 16) [DB8EB212], AccurateRip returned [6F884423]
Copy OK
Track 7
Filename D:\wave dumps\07 - Gabriela Montero - Preluce in C.wav
Peak level 49.4 %
Track quality 100.0 %
Test CRC 1CF3F32A
Copy CRC 1CF3F32A
Cannot be verified as accurate (confidence 16) [E8C781B4], AccurateRip returned [2F5FAFE6]
Copy OK
Track 8
Filename D:\wave dumps\08 - Gabriela Montero - Sheep may safely graze.wav
Peak level 44.3 %
Track quality 100.0 %
Test CRC A2D59A6D
Copy CRC A2D59A6D
Cannot be verified as accurate (confidence 16) [3874DA9E], AccurateRip returned [E142C7E4]
Copy OK
Track 9
Filename D:\wave dumps\09 - Gabriela Montero - Two-Part Invention in D minor.wav
Peak level 72.0 %
Track quality 99.9 %
Test CRC E5B2E167
Copy CRC E5B2E167
Cannot be verified as accurate (confidence 16) [134E9AB1], AccurateRip returned [6E4356AC]
Copy OK
Track 10
Filename D:\wave dumps\10 - Gabriela Montero - Allegro.wav
Peak level 99.7 %
Track quality 100.0 %
Test CRC A594A436
Copy CRC A594A436
Cannot be verified as accurate (confidence 16) [BE0E52F5], AccurateRip returned [A0FF3F38]
Copy OK
Track 11
Filename D:\wave dumps\11 - Gabriela Montero - Adagio 02.wav
Peak level 42.7 %
Track quality 100.0 %
Test CRC 7A4BD2AC
Copy CRC 7A4BD2AC
Cannot be verified as accurate (confidence 16) [AB7B376F], AccurateRip returned [1A8C0E8F]
Copy OK
Track 12
Filename D:\wave dumps\12 - Gabriela Montero - Toccata in D minor.wav
Peak level 98.9 %
Track quality 100.0 %
Test CRC 72A86978
Copy CRC 72A86978
Cannot be verified as accurate (confidence 16) [F5DD4F08], AccurateRip returned [8E437961]
Copy OK
No tracks could be verified as accurate
You may have a different pressing from the one(s) in the database
No errors occurred
End of status report

Содержание индексной карты (.CUE)

REM GENRE Classical
REM DATE 2006
REM DISCID 930CDD0C
REM COMMENT "ExactAudioCopy v0.99pb5"
PERFORMER "Gabriela Montero"
TITLE "Bach & Beyond"
FILE "01 - Jesu, Joy of Man's Desiring.wav" WAVE
TRACK 01 AUDIO
TITLE "Jesu, Joy of Man's Desiring"
PERFORMER "Gabriela Montero"
INDEX 01 00:00:00
FILE "02 - Presto from Italian Concerto.wav" WAVE
TRACK 02 AUDIO
TITLE "Presto from Italian Concerto"
PERFORMER "Gabriela Montero"
INDEX 01 00:00:00
FILE "03 - Beyond Bach.wav" WAVE
TRACK 03 AUDIO
TITLE "Beyond Bach"
PERFORMER "Gabriela Montero"
INDEX 01 00:00:00
FILE "04 - Air in G.wav" WAVE
TRACK 04 AUDIO
TITLE "Air in G"
PERFORMER "Gabriela Montero"
INDEX 01 00:00:00
FILE "05 - Aria.wav" WAVE
TRACK 05 AUDIO
TITLE "Aria"
PERFORMER "Gabriela Montero"
INDEX 01 00:00:00
FILE "06 - Adagio.wav" WAVE
TRACK 06 AUDIO
TITLE "Adagio"
PERFORMER "Gabriela Montero"
INDEX 01 00:00:00
FILE "07 - Preluce in C.wav" WAVE
TRACK 07 AUDIO
TITLE "Preluce in C"
PERFORMER "Gabriela Montero"
INDEX 01 00:00:00
FILE "08 - Sheep may safely graze.wav" WAVE
TRACK 08 AUDIO
TITLE "Sheep may safely graze"
PERFORMER "Gabriela Montero"
INDEX 01 00:00:00
FILE "09 - Two-Part Invention in D minor.wav" WAVE
TRACK 09 AUDIO
TITLE "Two-Part Invention in D minor"
PERFORMER "Gabriela Montero"
INDEX 01 00:00:00
FILE "10 - Allegro.wav" WAVE
TRACK 10 AUDIO
TITLE "Allegro"
PERFORMER "Gabriela Montero"
INDEX 01 00:00:00
FILE "11 - Adagio.wav" WAVE
TRACK 11 AUDIO
TITLE "Adagio"
PERFORMER "Gabriela Montero"
INDEX 01 00:00:00
FILE "12 - Toccata in D minor.wav" WAVE
TRACK 12 AUDIO
TITLE "Toccata in D minor"
PERFORMER "Gabriela Montero"
INDEX 01 00:00:00

Отчет CUETools

[CUETools log; Date: 16.02.2015 16:54:50; Version: 2.1.5]
[CTDB TOCID: LIvj3dEy74BJXHCW8vZgwFmDVf4-] found.
Track | CTDB Status
1 | (25/25) Accurately ripped
2 | (25/25) Accurately ripped
3 | (25/25) Accurately ripped
4 | (25/25) Accurately ripped
5 | (25/25) Accurately ripped
6 | (25/25) Accurately ripped
7 | (25/25) Accurately ripped
8 | (25/25) Accurately ripped
9 | (25/25) Accurately ripped
10 | (25/25) Accurately ripped
11 | (25/25) Accurately ripped
12 | (25/25) Accurately ripped
[AccurateRip ID: 001851ff-00e40074-930cdd0c] found.
Track [ CRC | V2 ] Status
01 [a3bc1240|c2e6b9f5] (03+00/82) Accurately ripped
02 [6783ab4f|16eebf87] (03+00/83) Accurately ripped
03 [cbc1afc7|dd1a0a89] (03+00/84) Accurately ripped
04 [c4fd172a|5c2d2207] (03+00/84) Accurately ripped
05 [9d42f3ff|5f84d078] (03+00/83) Accurately ripped
06 [db8eb212|2325b9e7] (03+00/83) Accurately ripped
07 [e8c781b4|db0cb636] (03+00/83) Accurately ripped
08 [3874da9e|3244554f] (03+00/82) Accurately ripped
09 [134e9ab1|bb3fcae3] (03+00/83) Accurately ripped
10 [be0e52f5|15354578] (03+00/81) Accurately ripped
11 [ab7b376f|8daa1889] (03+00/83) Accurately ripped
12 [f5dd4f08|876cfe28] (03+00/85) Accurately ripped
Offsetted by 12:
01 [94cf8941] (17/82) Accurately ripped
02 [678e9e67] (17/83) Accurately ripped
03 [a9123e1f] (17/84) Accurately ripped
04 [bb8fb166] (17/84) Accurately ripped
05 [ab2e7a58] (17/83) Accurately ripped
06 [664eb7e4] (17/83) Accurately ripped
07 [4478186e] (17/83) Accurately ripped
08 [6a4a52e2] (17/82) Accurately ripped
09 [224c34b8] (17/83) Accurately ripped
10 [15d64c2c] (16/81) Accurately ripped
11 [24d866ec] (17/83) Accurately ripped
12 [e1d7f813] (17/85) Accurately ripped
Offsetted by 676:
01 [f64af65f] (20/82) Accurately ripped
02 [b8978279] (20/83) Accurately ripped
03 [3d4c2635] (21/84) Accurately ripped
04 [ade4a160] (21/84) Accurately ripped
05 [24239fea] (20/83) Accurately ripped
06 [6f884423] (20/83) Accurately ripped
07 [2f5fafe6] (20/83) Accurately ripped
08 [e142c7e4] (20/82) Accurately ripped
09 [6e4356ac] (20/83) Accurately ripped
10 [a0ff3f38] (20/81) Accurately ripped
11 [1a8c0e8f] (20/83) Accurately ripped
12 [8e437961] (20/85) Accurately ripped
Track Peak [ CRC32 ] [W/O NULL] [ LOG ]
-- 99,7 [CB60FAC0] [59B58732]
01 74,7 [2C7F0548] [58D275CB] CRC32
02 88,3 [ADAA85C5] [73B468FF] CRC32
03 60,0 [4F402FEA] [91838497] CRC32
04 70,5 [4BD8F7C3] [D73BC18C] CRC32
05 95,0 [5C016D52] [EC91ABAC] CRC32
06 23,6 [0CEA9DB3] [E87AAB5C] CRC32
07 49,3 [1CF3F32A] [A4B922A9] CRC32
08 44,3 [A2D59A6D] [075920DD] CRC32
09 72,0 [E5B2E167] [AFBADF80] CRC32
10 99,7 [A594A436] [54C619CC] CRC32
11 42,7 [7A4BD2AC] [F0AC9513] CRC32
12 98,9 [72A86978] [62F6C4B2] CRC32

Review by Uncle Dave Lewis

Venezuelan pianist Gabriela Montero scored an artistic success with her previous EMI disc Gabriela Montero: Piano Recital, consisting of two discs, of which the second consisted entirely of improvisations. With Bach and Beyond, Montero dives into her first all-improvisation disc, and while it is not a completely unqualified success artistically, it can be a refreshing swim. The Johann Sebastian Bach works listed in the contents are really only utilized as a point of departure, and in some cases the presence of Bach's tune is not apparent until the listener is into the improvisation 45 seconds or more. Montero is a very imaginative and skillful improviser -- in the enclosed interview Montero cites her unfamiliarity with the discipline of improvising to a jazz rhythm section, and clearly Bach and Beyond is not jazz. But nonetheless, Latin jazz and indigenous South American dance music informs her style of improvising to a great degree -- check out her tango-like transformation of an unspecified Air in G and the Boléro-like underpinnings of the Toccata in D minor. Of course, improvising is like stepping off a steep cliff with a parachute and hoping that you will reach the ground safely. Montero has no net here; in some cases she encounters some bumpy stuff on the way down -- some confusion among the hands here, some excessively busy textures there. Nonetheless, this is all part of the experience one accepts with Bach and Beyond, and if one comes to it with an open mind, it can make for a very pleasant listen.
As long as you do not come to Bach and Beyond expecting to hear Bach, which is what practically any professional artist can play to some extent, and accept that you are hearing Montero's own creations, which only she can do, then you will be fine. It will probably not satisfy those who regard the texts of Bach's music as sacred. Nonetheless, Bach and Beyond does provide rare exposure to a classical artist who willingly improvises in order to connect with her live audience, and imagining these pieces heard in a live context, they would be incredible. Montero clearly knows how to entertain, even though she is relying on her own creative faculties rather than a printed score. Although it is more "beyond" than Bach, the seat of the pants, go for broke excitement therein is the happy impression the listener comes away with after having heard Bach and Beyond.



Показать сообщения:    

Текущее время: 10-Дек 23:26

Часовой пояс: UTC + 3


Вы не можете начинать темы
Вы не можете отвечать на сообщения
Вы не можете редактировать свои сообщения
Вы не можете удалять свои сообщения
Вы не можете голосовать в опросах
Вы не можете прикреплять файлы к сообщениям
Вы не можете скачивать файлы