(Classical, Cello, Piano) [CD] Gautier Capucon & Gabriela Montero - Rhapsody {Рахманинов, Прокофьев - Cello Sonatas} - 2008, FLAC (tracks+.cue), lossless


 

[Цитировать]

Gautier Capucon & Gabriela Montero - Rhapsody: Cello Sonatas by Rachmaninov & Prokofiev
Жанр: Classical, Cello, Piano
Страна-производитель диска: Великобритания
Год издания диска: 2008
Издатель (лейбл): Virgin Classics
Номер по каталогу: 3857862
Аудиокодек: FLAC
Тип рипа: tracks+.cue
Битрейт аудио: lossless
Продолжительность: 75:07
Источник (релизер): YinnyYick (what)
Наличие сканов в содержимом раздачи: да
Треклист:
Sergei Rachmaninov (1873-1943)
Cello Sonata in G minor, Op.19
01. I. Lento - Allegro moderato (13:40)
02. II. Allegro scherzando (6:41)
03. III. Andante (6:59)
04. IV. Allegro mosso (11:20)
05. Vocalise, Op.34 No.14 (6:10)
06. Variation No.18 from Rhapsody on a Theme of Paganini, Op.43 (3:47)
Sergei Prokofiev (1891-1953)
Cello Sonata in C major, Op.119
07. I. Andante grave - Moderato animato (12:23)
08. II. Moderato - Andante dolce - Moderato (5:10)
09. III. Allegro non troppo - Meno mosso - Allegro non troppo (8:57)
Исполнители:
Gautier Capucon - cello
Gabriela Montero - piano
Recorded at Auditorio Stelio Molo, Lugano, Svizzera on November 21-23, 2006.

Лог создания рипа

X Lossless Decoder version 20130127 (142.3)
XLD extraction logfile from 2013-03-07 16:52:36 +0800
Gautier Capuçon, Gabriela Montero / Rachmaninov; Prokofiev: Cello Sonatas
Used drive : hp CDDVDW TS-L633N (revision 0300)
Media type : Pressed CD
Ripper mode : XLD Secure Ripper
Disable audio cache : OK for the drive with a cache less than 1375KiB
Make use of C2 pointers : NO
Read offset correction : 6
Max retry count : 100
Gap status : Analyzed, Appended (except HTOA)
TOC of the extracted CD
Track | Start | Length | Start sector | End sector
---------------------------------------------------------
1 | 00:00:00 | 13:40:25 | 0 | 61524
2 | 13:40:25 | 06:40:58 | 61525 | 91582
3 | 20:21:08 | 06:59:06 | 91583 | 123013
4 | 27:20:14 | 11:19:73 | 123014 | 174011
5 | 38:40:12 | 06:10:15 | 174012 | 201776
6 | 44:50:27 | 03:47:27 | 201777 | 218828
7 | 48:37:54 | 12:22:50 | 218829 | 274528
8 | 61:00:29 | 05:10:21 | 274529 | 297799
9 | 66:10:50 | 08:56:53 | 297800 | 338052
List of alternate offset correction values
# | Absolute | Relative | Confidence
------------------------------------------
1 | -670 | -676 | 2
AccurateRip Summary (DiscID: 001b2d82-00c2b12f-7a119b09)
Track 01 : OK (v1, confidence 11/13)
Track 02 : OK (v1, confidence 11/13)
Track 03 : OK (v1, confidence 11/13)
Track 04 : OK (v1, confidence 11/13)
Track 05 : OK (v1, confidence 11/13)
Track 06 : OK (v1, confidence 11/13)
Track 07 : OK (v1, confidence 11/13)
Track 08 : OK (v1, confidence 11/13)
Track 09 : OK (v1, confidence 11/13)
->All tracks accurately ripped.
All Tracks
Album gain : -1.62 dB
Peak : 0.988800
Statistics
Read error : 0
Jitter error (maybe fixed) : 0
Retry sector count : 0
Damaged sector count : 0
Track 01
Filename : /Volumes/Storeroom/To Upload/Gautier Capuçon, Gabriela Montero - Rachmaninov; Prokofiev: Cello Sonatas [2008_FLAC]/01 Rachmaninov: Cello Sonata In G Minor, Op. 19 - 1. Lento, Allegro Moderato.flac
Pre-gap length : 00:02:00
Track gain : -1.57 dB
Peak : 0.988800
CRC32 hash (test run) : A93E32B5
CRC32 hash : A93E32B5
CRC32 hash (skip zero) : 4421297C
AccurateRip v1 signature : 92774199
AccurateRip v2 signature : 6BF39CC6
->Accurately ripped (v1, confidence 11/13)
Statistics
Read error : 0
Jitter error (maybe fixed) : 0
Retry sector count : 0
Damaged sector count : 0
Track 02
Filename : /Volumes/Storeroom/To Upload/Gautier Capuçon, Gabriela Montero - Rachmaninov; Prokofiev: Cello Sonatas [2008_FLAC]/02 Rachmaninov: Cello Sonata In G Minor, Op. 19 - 2. Allegro Scherzando.flac
Track gain : -0.54 dB
Peak : 0.988495
CRC32 hash (test run) : DBBC2F3B
CRC32 hash : DBBC2F3B
CRC32 hash (skip zero) : 90AEF50E
AccurateRip v1 signature : DCEDDF2F
AccurateRip v2 signature : 1F4AD148
->Accurately ripped (v1, confidence 11/13)
Statistics
Read error : 0
Jitter error (maybe fixed) : 0
Retry sector count : 0
Damaged sector count : 0
Track 03
Filename : /Volumes/Storeroom/To Upload/Gautier Capuçon, Gabriela Montero - Rachmaninov; Prokofiev: Cello Sonatas [2008_FLAC]/03 Rachmaninov: Cello Sonata In G Minor, Op. 19 - 3. Andante.flac
Track gain : 1.16 dB
Peak : 0.920105
CRC32 hash (test run) : 69640D61
CRC32 hash : 69640D61
CRC32 hash (skip zero) : 01962FF7
AccurateRip v1 signature : 8768E3E5
AccurateRip v2 signature : 23CDB3C0
->Accurately ripped (v1, confidence 11/13)
Statistics
Read error : 0
Jitter error (maybe fixed) : 0
Retry sector count : 0
Damaged sector count : 0
Track 04
Filename : /Volumes/Storeroom/To Upload/Gautier Capuçon, Gabriela Montero - Rachmaninov; Prokofiev: Cello Sonatas [2008_FLAC]/04 Rachmaninov: Cello Sonata In G Minor, Op. 19 - 4. Allegro Mosso.flac
Track gain : -3.25 dB
Peak : 0.988800
CRC32 hash (test run) : D66D10DD
CRC32 hash : D66D10DD
CRC32 hash (skip zero) : A14DC0FA
AccurateRip v1 signature : 06BBA211
AccurateRip v2 signature : 68CF634F
->Accurately ripped (v1, confidence 11/13)
Statistics
Read error : 0
Jitter error (maybe fixed) : 0
Retry sector count : 0
Damaged sector count : 0
Track 05
Filename : /Volumes/Storeroom/To Upload/Gautier Capuçon, Gabriela Montero - Rachmaninov; Prokofiev: Cello Sonatas [2008_FLAC]/05 Rachmaninov: Vocalise, Op. 34/14.flac
Pre-gap length : 00:06:74
Track gain : 2.88 dB
Peak : 0.496460
CRC32 hash (test run) : 297AEAF2
CRC32 hash : 297AEAF2
CRC32 hash (skip zero) : 03357963
AccurateRip v1 signature : 8C40D57B
AccurateRip v2 signature : 0BBEF283
->Accurately ripped (v1, confidence 11/13)
Statistics
Read error : 0
Jitter error (maybe fixed) : 0
Retry sector count : 0
Damaged sector count : 0
Track 06
Filename : /Volumes/Storeroom/To Upload/Gautier Capuçon, Gabriela Montero - Rachmaninov; Prokofiev: Cello Sonatas [2008_FLAC]/06 Rachmaninov: Rhapsody On A Theme Of Paganini, Op. 43 - Var. 18.flac
Pre-gap length : 00:02:61
Track gain : 1.79 dB
Peak : 0.884705
CRC32 hash (test run) : B8E2B561
CRC32 hash : B8E2B561
CRC32 hash (skip zero) : 88F2ED05
AccurateRip v1 signature : 0F399A41
AccurateRip v2 signature : BCA203AA
->Accurately ripped (v1, confidence 11/13)
Statistics
Read error : 0
Jitter error (maybe fixed) : 0
Retry sector count : 0
Damaged sector count : 0
Track 07
Filename : /Volumes/Storeroom/To Upload/Gautier Capuçon, Gabriela Montero - Rachmaninov; Prokofiev: Cello Sonatas [2008_FLAC]/07 Prokofiev: Cello Sonata In C, Op. 119 - 1. Andante, Grave.flac
Pre-gap length : 00:11:14
Track gain : -1.05 dB
Peak : 0.988739
CRC32 hash (test run) : 6D7541DB
CRC32 hash : 6D7541DB
CRC32 hash (skip zero) : 1655EE21
AccurateRip v1 signature : 74F2DA4C
AccurateRip v2 signature : 15E40A5A
->Accurately ripped (v1, confidence 11/13)
Statistics
Read error : 0
Jitter error (maybe fixed) : 0
Retry sector count : 0
Damaged sector count : 0
Track 08
Filename : /Volumes/Storeroom/To Upload/Gautier Capuçon, Gabriela Montero - Rachmaninov; Prokofiev: Cello Sonatas [2008_FLAC]/08 Prokofiev: Cello Sonata In C, Op. 119 - 2. Moderato.flac
Track gain : 1.51 dB
Peak : 0.766632
CRC32 hash (test run) : 3A502F77
CRC32 hash : 3A502F77
CRC32 hash (skip zero) : 8892CA9B
AccurateRip v1 signature : 270EFC7A
AccurateRip v2 signature : 043CCB81
->Accurately ripped (v1, confidence 11/13)
Statistics
Read error : 0
Jitter error (maybe fixed) : 0
Retry sector count : 0
Damaged sector count : 0
Track 09
Filename : /Volumes/Storeroom/To Upload/Gautier Capuçon, Gabriela Montero - Rachmaninov; Prokofiev: Cello Sonatas [2008_FLAC]/09 Prokofiev: Cello Sonata In C, Op. 119 - 3. Allegro Ma No Troppo.flac
Track gain : -2.89 dB
Peak : 0.988678
CRC32 hash (test run) : 10BF1BFF
CRC32 hash : 10BF1BFF
CRC32 hash (skip zero) : 6343EBB1
AccurateRip v1 signature : 457D6B98
AccurateRip v2 signature : AC5A864C
->Accurately ripped (v1, confidence 11/13)
Statistics
Read error : 0
Jitter error (maybe fixed) : 0
Retry sector count : 0
Damaged sector count : 0
No errors occurred
End of status report

Содержание индексной карты (.CUE)

TITLE "Rhapsody: Cello Sonatas by Rachmaninov & Prokofiev"
PERFORMER "Gautier Capucon & Gabriela Montero"
CATALOG 0094638578628
REM GENRE "Classical"
REM DATE "2008"
REM DISCID 7A119B09
REM REPLAYGAIN_ALBUM_GAIN -1.62 dB
REM REPLAYGAIN_ALBUM_PEAK 0.988800
FILE "01 - Rachmaninov- Cello Sonata in G minor, Op.19- I. Lento - Allegro moderato.flac" WAVE
TRACK 01 AUDIO
TITLE "Rachmaninov: Cello Sonata in G minor, Op.19: I. Lento - Allegro moderato"
ISRC GBAYC0703134
REM REPLAYGAIN_TRACK_GAIN -1.57 dB
REM REPLAYGAIN_TRACK_PEAK 0.988800
INDEX 01 00:00:00
FILE "02 - Rachmaninov- Cello Sonata in G minor, Op.19- II. Allegro scherzando.flac" WAVE
TRACK 02 AUDIO
TITLE "Rachmaninov: Cello Sonata in G minor, Op.19: II. Allegro scherzando"
ISRC GBAYC0703135
REM REPLAYGAIN_TRACK_GAIN -0.54 dB
REM REPLAYGAIN_TRACK_PEAK 0.988495
INDEX 01 00:00:00
FILE "03 - Rachmaninov- Cello Sonata in G minor, Op.19- III. Andante.flac" WAVE
TRACK 03 AUDIO
TITLE "Rachmaninov: Cello Sonata in G minor, Op.19: III. Andante"
ISRC GBAYC0703136
REM REPLAYGAIN_TRACK_GAIN 1.16 dB
REM REPLAYGAIN_TRACK_PEAK 0.920105
INDEX 01 00:00:00
FILE "04 - Rachmaninov- Cello Sonata in G minor, Op.19- IV. Allegro mosso.flac" WAVE
TRACK 04 AUDIO
TITLE "Rachmaninov: Cello Sonata in G minor, Op.19: IV. Allegro mosso"
ISRC GBAYC0703137
REM REPLAYGAIN_TRACK_GAIN -3.25 dB
REM REPLAYGAIN_TRACK_PEAK 0.988800
INDEX 01 00:00:00
TRACK 05 AUDIO
TITLE "Rachmaninov: Vocalise, Op.34 No.14"
ISRC GBAYC0703138
REM REPLAYGAIN_TRACK_GAIN 2.88 dB
REM REPLAYGAIN_TRACK_PEAK 0.496460
INDEX 00 11:12:74
FILE "05 - Rachmaninov- Vocalise, Op.34 No.14.flac" WAVE
INDEX 01 00:00:00
TRACK 06 AUDIO
TITLE "Rachmaninov: Variation No.18 from Rhapsody on a Theme of Paganini, Op.43"
ISRC GBAYC0703139
REM REPLAYGAIN_TRACK_GAIN 1.79 dB
REM REPLAYGAIN_TRACK_PEAK 0.884705
INDEX 00 06:07:29
FILE "06 - Rachmaninov- Variation No.18 from Rhapsody on a Theme of Paganini, Op.43.flac" WAVE
INDEX 01 00:00:00
TRACK 07 AUDIO
TITLE "Prokofiev: Cello Sonata in C major, Op.119: I. Andante grave"
ISRC GBAYC0703141
REM REPLAYGAIN_TRACK_GAIN -1.05 dB
REM REPLAYGAIN_TRACK_PEAK 0.988739
INDEX 00 03:36:13
FILE "07 - Prokofiev- Cello Sonata in C major, Op.119- I. Andante grave.flac" WAVE
INDEX 01 00:00:00
FILE "08 - Prokofiev- Cello Sonata in C major, Op.119- II. Moderato.flac" WAVE
TRACK 08 AUDIO
TITLE "Prokofiev: Cello Sonata in C major, Op.119: II. Moderato"
ISRC GBAYC0703142
REM REPLAYGAIN_TRACK_GAIN 1.51 dB
REM REPLAYGAIN_TRACK_PEAK 0.766632
INDEX 01 00:00:00
FILE "09 - Prokofiev- Cello Sonata in C major, Op.119- III. Allegro non troppo.flac" WAVE
TRACK 09 AUDIO
TITLE "Prokofiev: Cello Sonata in C major, Op.119: III. Allegro non troppo"
ISRC GBAYC0703143
REM REPLAYGAIN_TRACK_GAIN -2.89 dB
REM REPLAYGAIN_TRACK_PEAK 0.988678
INDEX 01 00:00:00

Отчет CUETools

[CUETools log; Date: 16.02.2015 19:46:51; Version: 2.1.5]
[CTDB TOCID: rvXPV8uCdOjUp1.fv4z5aaSFXKQ-] found.
Track | CTDB Status
1 | (10/10) Accurately ripped
2 | (10/10) Accurately ripped
3 | (10/10) Accurately ripped
4 | (10/10) Accurately ripped
5 | (10/10) Accurately ripped
6 | (10/10) Accurately ripped
7 | (10/10) Accurately ripped
8 | (10/10) Accurately ripped
9 | (10/10) Accurately ripped
[AccurateRip ID: 001b2d82-00c2b12f-7a119b09] found.
Track [ CRC | V2 ] Status
01 [92774199|6bf39cc6] (11+12/28) Accurately ripped
02 [dceddf2f|1f4ad148] (11+12/28) Accurately ripped
03 [8768e3e5|23cdb3c0] (11+12/28) Accurately ripped
04 [06bba211|68cf634f] (11+12/28) Accurately ripped
05 [8c40d57b|0bbef283] (11+12/28) Accurately ripped
06 [0f399a41|bca203aa] (11+12/28) Accurately ripped
07 [74f2da4c|15e40a5a] (11+12/27) Accurately ripped
08 [270efc7a|043ccb81] (11+12/28) Accurately ripped
09 [457d6b98|ac5a864c] (11+12/27) Accurately ripped
Offsetted by -676:
01 [b3b31669] (02/28) Accurately ripped
02 [cf254b74] (02/28) Accurately ripped
03 [331854e8] (02/28) Accurately ripped
04 [6e8edfae] (02/28) Accurately ripped
05 [d67f28f0] (02/28) Accurately ripped
06 [e3e4ca38] (02/28) Accurately ripped
07 [9fd94182] (02/27) Accurately ripped
08 [e14af9fb] (02/28) Accurately ripped
09 [bdad8614] (02/27) Accurately ripped
Track Peak [ CRC32 ] [W/O NULL]
-- 98,8 [C2D153B7] [51369D50]
01 98,8 [A93E32B5] [4421297C]
02 98,8 [DBBC2F3B] [90AEF50E]
03 92,0 [69640D61] [01962FF7]
04 98,8 [D66D10DD] [A14DC0FA]
05 49,6 [297AEAF2] [03357963]
06 88,4 [B8E2B561] [88F2ED05]
07 98,8 [6D7541DB] [1655EE21]
08 76,6 [3A502F77] [8892CA9B]
09 98,8 [10BF1BFF] [6343EBB1]

Review by Mike D. Brownell

The nearly uninterrupted string of strong, successful albums produced by cellist Gautier Capuçon (and indeed his violinist brother, Renaud) demonstrates that the CD debut Face à Face was not just a fluke produced by child prodigies. Rather, Face à Face was a springboard for what has proven to be an enduring career and ever-improving musicianship. On this latest album without his brother, Gautier collaborates with pianist Gabriela Montero on the cello sonatas of Rachmaninov and Prokofiev. Fans of Capuçon's playing will recall that he had previously released a recording of the Rachmaninov sonata with pianist Lilya Zilberstein on the EMI label in 2003. While it may seem questionable to make duplicate recordings when he has recorded so little of the cello repertoire, it offers listeners an opportunity to see how his playing continues to mature even over a short span of five years. While some of the tempos are a little different than the 2003 recording, the most notable difference is that of sound, which has developed impressively with the help of his magnificent 1701 Gofriller cello. His command of sound is most obvious in the solo opening of the Prokofiev sonata. The immense depth and power of his sound on the lower two strings of the instrument is enough to mesmerize anyone. Power and projection permeate the album along with his stunning technique, deep understanding of the score, and pleasantly precise intonation.
На замену https://78.24.219.58:1500/viewtopic.php?t=734946



Показать сообщения:    

Текущее время: 07-Дек 19:20

Часовой пояс: UTC + 3


Вы не можете начинать темы
Вы не можете отвечать на сообщения
Вы не можете редактировать свои сообщения
Вы не можете удалять свои сообщения
Вы не можете голосовать в опросах
Вы не можете прикреплять файлы к сообщениям
Вы не можете скачивать файлы