(Classical, sacred) Cristobal de Morales - Missa 'Mille regretz'; Requiem - Gabrieli Consort & Players, Paul McCreesh - 2CD - 2013, FLAC (image+.cue) lossless


Статистика раздачи [Обновить пиров]
Размер:  609 MB   |    Зарегистрирован:  8 месяцев 15 дней   |    Скачан:  0 раз

Полного источника не было: Никогда

 
   
 
 
 

[Цитировать]

Cristóbal de Morales - Missa 'Mille regretz'; Requiem - Gabrieli Consort & Players, Paul McCreesh
Жанр: Classical, sacred
Страна-производитель диска: Germany
Год издания диска: 2013
Издатель (лейбл): Deutsche Grammophon
Дата записи: 1996, 1998
Аудиокодек: FLAC
Тип рипа: image+.cue
Битрейт аудио: lossless
Продолжительность: 151:15
Источник: собственный рип
Наличие сканов в содержимом раздачи: да
Треклист:
Cristóbal de Morales (c.1500-1553)
CD1
[1]-[27] Mass for the Feast of St.Isidore of Seville
as it might have been celebrated in Toledo Cathedral around 1590
CD2
[1]-[19] A Requiem for Philip II
as it might have been celebrated at his funeral rite in Toledo Cathedral in 1598
Исполнители:
Gabrieli Consort & Players
Paul McCreesh

Лог создания рипа: CD1

Exact Audio Copy V1.0 beta 3 from 29. August 2011
EAC extraction logfile from 1. February 2015, 14:24
Gabrieli Consort & Players, Paul McCreesh / Morales - Mass for the Feast of St. Isidore of Seville
Used drive : HL-DT-STDVDRAM GU70N Adapter: 0 ID: 0
Read mode : Secure
Utilize accurate stream : Yes
Defeat audio cache : Yes
Make use of C2 pointers : No
Read offset correction : 48
Overread into Lead-In and Lead-Out : No
Fill up missing offset samples with silence : Yes
Delete leading and trailing silent blocks : No
Null samples used in CRC calculations : Yes
Used interface : Native Win32 interface for Win NT & 2000
Used output format : User Defined Encoder
Selected bitrate : 128 kBit/s
Quality : High
Add ID3 tag : No
Command line compressor : C:\Program Files (x86)\Exact Audio Copy\Flac\flac.exe
Additional command line options : -V -8 -T "Date=%year%" -T "Genre=%genre%" %source%
TOC of the extracted CD
Track | Start | Length | Start sector | End sector
---------------------------------------------------------
1 | 0:00.33 | 2:44.00 | 33 | 12332
2 | 2:44.33 | 2:07.00 | 12333 | 21857
3 | 4:51.33 | 1:49.00 | 21858 | 30032
4 | 6:40.33 | 1:15.25 | 30033 | 35682
5 | 7:55.58 | 3:11.50 | 35683 | 50057
6 | 11:07.33 | 5:30.00 | 50058 | 74807
7 | 16:37.33 | 4:23.00 | 74808 | 94532
8 | 21:00.33 | 1:09.00 | 94533 | 99707
9 | 22:09.33 | 1:29.00 | 99708 | 106382
10 | 23:38.33 | 1:55.00 | 106383 | 115007
11 | 25:33.33 | 1:08.00 | 115008 | 120107
12 | 26:41.33 | 1:15.00 | 120108 | 125732
13 | 27:56.33 | 2:00.00 | 125733 | 134732
14 | 29:56.33 | 8:59.00 | 134733 | 175157
15 | 38:55.33 | 1:04.00 | 175158 | 179957
16 | 39:59.33 | 3:40.00 | 179958 | 196457
17 | 43:39.33 | 3:10.00 | 196458 | 210707
18 | 46:49.33 | 5:29.00 | 210708 | 235382
19 | 52:18.33 | 2:48.00 | 235383 | 247982
20 | 55:06.33 | 2:14.00 | 247983 | 258032
21 | 57:20.33 | 6:58.00 | 258033 | 289382
22 | 64:18.33 | 1:07.00 | 289383 | 294407
23 | 65:25.33 | 1:06.00 | 294408 | 299357
24 | 66:31.33 | 0:50.62 | 299358 | 303169
25 | 67:22.20 | 1:50.13 | 303170 | 311432
26 | 69:12.33 | 0:51.00 | 311433 | 315257
27 | 70:03.33 | 6:10.00 | 315258 | 343007
Range status and errors
Selected range
Filename C:\temp\Morales - Missa 'Mille regretz'; Requiem - Gabrieli Consort & Players, McCreesh\CD1\Morales - Mass for the Feast of St. Isidore of Seville.wav
Peak level 99.9 %
Extraction speed 2.3 X
Range quality 100.0 %
Test CRC ACFF4DA2
Copy CRC ACFF4DA2
Copy OK
No errors occurred
AccurateRip summary
Track 1 accurately ripped (confidence 1) [C062AA18] (AR v2)
Track 2 accurately ripped (confidence 1) [C88D8968] (AR v2)
Track 3 accurately ripped (confidence 1) [335AC83E] (AR v2)
Track 4 accurately ripped (confidence 1) [ABA2B515] (AR v2)
Track 5 accurately ripped (confidence 1) [320DBA79] (AR v2)
Track 6 accurately ripped (confidence 1) [30AF5609] (AR v2)
Track 7 accurately ripped (confidence 1) [2B4389BA] (AR v2)
Track 8 accurately ripped (confidence 1) [7B2B34E7] (AR v2)
Track 9 accurately ripped (confidence 1) [7F51854F] (AR v2)
Track 10 accurately ripped (confidence 1) [B4F1BFA3] (AR v2)
Track 11 accurately ripped (confidence 1) [3A27F350] (AR v2)
Track 12 accurately ripped (confidence 1) [99E2CAAC] (AR v2)
Track 13 accurately ripped (confidence 1) [DAF0C836] (AR v2)
Track 14 accurately ripped (confidence 1) [B4E141AC] (AR v2)
Track 15 accurately ripped (confidence 1) [198E357B] (AR v2)
Track 16 accurately ripped (confidence 1) [56CBD5D9] (AR v2)
Track 17 accurately ripped (confidence 1) [9ADAF3C5] (AR v2)
Track 18 accurately ripped (confidence 1) [0F905BE0] (AR v2)
Track 19 accurately ripped (confidence 1) [D0C0A83B] (AR v2)
Track 20 accurately ripped (confidence 1) [42262A02] (AR v2)
Track 21 accurately ripped (confidence 1) [91C7D698] (AR v2)
Track 22 accurately ripped (confidence 1) [E396610C] (AR v2)
Track 23 accurately ripped (confidence 1) [6313C36C] (AR v2)
Track 24 accurately ripped (confidence 1) [856378BE] (AR v2)
Track 25 accurately ripped (confidence 1) [B516D9FD] (AR v2)
Track 26 accurately ripped (confidence 1) [28873D9B] (AR v2)
Track 27 accurately ripped (confidence 1) [D6926FCF] (AR v2)
All tracks accurately ripped
End of status report
==== Log checksum DEE85FF323A9BA9E9D8D1F04D9338329DE58B91414F11B287CA1C13BACB64F78 ====

Лог создания рипа: CD2

Exact Audio Copy V1.0 beta 3 from 29. August 2011
EAC extraction logfile from 1. February 2015, 16:37
Gabrieli Consort & Players, Paul McCreesh / Morales - A Requiem for Philip II
Used drive : HL-DT-STDVDRAM GU70N Adapter: 0 ID: 0
Read mode : Secure
Utilize accurate stream : Yes
Defeat audio cache : Yes
Make use of C2 pointers : No
Read offset correction : 48
Overread into Lead-In and Lead-Out : No
Fill up missing offset samples with silence : Yes
Delete leading and trailing silent blocks : No
Null samples used in CRC calculations : Yes
Used interface : Native Win32 interface for Win NT & 2000
Used output format : User Defined Encoder
Selected bitrate : 128 kBit/s
Quality : High
Add ID3 tag : No
Command line compressor : C:\Program Files (x86)\Exact Audio Copy\Flac\flac.exe
Additional command line options : -V -8 -T "Date=%year%" -T "Genre=%genre%" %source%
TOC of the extracted CD
Track | Start | Length | Start sector | End sector
---------------------------------------------------------
1 | 0:00.00 | 3:10.00 | 0 | 14249
2 | 3:10.00 | 10:39.00 | 14250 | 62174
3 | 13:49.00 | 8:44.00 | 62175 | 101474
4 | 22:33.00 | 5:15.00 | 101475 | 125099
5 | 27:48.00 | 1:24.00 | 125100 | 131399
6 | 29:12.00 | 1:57.38 | 131400 | 140212
7 | 31:09.38 | 5:44.37 | 140213 | 166049
8 | 36:54.00 | 2:01.00 | 166050 | 175124
9 | 38:55.00 | 6:51.38 | 175125 | 205987
10 | 45:46.38 | 1:46.00 | 205988 | 213937
11 | 47:32.38 | 8:28.37 | 213938 | 252074
12 | 56:01.00 | 1:44.68 | 252075 | 259942
13 | 57:45.68 | 2:30.12 | 259943 | 271204
14 | 60:16.05 | 1:23.70 | 271205 | 277499
15 | 61:40.00 | 1:25.00 | 277500 | 283874
16 | 63:05.00 | 2:55.38 | 283875 | 297037
17 | 66:00.38 | 2:55.37 | 297038 | 310199
18 | 68:56.00 | 1:12.00 | 310200 | 315599
19 | 70:08.00 | 4:54.00 | 315600 | 337649
Range status and errors
Selected range
Filename C:\temp\Morales - Missa 'Mille regretz'; Requiem - Gabrieli Consort & Players, McCreesh\CD2\Morales - A Requiem for Philip II.wav
Peak level 94.3 %
Extraction speed 2.3 X
Range quality 100.0 %
Test CRC 59186F40
Copy CRC 59186F40
Copy OK
No errors occurred
AccurateRip summary
Track 1 accurately ripped (confidence 6) [18367867] (AR v2)
Track 2 accurately ripped (confidence 6) [20BA730B] (AR v2)
Track 3 accurately ripped (confidence 6) [22F8513A] (AR v2)
Track 4 accurately ripped (confidence 6) [6CB29EF5] (AR v2)
Track 5 accurately ripped (confidence 6) [5DD8370F] (AR v2)
Track 6 accurately ripped (confidence 6) [BD6B4865] (AR v2)
Track 7 accurately ripped (confidence 6) [37EE75B5] (AR v2)
Track 8 accurately ripped (confidence 6) [DA0C3357] (AR v2)
Track 9 accurately ripped (confidence 6) [09DD1F83] (AR v2)
Track 10 accurately ripped (confidence 6) [BF054223] (AR v2)
Track 11 accurately ripped (confidence 6) [1902A13B] (AR v2)
Track 12 accurately ripped (confidence 6) [2AE3A36F] (AR v2)
Track 13 accurately ripped (confidence 6) [EB3266DF] (AR v2)
Track 14 accurately ripped (confidence 6) [37FC9217] (AR v2)
Track 15 accurately ripped (confidence 6) [7A72B33B] (AR v2)
Track 16 accurately ripped (confidence 5) [9DC12921] (AR v2)
Track 17 accurately ripped (confidence 5) [CE1CB8DB] (AR v2)
Track 18 accurately ripped (confidence 6) [960121D4] (AR v2)
Track 19 accurately ripped (confidence 4) [41C44DB4] (AR v2)
All tracks accurately ripped
End of status report
==== Log checksum BA513BDC0A9A7B7A3F8269151A0CA6771642A5AB5AD2AFA41A10FF22C4A6FDC6 ====
[teatrix.ru].t20386.torrent 
Торрент: Зарегистрирован [ 2016-03-19 20:37 ] · 1A8774E07AAEEA784ACCAB1D826795E700B881A8

Скачать .torrent

Скачать

26 KB

Статус: проверено
Скачан: 0 раз
Размер: 609 MB
terms.php



Быстрый ответ

Имя:

      
Для отправки сообщений необходимо включить JavaScript
Показать сообщения:    

Текущее время: 04-Дек 04:57

Часовой пояс: UTC + 3


Вы можете начинать темы
Вы можете отвечать на сообщения
Вы не можете редактировать свои сообщения
Вы не можете удалять свои сообщения
Вы не можете голосовать в опросах
Вы не можете прикреплять файлы к сообщениям
Вы можете скачивать файлы