Таланты и поклонники. Евгений Леонов (Вениамин Смехов) [2011, Личности и кумиры, DVB]


Статистика раздачи [Обновить пиров]
Размер:  1.92 GB   |    Зарегистрирован:  8 месяцев 21 день   |    Скачан:  0 раз

Полного источника не было: Никогда

 
   
 
 
 

[Цитировать]

Таланты и поклонники. Евгений Леонов
Дата/Год выпуска: 2011
Страна: Россия
Жанр: Личности и кумиры
Продолжительность: 01:15:04
Перевод: Не требуется
Русские субтитры: нет
Режиссер: Вениамин Смехов
Телеканал: ТВ Центр (TVCI)
Описание:
Евгений Леонов с удовольствием смешил зрителей, а в жизни часто ходил задумчивый… Тот искристый неподдельный смех, который он умел вызывать, только подчёркивает весь трагизм его персонажей. В его большой душе были струны, на которых он наигрывал великолепные симфонии человеческих характеров. Потому-то Евгений Леонов и сегодня желанный гость в каждом доме. Фильмы с его участием пересматривались десятки раз. Каждый из сыгранных им людей уже превратился в нечто большее, чем просто кино- или театральный персонаж. Он стал легендой...
Доп. информация: Ведущий передачи Вениамин Смехов. В передаче приняли участие : режиссёры Марк Захаров , Александр Митта , актёры Владимир Коренев, Иван Агапов, Виктор Проскурин, Анатолий Кузнецов , режиссёр-аниматор Леонид Носырев , кинооператор Анатолий Мукасей , а так же Людмила Николаева и ансамбль "Русская душа" , Пётр Дранга , Бурановские бабушки , Юлия Михальчик и группа "Новые голоса".
Сэмпл: https://www.sendspace.com/file/14kccf
качество: DVB
формат: TS/M2TS
Видео: MPEG2 720:576 4:3 3342 Кбит/сек 25,000 кадров/сек
Аудио: MPEG Audio1 128 Кбит/сек 48,0 КГц 2 канала

MediaInfo

Общее
Идентификатор : 16 (0x10)
Полное имя : Таланты и поклонники. Евгений Леонов.ts
Формат : MPEG-TS
Размер файла : 1,92 Гбайт
Продолжительность : 1 ч. 15 м.
Режим общего битрейта : Переменный
Общий поток : 3652 Кбит/сек
Видео
Идентификатор : 221 (0xDD)
Идентификатор меню : 3 (0x3)
Формат : MPEG Video
Версия формата : Version 2
Профиль формата : Main@Main
Параметр BVOP формата : Да
Параметр матрицы формата : Выборочная
Параметр GOP формата : M=3, N=24
Идентификатор кодека : 2
Продолжительность : 1 ч. 15 м.
Битрейт : 3342 Кбит/сек
Максимальный битрейт : 3400 Кбит/сек
Ширина : 720 пикселей
Высота : 576 пикселей
Соотношение сторон : 4:3
Частота кадров : 25,000 кадров/сек
Стандарт вещания : PAL
Цветовое пространство : YUV
Субдискретизация насыщенности : 4:2:0
Битовая глубина : 8 бит
Тип развёртки : Чересстрочная
Порядок развёртки : Верхнее поле первое
Метод сжатия : С потерями
Бит/(Пиксели*Кадры) : 0.322
Временной код первого кадра : 00:00:00:00
Оригинал временного кода : Group of pictures header
Размер потока : 1,75 Гбайт (92%)
Библиотека кодирования : (dvd5: Nov 27 2014)
Аудио
Идентификатор : 222 (0xDE)
Идентификатор меню : 3 (0x3)
Формат : MPEG Audio
Версия формата : Version 1
Профиль формата : Layer 2
Идентификатор кодека : 3
Продолжительность : 1 ч. 15 м.
Вид битрейта : Постоянный
Битрейт : 128 Кбит/сек
Каналы : 2 канала
Частота : 48,0 КГц
Метод сжатия : С потерями
Задержка видео : -40 мс.
Размер потока : 68,7 Мбайт (4%)

Скриншоты

[teatrix.ru].t20387.torrent 
Торрент: Зарегистрирован [ 2016-03-19 20:37 ] · 3A6E8E30B2F490B6F76C12FA12ACE45B5C5E71C7

Скачать .torrent

Скачать

20 KB

Статус: проверено
Скачан: 0 раз
Размер: 1.92 GB
terms.php



Быстрый ответ

Имя:

      
Для отправки сообщений необходимо включить JavaScript
Показать сообщения:    

Текущее время: 10-Дек 08:03

Часовой пояс: UTC + 3


Вы можете начинать темы
Вы можете отвечать на сообщения
Вы не можете редактировать свои сообщения
Вы не можете удалять свои сообщения
Вы не можете голосовать в опросах
Вы не можете прикреплять файлы к сообщениям
Вы можете скачивать файлы