(Classical Crossover, Piano, Latin) [CD] Gabriela Montero - Solatino {Lecuona, Estevez, Ginastera, Nazareth, Carreno, Moleiro} - 2010, FLAC (tracks+.cue), lossless


 

[Цитировать]

Gabriela Montero - Solatino
Жанр: Classical Crossover, Piano, Latin
Страна-производитель диска: США
Год издания диска: 2010
Издатель (лейбл): EMI Classics
Номер по каталогу: 50999 9 18201 2 9
Аудиокодек: FLAC
Тип рипа: tracks+.cue
Битрейт аудио: lossless
Продолжительность: 78:11
Источник (релизер): notfake (what)
Наличие сканов в содержимом раздачи: нет
Треклист:
Ernesto Lecuona (1895-1963)
01. La comparsa (1:58)
02. ...Y la negra bailaba! (2:06)
03. A la Antigua (2:15)
04. Impromptu (1:34)
05. Por que te vas? (2:44)
Gabriela Montero
06. Sonando Contigo (Improvisation) (3:09)
Ernesto Lecuona (1895-1963)
Suite espanola
07. No.4 Gitanerias (1:44)
08. No.6 Malaguena (3:58)
09. No.1 Cordoba (3:29)
Gabriela Montero
10. Texturas de la Gran Sabana (Improvisation) (4:02)
Antonio Estevez (1916-1988)
17 Piezas infantiles
11. No.12 Angelito negro (1:33)
12. No.2 Ancestro 1 (1:23)
13. Ancestro 2 (1:13)
14. No.17 Toccatina (0:57)
Gabriela Montero
15. A la Argentina (Improvisation) (2:57)
Alberto Ginastera (1916-1983)
American Preludes
16. No.10 Pastorale (2:26)
17. No.3 Danza criolla (1:29)
Piano Sonata No.1 Op.22
18. I: Allegro marcato (4:08)
19. II: Presto misterioso (2:29)
20. III: Adagio molto appassionato (5:03)
21. IV: Ruvido ed ostinato (2:48)
Gabriela Montero
22. Sin Aire (Improvisation) (3:47)
Ernesto Nazareth (1863-1934)
23. Odeon (2:12)
24. Brejeiro (1:47)
25. Fon-fon (2:15)
26. Carioca (4:12)
Gabriela Montero
27. Mi Venezuela Llora (Improvisation) (2:54)
Teresa Carreno (1853-1917)
28. Kleiner Walzer (Mi Teresita) (4:27)
Moises Moleiro (1904-1979)
29. Joropo (3:12)
Gabriela Montero - piano

Лог создания рипа

Exact Audio Copy V1.0 beta 3 from 29. August 2011
EAC extraction logfile from 18. July 2012, 21:34
Gabriela Montero / Solatino
Used drive : TSSTcorpDVD+-RW TS-H653B Adapter: 2 ID: 0
Read mode : Secure
Utilize accurate stream : Yes
Defeat audio cache : Yes
Make use of C2 pointers : No
Read offset correction : 6
Overread into Lead-In and Lead-Out : No
Fill up missing offset samples with silence : Yes
Delete leading and trailing silent blocks : No
Null samples used in CRC calculations : Yes
Used interface : Installed external ASPI interface
Gap handling : Appended to previous track
Used output format : User Defined Encoder
Selected bitrate : 1024 kBit/s
Quality : High
Add ID3 tag : No
Command line compressor : C:\Program Files (x86)\Exact Audio Copy\Flac\flac.exe
Additional command line options : -8 -V -T "ARTIST=%artist%" -T "TITLE=%title%" -T "ALBUM=%albumtitle%" -T "DATE=%year%" -T "TRACKNUMBER=%tracknr%" -T "GENRE=%genre%" -T "PERFORMER=%albuminterpret%" -T "COMPOSER=%composer%" %haslyrics%--tag-from-file=LYRICS="%lyricsfile%"%haslyrics% -T "ALBUMARTIST=%albumartist%" -T "DISCNUMBER=%cdnumber%" -T "TOTALDISCS=%totalcds%" -T "TOTALTRACKS=%numtracks%" -T "COMMENT=%comment%" %source% -o %dest%
TOC of the extracted CD
Track | Start | Length | Start sector | End sector
---------------------------------------------------------
1 | 0:00.00 | 1:58.22 | 0 | 8871
2 | 1:58.22 | 2:06.20 | 8872 | 18341
3 | 4:04.42 | 2:14.39 | 18342 | 28430
4 | 6:19.06 | 1:33.46 | 28431 | 35451
5 | 7:52.52 | 2:44.12 | 35452 | 47763
6 | 10:36.64 | 3:08.53 | 47764 | 61916
7 | 13:45.42 | 1:43.44 | 61917 | 69685
8 | 15:29.11 | 3:57.39 | 69686 | 87499
9 | 19:26.50 | 3:28.43 | 87500 | 103142
10 | 22:55.18 | 4:02.34 | 103143 | 121326
11 | 26:57.52 | 1:32.41 | 121327 | 128267
12 | 28:30.18 | 1:22.54 | 128268 | 134471
13 | 29:52.72 | 1:12.64 | 134472 | 139935
14 | 31:05.61 | 0:57.14 | 139936 | 144224
15 | 32:03.00 | 2:57.14 | 144225 | 157513
16 | 35:00.14 | 2:26.17 | 157514 | 168480
17 | 37:26.31 | 1:28.73 | 168481 | 175153
18 | 38:55.29 | 4:08.33 | 175154 | 193786
19 | 43:03.62 | 2:28.72 | 193787 | 204958
20 | 45:32.59 | 5:03.33 | 204959 | 227716
21 | 50:36.17 | 2:47.57 | 227717 | 240298
22 | 53:23.74 | 3:46.50 | 240299 | 257298
23 | 57:10.49 | 2:12.00 | 257299 | 267198
24 | 59:22.49 | 1:47.19 | 267199 | 275242
25 | 61:09.68 | 2:14.73 | 275243 | 285365
26 | 63:24.66 | 4:12.06 | 285366 | 304271
27 | 67:36.72 | 2:53.43 | 304272 | 317289
28 | 70:30.40 | 4:27.33 | 317290 | 337347
29 | 74:57.73 | 3:11.73 | 337348 | 351745
Track 1
Filename C:\Gabriela Montero - 2010 - Solatino\01 - Ernesto Lecuona- La comparsa (Carnival Procession).wav
Pre-gap length 0:00:02.00
Peak level 71.4 %
Extraction speed 4.2 X
Track quality 100.0 %
Test CRC AE54ADFC
Copy CRC AE54ADFC
Cannot be verified as accurate (confidence 4) [065F811B], AccurateRip returned [035FCC5F] (AR v2)
Copy OK
Track 2
Filename C:\Gabriela Montero - 2010 - Solatino\02 - Ernesto Lecuona- ... Y la negra bailaba! (And the Negro woman danced!).wav
Peak level 61.8 %
Extraction speed 4.5 X
Track quality 100.0 %
Test CRC 121D553D
Copy CRC 121D553D
Cannot be verified as accurate (confidence 4) [D80C4A92], AccurateRip returned [849B9801] (AR v2)
Copy OK
Track 3
Filename C:\Gabriela Montero - 2010 - Solatino\03 - Ernesto Lecuona- A la Antigua.wav
Peak level 48.1 %
Extraction speed 4.7 X
Track quality 100.0 %
Test CRC 6CC6D644
Copy CRC 6CC6D644
Cannot be verified as accurate (confidence 4) [63460D83], AccurateRip returned [427ADF8F] (AR v2)
Copy OK
Track 4
Filename C:\Gabriela Montero - 2010 - Solatino\04 - Ernesto Lecuona- Impromptu.wav
Peak level 56.6 %
Extraction speed 1.7 X
Track quality 99.8 %
Test CRC 66F777DF
Copy CRC 66F777DF
Cannot be verified as accurate (confidence 4) [276B7835], AccurateRip returned [65A8B36C] (AR v2)
Copy OK
Track 5
Filename C:\Gabriela Montero - 2010 - Solatino\05 - Ernesto Lecuona- ¿Por qué tu vas (Why do you go).wav
Peak level 52.7 %
Extraction speed 3.2 X
Track quality 100.0 %
Test CRC 100DC5E0
Copy CRC 100DC5E0
Cannot be verified as accurate (confidence 4) [5A4A46D6], AccurateRip returned [4A5DE6FE] (AR v2)
Copy OK
Track 6
Filename C:\Gabriela Montero - 2010 - Solatino\06 - Gabriela Montero- Soñando Contigo (Improvisation).wav
Peak level 49.5 %
Extraction speed 3.4 X
Track quality 100.0 %
Test CRC FC899F95
Copy CRC FC899F95
Cannot be verified as accurate (confidence 4) [CED9046F], AccurateRip returned [879A1629] (AR v2)
Copy OK
Track 7
Filename C:\Gabriela Montero - 2010 - Solatino\07 - Ernesto Lecuona- Suite Española - No. 4 Gitanerías.wav
Peak level 55.5 %
Extraction speed 2.0 X
Track quality 99.8 %
Test CRC FE5FA379
Copy CRC FE5FA379
Cannot be verified as accurate (confidence 4) [E36E3EA8], AccurateRip returned [B0B812CD] (AR v2)
Copy OK
Track 8
Filename C:\Gabriela Montero - 2010 - Solatino\08 - Ernesto Lecuona- Suite Española - No. 6 Malaguena.wav
Peak level 79.0 %
Extraction speed 3.8 X
Track quality 100.0 %
Test CRC DD7F983C
Copy CRC DD7F983C
Cannot be verified as accurate (confidence 4) [B7ED8B0E], AccurateRip returned [E2EC103C] (AR v2)
Copy OK
Track 9
Filename C:\Gabriela Montero - 2010 - Solatino\09 - Ernesto Lecuona- Suite Española - No. 1 Córdoba.wav
Peak level 54.3 %
Extraction speed 3.9 X
Track quality 100.0 %
Test CRC E3A24980
Copy CRC E3A24980
Cannot be verified as accurate (confidence 4) [278A6054], AccurateRip returned [608DBECE] (AR v2)
Copy OK
Track 10
Filename C:\Gabriela Montero - 2010 - Solatino\10 - Gabriela Montero- Texturas de la Gran Sabana (Improvisation).wav
Peak level 64.2 %
Extraction speed 4.2 X
Track quality 100.0 %
Test CRC 3877FF66
Copy CRC 3877FF66
Cannot be verified as accurate (confidence 4) [17D1AA4A], AccurateRip returned [0438B162] (AR v2)
Copy OK
Track 11
Filename C:\Gabriela Montero - 2010 - Solatino\11 - Antonio Estévez- 17 Piezas infantiles - No. 12 Angelito negro.wav
Peak level 23.8 %
Extraction speed 3.6 X
Track quality 100.0 %
Test CRC 782E9F36
Copy CRC 782E9F36
Cannot be verified as accurate (confidence 4) [52839628], AccurateRip returned [542F9B54] (AR v2)
Copy OK
Track 12
Filename C:\Gabriela Montero - 2010 - Solatino\12 - Antonio Estévez- 17 Piezas infantiles - No. 2 Ancesto 1.wav
Peak level 34.4 %
Extraction speed 3.5 X
Track quality 100.0 %
Test CRC A963A110
Copy CRC A963A110
Cannot be verified as accurate (confidence 4) [0F7C32A0], AccurateRip returned [EC0C1F5F] (AR v2)
Copy OK
Track 13
Filename C:\Gabriela Montero - 2010 - Solatino\13 - Antonio Estévez- 17 Piezas infantiles - No. 2 Ancesto 2.wav
Peak level 43.4 %
Extraction speed 3.4 X
Track quality 100.0 %
Test CRC DBE35D69
Copy CRC DBE35D69
Cannot be verified as accurate (confidence 4) [F0FCDCD9], AccurateRip returned [7E00AF07] (AR v2)
Copy OK
Track 14
Filename C:\Gabriela Montero - 2010 - Solatino\14 - Antonio Estévez- 17 Piezas infantiles - No.17 Toccatina.wav
Peak level 45.2 %
Extraction speed 3.1 X
Track quality 100.0 %
Test CRC 178C4905
Copy CRC 178C4905
Cannot be verified as accurate (confidence 4) [C69BDB8F], AccurateRip returned [F173D27E] (AR v2)
Copy OK
Track 15
Filename C:\Gabriela Montero - 2010 - Solatino\15 - Gabriela Montero- A la Argentina (Improvisation).wav
Peak level 51.4 %
Extraction speed 4.4 X
Track quality 100.0 %
Test CRC C54DE65B
Copy CRC C54DE65B
Cannot be verified as accurate (confidence 4) [58800AB2], AccurateRip returned [222E3A0E] (AR v2)
Copy OK
Track 16
Filename C:\Gabriela Montero - 2010 - Solatino\16 - Alberto Ginastera- Americal Preludes - No. 10 Pastorale.wav
Peak level 7.1 %
Extraction speed 4.4 X
Track quality 100.0 %
Test CRC 2F45A276
Copy CRC 2F45A276
Cannot be verified as accurate (confidence 4) [4CDF9654], AccurateRip returned [22A826BF] (AR v2)
Copy OK
Track 17
Filename C:\Gabriela Montero - 2010 - Solatino\17 - Alberto Ginastera- Americal Preludes - No. 3 Danza criolla.wav
Peak level 67.5 %
Extraction speed 2.3 X
Track quality 99.8 %
Test CRC 9E931950
Copy CRC 9E931950
Cannot be verified as accurate (confidence 4) [652215C6], AccurateRip returned [55C9013A] (AR v2)
Copy OK
Track 18
Filename C:\Gabriela Montero - 2010 - Solatino\18 - Alberto Ginastera- Piano Sonata No.1 op.22 - Allegro marcato.wav
Peak level 69.6 %
Extraction speed 4.9 X
Track quality 100.0 %
Test CRC 32A5A3F1
Copy CRC 32A5A3F1
Cannot be verified as accurate (confidence 4) [25F3B174], AccurateRip returned [E8995810] (AR v2)
Copy OK
Track 19
Filename C:\Gabriela Montero - 2010 - Solatino\19 - Alberto Ginastera- Piano Sonata No.1 op.22 - Presto misterioso.wav
Peak level 51.0 %
Extraction speed 4.6 X
Track quality 100.0 %
Test CRC 3299389A
Copy CRC 3299389A
Cannot be verified as accurate (confidence 4) [183D731D], AccurateRip returned [88E6A778] (AR v2)
Copy OK
Track 20
Filename C:\Gabriela Montero - 2010 - Solatino\20 - Alberto Ginastera- Piano Sonata No.1 op.22 - Adagio moto appassionato.wav
Peak level 59.9 %
Extraction speed 4.3 X
Track quality 99.9 %
Test CRC 09918C2F
Copy CRC 09918C2F
Cannot be verified as accurate (confidence 4) [3ED497EF], AccurateRip returned [BCA2922B] (AR v2)
Copy OK
Track 21
Filename C:\Gabriela Montero - 2010 - Solatino\21 - Alberto Ginastera- Piano Sonata No.1 op.22 - Ruvido ed ostinato.wav
Peak level 94.9 %
Extraction speed 5.0 X
Track quality 100.0 %
Test CRC 04C2968B
Copy CRC 04C2968B
Cannot be verified as accurate (confidence 4) [3739C90B], AccurateRip returned [9329ADF2] (AR v2)
Copy OK
Track 22
Filename C:\Gabriela Montero - 2010 - Solatino\22 - Gabriela Montero- Sin Aire (Improvisation).wav
Peak level 50.5 %
Extraction speed 5.4 X
Track quality 100.0 %
Test CRC 75DADA1D
Copy CRC 75DADA1D
Cannot be verified as accurate (confidence 4) [EDDFE399], AccurateRip returned [DA9EAE1C] (AR v2)
Copy OK
Track 23
Filename C:\Gabriela Montero - 2010 - Solatino\23 - Ernesto Nazareth- Odeon (Tango Braslieiro).wav
Peak level 42.9 %
Extraction speed 5.0 X
Track quality 100.0 %
Test CRC 77D9DE79
Copy CRC 77D9DE79
Cannot be verified as accurate (confidence 4) [C28A0884], AccurateRip returned [07997DB9] (AR v2)
Copy OK
Track 24
Filename C:\Gabriela Montero - 2010 - Solatino\24 - Ernesto Nazareth- Brejeiro (Tango Braslieiro).wav
Peak level 60.9 %
Extraction speed 4.7 X
Track quality 100.0 %
Test CRC F6D50509
Copy CRC F6D50509
Cannot be verified as accurate (confidence 4) [BB981D62], AccurateRip returned [D4FEDD52] (AR v2)
Copy OK
Track 25
Filename C:\Gabriela Montero - 2010 - Solatino\25 - Ernesto Nazareth- Fon-fon (Toot-toot).wav
Peak level 45.4 %
Extraction speed 5.0 X
Track quality 100.0 %
Test CRC 7CC0EA24
Copy CRC 7CC0EA24
Cannot be verified as accurate (confidence 4) [049E5028], AccurateRip returned [515DB6D3] (AR v2)
Copy OK
Track 26
Filename C:\Gabriela Montero - 2010 - Solatino\26 - Ernesto Nazareth- Carioca.wav
Peak level 34.0 %
Extraction speed 5.9 X
Track quality 100.0 %
Test CRC 0449E3F6
Copy CRC 0449E3F6
Cannot be verified as accurate (confidence 4) [74CFAAE2], AccurateRip returned [6991E659] (AR v2)
Copy OK
Track 27
Filename C:\Gabriela Montero - 2010 - Solatino\27 - Gabriela Montero- Mi Venezuela Llora (Improvisation).wav
Peak level 35.3 %
Extraction speed 5.6 X
Track quality 100.0 %
Test CRC AFBD4DCA
Copy CRC AFBD4DCA
Cannot be verified as accurate (confidence 4) [9B10BCFD], AccurateRip returned [1D8A4237] (AR v2)
Copy OK
Track 28
Filename C:\Gabriela Montero - 2010 - Solatino\28 - Teresa Carreño- Kleiner Walzer (Mi Teresita).wav
Peak level 47.5 %
Extraction speed 6.1 X
Track quality 100.0 %
Test CRC 1FD8A853
Copy CRC 1FD8A853
Cannot be verified as accurate (confidence 4) [FFFF03E5], AccurateRip returned [730153A1] (AR v2)
Copy OK
Track 29
Filename C:\Gabriela Montero - 2010 - Solatino\29 - Moisés Moliero- Joropo.wav
Peak level 51.8 %
Extraction speed 6.0 X
Track quality 100.0 %
Test CRC BB293AD9
Copy CRC BB293AD9
Cannot be verified as accurate (confidence 4) [C6665E9B], AccurateRip returned [A75FD91E] (AR v2)
Copy OK
No tracks could be verified as accurate
You may have a different pressing from the one(s) in the database
No errors occurred
End of status report
==== Log checksum 65DDD729B8F8B883F451A12346DC5117BAC940648AEF31E8E167AABDCE0B8710 ====

Содержание индексной карты (.CUE)

REM GENRE Classical
REM DATE 2010
REM DISCID AC12511D
REM COMMENT "ExactAudioCopy v1.0b3"
CATALOG 5099964114422
PERFORMER "Gabriela Montero"
TITLE "Solatino"
FILE "01 - Lecuona- La comparsa.wav" WAVE
TRACK 01 AUDIO
TITLE "Lecuona: La comparsa"
PERFORMER "Gabriela Montero"
INDEX 01 00:00:00
FILE "02 - Lecuona- ...Y la negra bailaba!.wav" WAVE
TRACK 02 AUDIO
TITLE "Lecuona: ...Y la negra bailaba!"
PERFORMER "Gabriela Montero"
INDEX 01 00:00:00
FILE "03 - Lecuona- A la Antigua.wav" WAVE
TRACK 03 AUDIO
TITLE "Lecuona: A la Antigua"
PERFORMER "Gabriela Montero"
INDEX 01 00:00:00
FILE "04 - Lecuona- Impromptu.wav" WAVE
TRACK 04 AUDIO
TITLE "Lecuona: Impromptu"
PERFORMER "Gabriela Montero"
INDEX 01 00:00:00
FILE "05 - Lecuona- Por que te vas.wav" WAVE
TRACK 05 AUDIO
TITLE "Lecuona: Por que te vas?"
PERFORMER "Gabriela Montero"
INDEX 01 00:00:00
FILE "06 - Montero- Sonando Contigo (Improvisation).wav" WAVE
TRACK 06 AUDIO
TITLE "Montero: Sonando Contigo (Improvisation)"
PERFORMER "Gabriela Montero"
INDEX 01 00:00:00
FILE "07 - Lecuona- Gitanerias.wav" WAVE
TRACK 07 AUDIO
TITLE "Lecuona: Gitanerias"
PERFORMER "Gabriela Montero"
INDEX 01 00:00:00
FILE "08 - Lecuona- Malaguena.wav" WAVE
TRACK 08 AUDIO
TITLE "Lecuona: Malaguena"
PERFORMER "Gabriela Montero"
INDEX 01 00:00:00
FILE "09 - Lecuona- Cordoba.wav" WAVE
TRACK 09 AUDIO
TITLE "Lecuona: Cordoba"
PERFORMER "Gabriela Montero"
INDEX 01 00:00:00
FILE "10 - Montero- Texturas de la Gran Sabana (Improvisation).wav" WAVE
TRACK 10 AUDIO
TITLE "Montero: Texturas de la Gran Sabana (Improvisation)"
PERFORMER "Gabriela Montero"
INDEX 01 00:00:00
FILE "11 - Estevez- Angelito negro.wav" WAVE
TRACK 11 AUDIO
TITLE "Estevez: Angelito negro"
PERFORMER "Gabriela Montero"
INDEX 01 00:00:00
FILE "12 - Estevez- Ancestro 1.wav" WAVE
TRACK 12 AUDIO
TITLE "Estevez: Ancestro 1"
PERFORMER "Gabriela Montero"
INDEX 01 00:00:00
FILE "13 - Estevez- Ancestro 2.wav" WAVE
TRACK 13 AUDIO
TITLE "Estevez: Ancestro 2"
PERFORMER "Gabriela Montero"
INDEX 01 00:00:00
FILE "14 - Estevez- Toccatina.wav" WAVE
TRACK 14 AUDIO
TITLE "Estevez: Toccatina"
PERFORMER "Gabriela Montero"
INDEX 01 00:00:00
FILE "15 - Montero- A la Argentina (Improvisation).wav" WAVE
TRACK 15 AUDIO
TITLE "Montero: A la Argentina (Improvisation)"
PERFORMER "Gabriela Montero"
INDEX 01 00:00:00
FILE "16 - Ginastera- Pastorale.wav" WAVE
TRACK 16 AUDIO
TITLE "Ginastera: Pastorale"
PERFORMER "Gabriela Montero"
INDEX 01 00:00:00
FILE "17 - Ginastera- Danza criolla.wav" WAVE
TRACK 17 AUDIO
TITLE "Ginastera: Danza criolla"
PERFORMER "Gabriela Montero"
INDEX 01 00:00:00
FILE "18 - Ginastera- Piano Sonata No.1 Op.22- I.wav" WAVE
TRACK 18 AUDIO
TITLE "Ginastera: Piano Sonata No.1 Op.22: I"
PERFORMER "Gabriela Montero"
INDEX 01 00:00:00
FILE "19 - Ginastera- Piano Sonata No.1 Op.22- II.wav" WAVE
TRACK 19 AUDIO
TITLE "Ginastera: Piano Sonata No.1 Op.22: II"
PERFORMER "Gabriela Montero"
INDEX 01 00:00:00
FILE "20 - Ginastera- Piano Sonata No.1 Op.22- III.wav" WAVE
TRACK 20 AUDIO
TITLE "Ginastera: Piano Sonata No.1 Op.22: III"
PERFORMER "Gabriela Montero"
INDEX 01 00:00:00
FILE "21 - Ginastera- Piano Sonata No.1 Op.22- IV.wav" WAVE
TRACK 21 AUDIO
TITLE "Ginastera: Piano Sonata No.1 Op.22: IV"
PERFORMER "Gabriela Montero"
INDEX 01 00:00:00
FILE "22 - Montero- Sin Aire (Improvisation).wav" WAVE
TRACK 22 AUDIO
TITLE "Montero: Sin Aire (Improvisation)"
PERFORMER "Gabriela Montero"
INDEX 01 00:00:00
FILE "23 - Nazareth- Odeon.wav" WAVE
TRACK 23 AUDIO
TITLE "Nazareth: Odeon"
PERFORMER "Gabriela Montero"
INDEX 01 00:00:00
FILE "24 - Nazareth- Brejeiro.wav" WAVE
TRACK 24 AUDIO
TITLE "Nazareth: Brejeiro"
PERFORMER "Gabriela Montero"
INDEX 01 00:00:00
FILE "25 - Nazareth- Fon-fon.wav" WAVE
TRACK 25 AUDIO
TITLE "Nazareth: Fon-fon"
PERFORMER "Gabriela Montero"
INDEX 01 00:00:00
FILE "26 - Nazareth- Carioca.wav" WAVE
TRACK 26 AUDIO
TITLE "Nazareth: Carioca"
PERFORMER "Gabriela Montero"
INDEX 01 00:00:00
FILE "27 - Montero- Mi Venezuela Llora (Improvisation).wav" WAVE
TRACK 27 AUDIO
TITLE "Montero: Mi Venezuela Llora (Improvisation)"
PERFORMER "Gabriela Montero"
INDEX 01 00:00:00
FILE "28 - Carreno- Kleiner Walzer (Mi Teresita).wav" WAVE
TRACK 28 AUDIO
TITLE "Carreno: Kleiner Walzer (Mi Teresita)"
PERFORMER "Gabriela Montero"
INDEX 01 00:00:00
FILE "29 - Moleiro- Joropo.wav" WAVE
TRACK 29 AUDIO
TITLE "Moleiro: Joropo"
PERFORMER "Gabriela Montero"
INDEX 01 00:00:00

Отчет CUETools

[CUETools log; Date: 16.02.2015 22:50:59; Version: 2.1.5]
[CTDB TOCID: .F8qKRj0moBMBbwSwHm_jLlO9_o-] found.
Track | CTDB Status
1 | (17/17) Accurately ripped
2 | (17/17) Accurately ripped
3 | (17/17) Accurately ripped
4 | (17/17) Accurately ripped
5 | (16/17) Accurately ripped
6 | (17/17) Accurately ripped
7 | (17/17) Accurately ripped
8 | (16/17) Accurately ripped
9 | (17/17) Accurately ripped
10 | (17/17) Accurately ripped
11 | (17/17) Accurately ripped
12 | (17/17) Accurately ripped
13 | (17/17) Accurately ripped
14 | (17/17) Accurately ripped
15 | (17/17) Accurately ripped
16 | (17/17) Accurately ripped
17 | (17/17) Accurately ripped
18 | (16/17) Accurately ripped
19 | (17/17) Accurately ripped
20 | (17/17) Accurately ripped
21 | (16/17) Accurately ripped
22 | (17/17) Accurately ripped
23 | (17/17) Accurately ripped
24 | (17/17) Accurately ripped
25 | (17/17) Accurately ripped
26 | (17/17) Accurately ripped
27 | (17/17) Accurately ripped
28 | (17/17) Accurately ripped
29 | (17/17) Accurately ripped
[AccurateRip ID: 004aa951-061e6ebd-ac12511d] found.
Track [ CRC | V2 ] Status
01 [748ab7d9|065f811b] (02+04/23) Accurately ripped
02 [ff029d82|d80c4a92] (02+04/23) Accurately ripped
03 [38ecb3c9|63460d83] (02+04/24) Accurately ripped
04 [e3f922fa|276b7835] (02+04/24) Accurately ripped
05 [3cfc5f86|5a4a46d6] (02+04/24) Accurately ripped
06 [b8bfd313|ced9046f] (02+04/24) Accurately ripped
07 [c1713599|e36e3ea8] (02+04/24) Accurately ripped
08 [66c9fd85|b7ed8b0e] (02+04/24) Accurately ripped
09 [d10e44f3|278a6054] (02+04/24) Accurately ripped
10 [fcf8f0de|17d1aa4a] (02+04/24) Accurately ripped
11 [14808d00|52839628] (02+04/24) Accurately ripped
12 [db511c6c|0f7c32a0] (02+04/24) Accurately ripped
13 [4f7c1505|f0fcdcd9] (02+04/24) Accurately ripped
14 [1e98046b|c69bdb8f] (02+04/24) Accurately ripped
15 [e994b695|58800ab2] (02+04/24) Accurately ripped
16 [1a98c6a4|4cdf9654] (02+04/24) Accurately ripped
17 [b19b463b|652215c6] (02+04/24) Accurately ripped
18 [e72cfa96|25f3b174] (02+04/24) Accurately ripped
19 [dcae2931|183d731d] (02+04/24) Accurately ripped
20 [61eaa2ab|3ed497ef] (02+04/24) Accurately ripped
21 [cea9cec1|3739c90b] (02+04/24) Accurately ripped
22 [55eb0efc|eddfe399] (02+04/24) Accurately ripped
23 [1f6de24b|c28a0884] (02+04/24) Accurately ripped
24 [2d8fb005|bb981d62] (02+04/24) Accurately ripped
25 [310f92c3|049e5028] (02+04/24) Accurately ripped
26 [f09b4e0e|74cfaae2] (02+04/24) Accurately ripped
27 [3d21bdc2|9b10bcfd] (02+04/24) Accurately ripped
28 [94b9c261|ffff03e5] (02+04/24) Accurately ripped
29 [ab1b37be|c6665e9b] (02+04/24) Accurately ripped
Offsetted by -6:
01 [035fcc5f] (06/23) Accurately ripped
02 [849b9801] (06/23) Accurately ripped
03 [427adf8f] (06/24) Accurately ripped
04 [65a8b36c] (06/24) Accurately ripped
05 [4a5de6fe] (06/24) Accurately ripped
06 [879a1629] (06/24) Accurately ripped
07 [b0b812cd] (06/24) Accurately ripped
08 [e2ec103c] (06/24) Accurately ripped
09 [608dbece] (06/24) Accurately ripped
10 [0438b162] (06/24) Accurately ripped
11 [542f9b54] (06/24) Accurately ripped
12 [ec0c1f5f] (06/24) Accurately ripped
13 [7e00af07] (06/24) Accurately ripped
14 [f173d27e] (06/24) Accurately ripped
15 [222e3a0e] (06/24) Accurately ripped
16 [22a826bf] (06/24) Accurately ripped
17 [55c9013a] (06/24) Accurately ripped
18 [e8995810] (06/24) Accurately ripped
19 [88e6a778] (06/24) Accurately ripped
20 [bca2922b] (06/24) Accurately ripped
21 [9329adf2] (06/24) Accurately ripped
22 [da9eae1c] (06/24) Accurately ripped
23 [07997db9] (06/24) Accurately ripped
24 [d4fedd52] (06/24) Accurately ripped
25 [515db6d3] (06/24) Accurately ripped
26 [6991e659] (06/24) Accurately ripped
27 [1d8a4237] (06/24) Accurately ripped
28 [730153a1] (06/24) Accurately ripped
29 [a75fd91e] (06/24) Accurately ripped
Track Peak [ CRC32 ] [W/O NULL] [ LOG ]
-- 94,9 [F6E2EE51] [856C5A80]
01 71,4 [AE54ADFC] [629A9737] CRC32
02 61,8 [121D553D] [E8FF07C6] CRC32
03 48,1 [6CC6D644] [5DBF5F38] CRC32
04 56,6 [66F777DF] [173C5B43] CRC32
05 52,7 [100DC5E0] [F2B44552] CRC32
06 49,5 [FC899F95] [630CB6C0] CRC32
07 55,5 [FE5FA379] [1A87871C] CRC32
08 79,0 [DD7F983C] [46B3CC0F] CRC32
09 54,3 [E3A24980] [6A268DD7] CRC32
10 64,2 [3877FF66] [BAD0EA9C] CRC32
11 23,8 [782E9F36] [B25F1325] CRC32
12 34,4 [A963A110] [E0DC8A7C] CRC32
13 43,4 [DBE35D69] [5D182655] CRC32
14 45,2 [178C4905] [8687E2A6] CRC32
15 51,4 [C54DE65B] [98125081] CRC32
16 7,1 [2F45A276] [1E0B7A4D] CRC32
17 67,5 [9E931950] [6402D693] CRC32
18 69,6 [32A5A3F1] [40D26C05] CRC32
19 51,0 [3299389A] [37A028D3] CRC32
20 59,9 [09918C2F] [620F1EB6] CRC32
21 94,9 [04C2968B] [D9AB0341] CRC32
22 50,5 [75DADA1D] [246A1CC6] CRC32
23 42,9 [77D9DE79] [ACE7C585] CRC32
24 60,9 [F6D50509] [BAF8F0A8] CRC32
25 45,4 [7CC0EA24] [927DCC43] CRC32
26 34,0 [0449E3F6] [3C56AD22] CRC32
27 35,3 [AFBD4DCA] [231E3640] CRC32
28 47,5 [1FD8A853] [9927CDC7] CRC32
29 51,8 [BB293AD9] [D304578B] CRC32

Review by Stephen Eddins

It's a mark of Venezuelan pianist Gabriela Montero's substantial artistic clout that at her request EMI altered its traditional black, white, and red logo, eliminating the red so that its nationalistic and political symbolic significance would stand out in the final red "O" in Solatino on the cover of her 2010 album. This is her fifth album for EMI, but her first to feature Latin American repertoire and to include her own improvisations, for which she has become known as a modern anomaly -- a top-notch improvising virtuoso. In addition to her own pieces, the CD includes music by Ernesto Lecuona (Cuba), Alberto Ginastera, and Antonio Estévez (Argentina), Ernesto Nazareth (Brazil), Teresa Carreño, and Moisés Moleiro (Venezuela). Apart from some sections of Ginastera's Piano Sonata No. 1, most of the pieces are related to popular dance forms, and Montero plays them with kinetic dynamism. You'd have to be a virtuoso dancer to keep up with fluidity of Montero's tempos, but this is clearly music animated by the joy of bodies in motion. From the frenetic wildness of Lecuona's ...Y al negra bailaba! to the sultry languor of his Malagueña and A la Antigua, Montero brings out the music's visceral physicality. Her own improvisations are clearly rooted in the music of her Venezuelan culture, but they are fresh and inventive, not merely imitations of music of another era. An outstanding characteristic of the album is how much fun it is to listen to, and what a blast Montero seems to be having. Even the Ginastera sonata, the piece most frequently programmed on "serious" recitals, sounds explosively spontaneous. EMI's sound is big, but intimate and natural. Highly recommended.



Показать сообщения:    

Текущее время: 10-Дек 04:12

Часовой пояс: UTC + 3


Вы не можете начинать темы
Вы не можете отвечать на сообщения
Вы не можете редактировать свои сообщения
Вы не можете удалять свои сообщения
Вы не можете голосовать в опросах
Вы не можете прикреплять файлы к сообщениям
Вы не можете скачивать файлы