(Classical, 20th century) Paul Hindemith - Kleine Kammermusik; Clarinet Quintet; Trumpet Sonata; Trio for Piano, Viola and Heckelphone - Valerius Ensemble - 2013, FLAC (image+.cue) lossless


 

[Цитировать]

Paul Hindemith - Kleine Kammermusik; Clarinet Quintet; Trumpet Sonata; Trio for Piano, Viola and Heckelphone - Valerius Ensemble
Жанр: Classical, 20th century
Год издания диска: 2013
Издатель (лейбл): Brilliant Classics
Номер по каталогу: 9447
Дата записи: 2004
Аудиокодек: FLAC
Тип рипа: image+.cue
Битрейт аудио: lossless
Продолжительность: 66:32
Источник: собственный рип
Наличие сканов в содержимом раздачи: да
Треклист:
Paul Hindemith (1895-1963)
[1]-[5] Kleine Kammermusik, Op.24 No.2 (1923)
for wind quintet
[6]-[10] Clarinet Quintet, Op.30 (1954 revision)
[11]-[12] Trio, Op.47 (1928)
for viola, heckelphone and piano
[13]-[15] Trumpet Sonata (1939)
Исполнители:
Valerius Ensemble

Лог создания рипа

Exact Audio Copy V1.0 beta 3 from 29. August 2011
EAC extraction logfile from 13. November 2014, 1:32
Valerius Ensemble / Hindemith - Chamber Music
Used drive : HL-DT-STDVDRAM GU70N Adapter: 0 ID: 0
Read mode : Secure
Utilize accurate stream : Yes
Defeat audio cache : Yes
Make use of C2 pointers : No
Read offset correction : 48
Overread into Lead-In and Lead-Out : No
Fill up missing offset samples with silence : Yes
Delete leading and trailing silent blocks : No
Null samples used in CRC calculations : Yes
Used interface : Native Win32 interface for Win NT & 2000
Used output format : User Defined Encoder
Selected bitrate : 128 kBit/s
Quality : High
Add ID3 tag : No
Command line compressor : C:\Program Files (x86)\Exact Audio Copy\Flac\flac.exe
Additional command line options : -V -8 -T "Date=%year%" -T "Genre=%genre%" %source%
TOC of the extracted CD
Track | Start | Length | Start sector | End sector
---------------------------------------------------------
1 | 0:00.00 | 2:55.55 | 0 | 13179
2 | 2:55.55 | 1:58.32 | 13180 | 22061
3 | 4:54.12 | 4:45.73 | 22062 | 43509
4 | 9:40.10 | 0:55.72 | 43510 | 47706
5 | 10:36.07 | 3:09.00 | 47707 | 61881
6 | 13:45.07 | 2:19.73 | 61882 | 72379
7 | 16:05.05 | 6:41.47 | 72380 | 102501
8 | 22:46.52 | 5:56.08 | 102502 | 129209
9 | 28:42.60 | 3:16.05 | 129210 | 143914
10 | 31:58.65 | 2:30.15 | 143915 | 155179
11 | 34:29.05 | 7:32.22 | 155180 | 189101
12 | 42:01.27 | 7:58.55 | 189102 | 225006
13 | 50:00.07 | 5:16.40 | 225007 | 248746
14 | 55:16.47 | 2:22.05 | 248747 | 259401
15 | 57:38.52 | 8:53.33 | 259402 | 299409
Range status and errors
Selected range
Filename C:\temp\Hindemith - Chamber Music - Valerius Ensemble\Hindemith - Chamber Music.wav
Peak level 100.0 %
Extraction speed 2.2 X
Range quality 100.0 %
Test CRC 23A86D25
Copy CRC 23A86D25
Copy OK
No errors occurred
AccurateRip summary
Track 1 accurately ripped (confidence 2) [68304BCE] (AR v2)
Track 2 accurately ripped (confidence 2) [B49203DB] (AR v2)
Track 3 accurately ripped (confidence 2) [DD0FFC83] (AR v2)
Track 4 accurately ripped (confidence 2) [87FE2039] (AR v2)
Track 5 accurately ripped (confidence 2) [99CABD7E] (AR v2)
Track 6 accurately ripped (confidence 2) [50C1BAB4] (AR v2)
Track 7 accurately ripped (confidence 2) [660BA142] (AR v2)
Track 8 accurately ripped (confidence 2) [6C210F13] (AR v2)
Track 9 accurately ripped (confidence 2) [411315C1] (AR v2)
Track 10 accurately ripped (confidence 2) [A6DA0DE5] (AR v2)
Track 11 accurately ripped (confidence 2) [64F0534A] (AR v2)
Track 12 accurately ripped (confidence 1) [7283E071] (AR v2)
Track 13 accurately ripped (confidence 2) [F73423D3] (AR v2)
Track 14 accurately ripped (confidence 2) [32346FE5] (AR v2)
Track 15 accurately ripped (confidence 2) [DF5CD161] (AR v2)
All tracks accurately ripped
End of status report
==== Log checksum 9A59DA87DBFA423784664BEF3F78A7A439FEE3920AC7337F7D141FEAE9C851D4 ====



Показать сообщения:    

Текущее время: 06-Дек 22:56

Часовой пояс: UTC + 3


Вы не можете начинать темы
Вы не можете отвечать на сообщения
Вы не можете редактировать свои сообщения
Вы не можете удалять свои сообщения
Вы не можете голосовать в опросах
Вы не можете прикреплять файлы к сообщениям
Вы не можете скачивать файлы