(Classical) Deutsche Harmonia Mundi - La Legende en 25 CDs (Bach, Biber, Steffani, Boccherini, Caccini, Couperin, Frescobaldi, Purcell, Handel, Lassus, Lully, Marais, Monteverdi, Pergolesi, Rameau, Sainte Colombe..) - 2013, FLAC (image+.cue) lossless


Статистика раздачи [Обновить пиров]
Размер:  6.84 GB   |    Зарегистрирован:  8 месяцев 16 дней   |    Скачан:  1 раз

Полного источника не было: 1 месяц 1 день

 
   
 
 
 

[Цитировать]

Deutsche Harmonia Mundi - La Legende en 25 CDs (Biber, Steffani, Boccherini, Caccini, Couperin, Frescobaldi, Purcell, Handel, Lassus, Lully, Marais, Monteverdi, Pergolesi, Rameau, Sainte Colombe, A.Scarlatti, Telemann, Vivaldi, Zelenka)
Жанр: Classical
Год издания диска: 2013
Издатель (лейбл): Deutsche Harmonia Mundi
Номер по каталогу: 88883-71923
Год записи:
Аудиокодек: FLAC
Тип рипа: image+.cue
Битрейт аудио: lossless
Продолжительность: 25:24:37
Источник: собственный рип
Наличие сканов в содержимом раздачи: да (только обложки)
Треклист и исполнители:

CD01: Bach - Goldberg-Variationen, BWV 988 - CD:47'19

Johann Sebastian Bach
Исполнители:
Gustav Leonhardt, Harpsichord
Треклист:
01-32. Goldberg-Variationen BWV 988

LOG CD01:

Exact Audio Copy V1.0 beta 3 from 29. August 2011
EAC extraction logfile from 17. February 2015, 15:14
Gustav Leonhardt / Bach - Goldberg Variations BWV 988
Used drive : HL-DT-STDVDRAM GH24NS95 Adapter: 0 ID: 0
Read mode : Secure
Utilize accurate stream : Yes
Defeat audio cache : Yes
Make use of C2 pointers : No
Read offset correction : 6
Overread into Lead-In and Lead-Out : No
Fill up missing offset samples with silence : Yes
Delete leading and trailing silent blocks : No
Null samples used in CRC calculations : Yes
Used interface : Native Win32 interface for Win NT & 2000
Used output format : User Defined Encoder
Selected bitrate : 128 kBit/s
Quality : High
Add ID3 tag : No
Command line compressor : C:\Program Files (x86)\Exact Audio Copy\Flac\flac.exe
Additional command line options : -V -8 -T "Date=%year%" -T "Genre=%genre%" %source%
TOC of the extracted CD
Track | Start | Length | Start sector | End sector
---------------------------------------------------------
1 | 0:00.32 | 2:29.30 | 32 | 11236
2 | 2:29.62 | 1:33.13 | 11237 | 18224
3 | 4:03.00 | 1:04.22 | 18225 | 23046
4 | 5:07.22 | 0:59.50 | 23047 | 27521
5 | 6:06.72 | 0:34.10 | 27522 | 30081
6 | 6:41.07 | 0:59.63 | 30082 | 34569
7 | 7:40.70 | 0:59.65 | 34570 | 39059
8 | 8:40.60 | 1:03.47 | 39060 | 43831
9 | 9:44.32 | 1:17.58 | 43832 | 49664
10 | 11:02.15 | 1:10.35 | 49665 | 54949
11 | 12:12.50 | 0:52.20 | 54950 | 58869
12 | 13:04.70 | 1:24.50 | 58870 | 65219
13 | 14:29.45 | 1:53.32 | 65220 | 73726
14 | 16:23.02 | 2:39.13 | 73727 | 85664
15 | 19:02.15 | 1:20.52 | 85665 | 91716
16 | 20:22.67 | 2:52.73 | 91717 | 104689
17 | 23:15.65 | 1:26.17 | 104690 | 111156
18 | 24:42.07 | 1:02.23 | 111157 | 115829
19 | 25:44.30 | 0:43.67 | 115830 | 119121
20 | 26:28.22 | 0:59.23 | 119122 | 123569
21 | 27:27.45 | 1:15.15 | 123570 | 129209
22 | 28:42.60 | 1:56.25 | 129210 | 137934
23 | 30:39.10 | 0:46.12 | 137935 | 141396
24 | 31:25.22 | 1:19.73 | 141397 | 147394
25 | 32:45.20 | 1:55.17 | 147395 | 156036
26 | 34:40.37 | 4:09.25 | 156037 | 174736
27 | 38:49.62 | 1:13.13 | 174737 | 180224
28 | 40:03.00 | 0:57.22 | 180225 | 184521
29 | 41:00.22 | 1:32.38 | 184522 | 191459
30 | 42:32.60 | 1:10.55 | 191460 | 196764
31 | 43:43.40 | 1:07.42 | 196765 | 201831
32 | 44:51.07 | 2:29.28 | 201832 | 213034
Range status and errors
Selected range
Filename C:\Program Files (x86)\Exact Audio Copy\Flac\Bach - Goldberg Variations BWV 988.wav
Peak level 83.3 %
Extraction speed 1.6 X
Range quality 100.0 %
Test CRC 0FEA5A8B
Copy CRC 0FEA5A8B
Copy OK
No errors occurred
AccurateRip summary
Track 1 accurately ripped (confidence 70) [36CD554D] (AR v2)
Track 2 accurately ripped (confidence 71) [D17E1295] (AR v2)
Track 3 accurately ripped (confidence 71) [A104BB95] (AR v2)
Track 4 accurately ripped (confidence 71) [83A4E8B0] (AR v2)
Track 5 accurately ripped (confidence 71) [51B761C5] (AR v2)
Track 6 accurately ripped (confidence 71) [8650DF78] (AR v2)
Track 7 accurately ripped (confidence 71) [643D3FE5] (AR v2)
Track 8 accurately ripped (confidence 70) [8A07AB60] (AR v2)
Track 9 accurately ripped (confidence 70) [D58763F5] (AR v2)
Track 10 accurately ripped (confidence 71) [66DCD66B] (AR v2)
Track 11 accurately ripped (confidence 71) [D1EF6DB5] (AR v2)
Track 12 accurately ripped (confidence 69) [86CB6937] (AR v2)
Track 13 accurately ripped (confidence 70) [7E4F311B] (AR v2)
Track 14 accurately ripped (confidence 70) [4D22517E] (AR v2)
Track 15 accurately ripped (confidence 70) [55FB4709] (AR v2)
Track 16 accurately ripped (confidence 71) [F119BE08] (AR v2)
Track 17 accurately ripped (confidence 71) [033EE076] (AR v2)
Track 18 accurately ripped (confidence 71) [15DCDE9A] (AR v2)
Track 19 accurately ripped (confidence 71) [F3FFF85E] (AR v2)
Track 20 accurately ripped (confidence 71) [734066A6] (AR v2)
Track 21 accurately ripped (confidence 70) [A7B72EA8] (AR v2)
Track 22 accurately ripped (confidence 70) [4320C748] (AR v2)
Track 23 accurately ripped (confidence 71) [1F3B4C2A] (AR v2)
Track 24 accurately ripped (confidence 71) [2A80C096] (AR v2)
Track 25 accurately ripped (confidence 71) [62D34268] (AR v2)
Track 26 accurately ripped (confidence 71) [860B33A5] (AR v2)
Track 27 accurately ripped (confidence 71) [685ECBDA] (AR v2)
Track 28 accurately ripped (confidence 71) [120EDA28] (AR v2)
Track 29 accurately ripped (confidence 71) [83658F43] (AR v2)
Track 30 accurately ripped (confidence 71) [15966A45] (AR v2)
Track 31 accurately ripped (confidence 70) [B33C1783] (AR v2)
Track 32 accurately ripped (confidence 71) [143A7FFC] (AR v2)
All tracks accurately ripped
End of status report
==== Log checksum 13CF597A44869A273FC23912500C79F9ABC375E4AD2878470C2C43B62909A93B ====

CD02: Bach - Motetten BWV225-230 - CD:60'57

Johann Sebastian Bach
Исполнители:
Cantus Cölln
Konrad Junghänel, Künstlerische Leitung und Laute
Треклист:
01. Motet BWV225 Singet dem Herrn ein neues Lied
02 Motet BWV229 Komm Jesu Komm
03 Motet BWV227 Jesu meine Freude
04 Motet BWV226 Der Geist hilft unsrer Schwachheit auf
05 Motet BWV228 Furchte dich nicht ich bin bei dir
06 Motet BWV230 Lobet den Herren alle Heiden

LOG CD02:

Exact Audio Copy V1.0 beta 3 from 29. August 2011
EAC extraction logfile from 17. February 2015, 15:41
Cantus Coelln / Bach - Motets BWV225-230
Used drive : HL-DT-STDVDRAM GH24NS95 Adapter: 0 ID: 0
Read mode : Secure
Utilize accurate stream : Yes
Defeat audio cache : Yes
Make use of C2 pointers : No
Read offset correction : 6
Overread into Lead-In and Lead-Out : No
Fill up missing offset samples with silence : Yes
Delete leading and trailing silent blocks : No
Null samples used in CRC calculations : Yes
Used interface : Native Win32 interface for Win NT & 2000
Used output format : User Defined Encoder
Selected bitrate : 128 kBit/s
Quality : High
Add ID3 tag : No
Command line compressor : C:\Program Files (x86)\Exact Audio Copy\Flac\flac.exe
Additional command line options : -V -8 -T "Date=%year%" -T "Genre=%genre%" %source%
TOC of the extracted CD
Track | Start | Length | Start sector | End sector
---------------------------------------------------------
1 | 0:00.00 | 12:11.60 | 0 | 54884
2 | 12:11.60 | 8:08.67 | 54885 | 91551
3 | 20:20.52 | 18:28.30 | 91552 | 174681
4 | 38:49.07 | 7:38.18 | 174682 | 209049
5 | 46:27.25 | 8:16.05 | 209050 | 246254
6 | 54:43.30 | 6:14.35 | 246255 | 274339
Range status and errors
Selected range
Filename C:\Program Files (x86)\Exact Audio Copy\Flac\Bach - Motets BWV225-230.wav
Peak level 98.5 %
Extraction speed 7.2 X
Range quality 100.0 %
Test CRC D5CC6B17
Copy CRC D5CC6B17
Copy OK
No errors occurred
AccurateRip summary
Track 1 accurately ripped (confidence 10) [EA72BEF7] (AR v2)
Track 2 accurately ripped (confidence 10) [882036AA] (AR v2)
Track 3 accurately ripped (confidence 10) [0D7C4BCC] (AR v2)
Track 4 accurately ripped (confidence 10) [5E5C0ACD] (AR v2)
Track 5 accurately ripped (confidence 10) [ACB7FC1D] (AR v2)
Track 6 accurately ripped (confidence 10) [7901BC4B] (AR v2)
All tracks accurately ripped
End of status report
==== Log checksum 9BF53117D2E0A25EAB8252826A032ACB1F66A5B68DB1805E840D75DEAB75D968 ====

CD03-04: Bach - 6 Suiten für violoncello solo, BWV 1007-1012 - CD1:65'05; CD2:71'19

Johann Sebastian Bach
Performer:
Hidemi Suzuki, Violoncello
CD1
01-06. Suite I G-Dur, BWV 1007
07-12. Suite IV Es-Dur, BWV 1010
13-18. Suite V c-Moll, BWV 1011
CD2
01-06. Suite III C-Dur, BWV 1009
07-12. Suite II d-Moll, BWV 1008
13-18. Suite VI D-Dur, BWV 1012

LOG CD03:

Exact Audio Copy V1.0 beta 3 from 29. August 2011
EAC extraction logfile from 17. February 2015, 16:18
Hidemi Suzuki / Bach - Suites for Solo Cello CD1
Used drive : HL-DT-STDVDRAM GH24NS95 Adapter: 0 ID: 0
Read mode : Secure
Utilize accurate stream : Yes
Defeat audio cache : Yes
Make use of C2 pointers : No
Read offset correction : 6
Overread into Lead-In and Lead-Out : No
Fill up missing offset samples with silence : Yes
Delete leading and trailing silent blocks : No
Null samples used in CRC calculations : Yes
Used interface : Native Win32 interface for Win NT & 2000
Used output format : User Defined Encoder
Selected bitrate : 128 kBit/s
Quality : High
Add ID3 tag : No
Command line compressor : C:\Program Files (x86)\Exact Audio Copy\Flac\flac.exe
Additional command line options : -V -8 -T "Date=%year%" -T "Genre=%genre%" %source%
TOC of the extracted CD
Track | Start | Length | Start sector | End sector
---------------------------------------------------------
1 | 0:00.00 | 2:23.72 | 0 | 10796
2 | 2:23.72 | 4:46.13 | 10797 | 32259
3 | 7:10.10 | 2:38.65 | 32260 | 44174
4 | 9:49.00 | 3:06.00 | 44175 | 58124
5 | 12:55.00 | 3:04.00 | 58125 | 71924
6 | 15:59.00 | 1:45.25 | 71925 | 79824
7 | 17:44.25 | 4:20.32 | 79825 | 99356
8 | 22:04.57 | 4:25.28 | 99357 | 119259
9 | 26:30.10 | 3:34.60 | 119260 | 135369
10 | 30:04.70 | 4:14.67 | 135370 | 154486
11 | 34:19.62 | 4:22.45 | 154487 | 174181
12 | 38:42.32 | 2:49.00 | 174182 | 186856
13 | 41:31.32 | 5:00.13 | 186857 | 209369
14 | 46:31.45 | 5:59.55 | 209370 | 236349
15 | 52:31.25 | 2:12.62 | 236350 | 246311
16 | 54:44.12 | 3:49.00 | 246312 | 263486
17 | 58:33.12 | 4:36.33 | 263487 | 284219
18 | 63:09.45 | 1:55.67 | 284220 | 292911
Range status and errors
Selected range
Filename C:\Program Files (x86)\Exact Audio Copy\Flac\Bach - Suites for Solo Cello CD1.wav
Peak level 98.9 %
Extraction speed 7.3 X
Range quality 100.0 %
Test CRC 29063884
Copy CRC 29063884
Copy OK
No errors occurred
AccurateRip summary
Track 1 accurately ripped (confidence 56) [EC4B91B5] (AR v2)
Track 2 accurately ripped (confidence 55) [6ED464F7] (AR v2)
Track 3 accurately ripped (confidence 56) [032182B1] (AR v2)
Track 4 accurately ripped (confidence 56) [F169BC59] (AR v2)
Track 5 accurately ripped (confidence 56) [55505605] (AR v2)
Track 6 accurately ripped (confidence 56) [BC6F2980] (AR v2)
Track 7 accurately ripped (confidence 56) [04B527E4] (AR v2)
Track 8 accurately ripped (confidence 55) [6ED0A271] (AR v2)
Track 9 accurately ripped (confidence 56) [279D3799] (AR v2)
Track 10 accurately ripped (confidence 56) [8D149DBA] (AR v2)
Track 11 accurately ripped (confidence 56) [3AE63F14] (AR v2)
Track 12 accurately ripped (confidence 56) [18BA71C2] (AR v2)
Track 13 accurately ripped (confidence 55) [C09EBD13] (AR v2)
Track 14 accurately ripped (confidence 55) [DEDDFFEB] (AR v2)
Track 15 accurately ripped (confidence 55) [5D944E7E] (AR v2)
Track 16 accurately ripped (confidence 55) [D104E9B5] (AR v2)
Track 17 accurately ripped (confidence 56) [650B2F04] (AR v2)
Track 18 accurately ripped (confidence 56) [61F17984] (AR v2)
All tracks accurately ripped
End of status report
==== Log checksum 3C0169FA6243454DE4BCB14FB30E8A816FB2E62B21C00FAA6EF41AA539F5D9B9 ====

LOG CD04:

Exact Audio Copy V1.0 beta 3 from 29. August 2011
EAC extraction logfile from 17. February 2015, 17:44
Suzuki Hidemi / Bach - Suites for Solo Cello CD2
Used drive : HL-DT-STDVDRAM GH24NS95 Adapter: 0 ID: 0
Read mode : Secure
Utilize accurate stream : Yes
Defeat audio cache : Yes
Make use of C2 pointers : No
Read offset correction : 6
Overread into Lead-In and Lead-Out : No
Fill up missing offset samples with silence : Yes
Delete leading and trailing silent blocks : No
Null samples used in CRC calculations : Yes
Used interface : Native Win32 interface for Win NT & 2000
Used output format : User Defined Encoder
Selected bitrate : 128 kBit/s
Quality : High
Add ID3 tag : No
Command line compressor : C:\Program Files (x86)\Exact Audio Copy\Flac\flac.exe
Additional command line options : -V -8 -T "Date=%year%" -T "Genre=%genre%" %source%
TOC of the extracted CD
Track | Start | Length | Start sector | End sector
---------------------------------------------------------
1 | 0:00.32 | 2:37.00 | 32 | 11806
2 | 2:37.32 | 3:59.43 | 11807 | 29774
3 | 6:37.00 | 2:57.30 | 29775 | 43079
4 | 9:34.30 | 4:30.65 | 43080 | 63394
5 | 14:05.20 | 2:43.05 | 63395 | 75624
6 | 16:48.25 | 3:05.07 | 75625 | 89506
7 | 19:53.32 | 3:53.73 | 89507 | 107054
8 | 23:47.30 | 4:14.67 | 107055 | 126171
9 | 28:02.22 | 1:51.20 | 126172 | 134516
10 | 29:53.42 | 5:00.60 | 134517 | 157076
11 | 34:54.27 | 3:30.73 | 157077 | 172899
12 | 38:25.25 | 2:26.02 | 172900 | 183851
13 | 40:51.27 | 4:25.05 | 183852 | 203731
14 | 45:16.32 | 10:06.55 | 203732 | 249236
15 | 55:23.12 | 3:36.13 | 249237 | 265449
16 | 58:59.25 | 4:47.65 | 265450 | 287039
17 | 63:47.15 | 3:38.65 | 287040 | 303454
18 | 67:26.05 | 3:52.60 | 303455 | 320914
Range status and errors
Selected range
Filename C:\Program Files (x86)\Exact Audio Copy\Flac\Bach - Suites for Solo Cello CD2.wav
Peak level 89.1 %
Extraction speed 1.9 X
Range quality 100.0 %
Test CRC 6B4A4CEE
Copy CRC 6B4A4CEE
Copy OK
No errors occurred
AccurateRip summary
Track 1 accurately ripped (confidence 11) [3DB8BEB3] (AR v2)
Track 2 accurately ripped (confidence 11) [8C9BA1E7] (AR v2)
Track 3 accurately ripped (confidence 11) [A9F2A32A] (AR v2)
Track 4 accurately ripped (confidence 11) [3D1B4EA6] (AR v2)
Track 5 accurately ripped (confidence 11) [1C953B0D] (AR v2)
Track 6 accurately ripped (confidence 11) [7915BA15] (AR v2)
Track 7 accurately ripped (confidence 11) [E13BB0B2] (AR v2)
Track 8 accurately ripped (confidence 11) [9374D06C] (AR v2)
Track 9 accurately ripped (confidence 11) [1A400EA1] (AR v2)
Track 10 accurately ripped (confidence 11) [903CEFA7] (AR v2)
Track 11 accurately ripped (confidence 11) [5537A83D] (AR v2)
Track 12 accurately ripped (confidence 11) [5AD969A9] (AR v2)
Track 13 accurately ripped (confidence 11) [5DA800D9] (AR v2)
Track 14 accurately ripped (confidence 11) [D28DF38E] (AR v2)
Track 15 accurately ripped (confidence 11) [A16B0C32] (AR v2)
Track 16 accurately ripped (confidence 11) [A41F7E62] (AR v2)
Track 17 accurately ripped (confidence 11) [182F9B49] (AR v2)
Track 18 accurately ripped (confidence 11) [28C8E79C] (AR v2)
All tracks accurately ripped
End of status report
==== Log checksum ED27ADE5FA0F4BE1C3863CA56CB426C7FD48627272AF1C7F663AA6D9E48F72DB ====

CD05: Biber - Requiem à 15 A-Dur; Steffani - Stabat Mater - CD:63'38

Heinrich Ignaz Franz von Biber
Исполнители:
Koor & Barokorkest van de Nederlandse
Gustav Leonhardt, Leitung
Треклист:
01-07. Biber - Requiem à 15 A-Dur
08-19. Steffani - Stabat Mater

LOG CD05:

Exact Audio Copy V1.0 beta 3 from 29. August 2011
EAC extraction logfile from 18. February 2015, 11:14
Gustav Leonhardt / Biber - Requiem à 15, Steffani - Stabat Mater
Used drive : HL-DT-STDVDRAM GH24NS95 Adapter: 0 ID: 0
Read mode : Secure
Utilize accurate stream : Yes
Defeat audio cache : Yes
Make use of C2 pointers : No
Read offset correction : 6
Overread into Lead-In and Lead-Out : No
Fill up missing offset samples with silence : Yes
Delete leading and trailing silent blocks : No
Null samples used in CRC calculations : Yes
Used interface : Native Win32 interface for Win NT & 2000
Used output format : User Defined Encoder
Selected bitrate : 128 kBit/s
Quality : High
Add ID3 tag : No
Command line compressor : C:\Program Files (x86)\Exact Audio Copy\Flac\flac.exe
Additional command line options : -V -8 -T "Date=%year%" -T "Genre=%genre%" %source%
TOC of the extracted CD
Track | Start | Length | Start sector | End sector
---------------------------------------------------------
1 | 0:00.00 | 6:51.25 | 0 | 30849
2 | 6:51.25 | 2:31.12 | 30850 | 42186
3 | 9:22.37 | 9:11.18 | 42187 | 83529
4 | 18:33.55 | 6:24.05 | 83530 | 112334
5 | 24:57.60 | 5:46.65 | 112335 | 138349
6 | 30:44.50 | 2:58.05 | 138350 | 151704
7 | 33:42.55 | 4:40.70 | 151705 | 172774
8 | 38:23.50 | 2:17.10 | 172775 | 183059
9 | 40:40.60 | 2:24.15 | 183060 | 193874
10 | 43:05.00 | 3:30.70 | 193875 | 209694
11 | 46:35.70 | 1:45.62 | 209695 | 217631
12 | 48:21.57 | 1:28.30 | 217632 | 224261
13 | 49:50.12 | 5:30.58 | 224262 | 249069
14 | 55:20.70 | 2:22.60 | 249070 | 259779
15 | 57:43.55 | 1:39.25 | 259780 | 267229
16 | 59:23.05 | 1:20.17 | 267230 | 273246
17 | 60:43.22 | 1:11.68 | 273247 | 278639
18 | 61:55.15 | 1:41.27 | 278640 | 286241
19 | 63:36.42 | 4:27.58 | 286242 | 306324
Range status and errors
Selected range
Filename C:\Program Files (x86)\Exact Audio Copy\Flac\Biber - Requiem à 15, Steffani - Stabat Mater.wav
Peak level 100.0 %
Extraction speed 7.3 X
Range quality 100.0 %
Test CRC 0614F07F
Copy CRC 0614F07F
Copy OK
No errors occurred
AccurateRip summary
Track 1 accurately ripped (confidence 10) [94CC6B3A] (AR v2)
Track 2 accurately ripped (confidence 11) [BEAD8874] (AR v2)
Track 3 accurately ripped (confidence 11) [1B1B9F6C] (AR v2)
Track 4 accurately ripped (confidence 11) [692C6321] (AR v2)
Track 5 accurately ripped (confidence 11) [AFE93409] (AR v2)
Track 6 accurately ripped (confidence 11) [854BBF19] (AR v2)
Track 7 accurately ripped (confidence 11) [A61AABC8] (AR v2)
Track 8 accurately ripped (confidence 11) [8D574E2F] (AR v2)
Track 9 accurately ripped (confidence 11) [938558D9] (AR v2)
Track 10 accurately ripped (confidence 11) [279F9041] (AR v2)
Track 11 accurately ripped (confidence 11) [40646531] (AR v2)
Track 12 accurately ripped (confidence 11) [F49A0D60] (AR v2)
Track 13 accurately ripped (confidence 11) [1C18BC91] (AR v2)
Track 14 accurately ripped (confidence 11) [4FFCC211] (AR v2)
Track 15 accurately ripped (confidence 11) [0411F1C2] (AR v2)
Track 16 accurately ripped (confidence 11) [1831B4E0] (AR v2)
Track 17 accurately ripped (confidence 11) [A4E015FF] (AR v2)
Track 18 accurately ripped (confidence 11) [ECAD5C8E] (AR v2)
Track 19 accurately ripped (confidence 12) [32B2A2D6] (AR v2)
All tracks accurately ripped
End of status report
==== Log checksum F4D4E81AC99E5701032B48762368C543722C7F1E716CD890BE7AB5B3C600BA77 ====

CD06: Boccherini - Cello Concertos, Sinfonias - CD:67'22

Luigi Rodolfo Boccherini‎
Исполнители:
Tafelmusik
Jean Lamon, Leitung
Anner Bylsma, Violoncello
Треклист:
01-03. Concerto G-Dur, G.480
04-06. Sinfonia B-Dur, G.497
07-09. Concerto B-Dur, G. 483
10-12. Sinfonia d-Moll "La casa del diavolo", G.506

LOG CD06:

Exact Audio Copy V1.0 beta 3 from 29. August 2011
EAC extraction logfile from 18. February 2015, 12:09
Anner Bylsma, Tafelmusik / Boccherini - Cello Concertos, Sinfonias
Used drive : HL-DT-STDVDRAM GH24NS95 Adapter: 0 ID: 0
Read mode : Secure
Utilize accurate stream : Yes
Defeat audio cache : Yes
Make use of C2 pointers : No
Read offset correction : 6
Overread into Lead-In and Lead-Out : No
Fill up missing offset samples with silence : Yes
Delete leading and trailing silent blocks : No
Null samples used in CRC calculations : Yes
Used interface : Native Win32 interface for Win NT & 2000
Used output format : User Defined Encoder
Selected bitrate : 128 kBit/s
Quality : High
Add ID3 tag : No
Command line compressor : C:\Program Files (x86)\Exact Audio Copy\Flac\flac.exe
Additional command line options : -V -8 -T "Date=%year%" -T "Genre=%genre%" %source%
TOC of the extracted CD
Track | Start | Length | Start sector | End sector
---------------------------------------------------------
1 | 0:00.00 | 7:01.50 | 0 | 31624
2 | 7:01.50 | 4:56.45 | 31625 | 53869
3 | 11:58.20 | 4:06.55 | 53870 | 72374
4 | 16:05.00 | 8:05.42 | 72375 | 108791
5 | 24:10.42 | 5:20.33 | 108792 | 132824
6 | 29:31.00 | 2:55.00 | 132825 | 145949
7 | 32:26.00 | 7:06.00 | 145950 | 177899
8 | 39:32.00 | 5:25.12 | 177900 | 202286
9 | 44:57.12 | 5:32.63 | 202287 | 227249
10 | 50:30.00 | 5:08.00 | 227250 | 250349
11 | 55:38.00 | 5:54.00 | 250350 | 276899
12 | 61:32.00 | 5:49.05 | 276900 | 303079
Range status and errors
Selected range
Filename C:\Program Files (x86)\Exact Audio Copy\Flac\Boccherini - Cello Concertos, Sinfonias.wav
Peak level 100.0 %
Extraction speed 7.3 X
Range quality 100.0 %
Test CRC 9B8CEBCD
Copy CRC 9B8CEBCD
Copy OK
No errors occurred
AccurateRip summary
Track 1 accurately ripped (confidence 19) [469DDB25] (AR v2)
Track 2 accurately ripped (confidence 19) [7500B86F] (AR v2)
Track 3 accurately ripped (confidence 19) [2B8732A8] (AR v2)
Track 4 accurately ripped (confidence 19) [4164A5AD] (AR v2)
Track 5 accurately ripped (confidence 19) [76E4350C] (AR v2)
Track 6 accurately ripped (confidence 19) [096F92B2] (AR v2)
Track 7 accurately ripped (confidence 19) [A5B2613C] (AR v2)
Track 8 accurately ripped (confidence 19) [FAAAAF88] (AR v2)
Track 9 accurately ripped (confidence 19) [E9B87834] (AR v2)
Track 10 accurately ripped (confidence 19) [58A5356D] (AR v2)
Track 11 accurately ripped (confidence 19) [B984439A] (AR v2)
Track 12 accurately ripped (confidence 19) [5B6070B2] (AR v2)
All tracks accurately ripped
End of status report
==== Log checksum 7460283EFE5993E7CBE116D4D9F236E5A98742C321BF8900D0452BB2F0DCACB2 ====

CD07: Caccini - Le Nuove Musiche - CD:50'45

Giulio Caccini
Исполнители:
Montserrat Figueras, Gesang
Schola Cantorum Basiliensis:
Hopkinson Smith, Laute, Barockgitarre
Robert Clancy, Barockgitarre
Jordi Savall, Viola da Gamba
Xenia Schindler, Harfe
Треклист:
01-15. Le Nuove Musiche

LOG CD07:

Exact Audio Copy V1.0 beta 3 from 29. August 2011
EAC extraction logfile from 18. February 2015, 12:33
Montserrat Figueras, Jordi Savall - Schola Cantorum Basiliensis / Caccini - Le Nuove Musiche
Used drive : HL-DT-STDVDRAM GH24NS95 Adapter: 0 ID: 0
Read mode : Secure
Utilize accurate stream : Yes
Defeat audio cache : Yes
Make use of C2 pointers : No
Read offset correction : 6
Overread into Lead-In and Lead-Out : No
Fill up missing offset samples with silence : Yes
Delete leading and trailing silent blocks : No
Null samples used in CRC calculations : Yes
Used interface : Native Win32 interface for Win NT & 2000
Used output format : User Defined Encoder
Selected bitrate : 128 kBit/s
Quality : High
Add ID3 tag : No
Command line compressor : C:\Program Files (x86)\Exact Audio Copy\Flac\flac.exe
Additional command line options : -V -8 -T "Date=%year%" -T "Genre=%genre%" %source%
TOC of the extracted CD
Track | Start | Length | Start sector | End sector
---------------------------------------------------------
1 | 0:00.00 | 2:19.40 | 0 | 10464
2 | 2:19.40 | 3:17.40 | 10465 | 25279
3 | 5:37.05 | 3:10.15 | 25280 | 39544
4 | 8:47.20 | 2:41.67 | 39545 | 51686
5 | 11:29.12 | 3:34.48 | 51687 | 67784
6 | 15:03.60 | 3:38.67 | 67785 | 84201
7 | 18:42.52 | 6:53.20 | 84202 | 115196
8 | 25:35.72 | 5:43.38 | 115197 | 140959
9 | 31:19.35 | 1:58.40 | 140960 | 149849
10 | 33:18.00 | 2:17.50 | 149850 | 160174
11 | 35:35.50 | 2:22.65 | 160175 | 170889
12 | 37:58.40 | 2:41.07 | 170890 | 182971
13 | 40:39.47 | 4:19.40 | 182972 | 202436
14 | 44:59.12 | 3:49.15 | 202437 | 219626
15 | 48:48.27 | 1:56.23 | 219627 | 228349
Range status and errors
Selected range
Filename C:\Program Files (x86)\Exact Audio Copy\Flac\Caccini - Le Nuove Musiche.wav
Peak level 79.2 %
Extraction speed 6.9 X
Range quality 100.0 %
Test CRC 8B8CDF64
Copy CRC 8B8CDF64
Copy OK
No errors occurred
AccurateRip summary
Track 1 accurately ripped (confidence 9) [95D85EF6] (AR v2)
Track 2 accurately ripped (confidence 9) [7D96CC1A] (AR v2)
Track 3 accurately ripped (confidence 9) [09334185] (AR v2)
Track 4 accurately ripped (confidence 9) [DD134E35] (AR v2)
Track 5 accurately ripped (confidence 9) [032B48C4] (AR v2)
Track 6 accurately ripped (confidence 9) [519587DC] (AR v2)
Track 7 accurately ripped (confidence 9) [0A1C210C] (AR v2)
Track 8 accurately ripped (confidence 9) [86D9EEFC] (AR v2)
Track 9 accurately ripped (confidence 9) [F47117F7] (AR v2)
Track 10 accurately ripped (confidence 9) [DB729236] (AR v2)
Track 11 accurately ripped (confidence 9) [188A2FEB] (AR v2)
Track 12 accurately ripped (confidence 9) [984C2FA4] (AR v2)
Track 13 accurately ripped (confidence 9) [AEA7D6C1] (AR v2)
Track 14 accurately ripped (confidence 9) [D6833BD3] (AR v2)
Track 15 accurately ripped (confidence 9) [898E43C8] (AR v2)
All tracks accurately ripped
End of status report
==== Log checksum 051A36D513D85168E9C7913B5E69E64751043403DF2A15C1E4E69E87CEB463B7 ====

CD08: Couperin - La Sultane - CD:61'18

François Couperin
Исполнители:
Jay Bernfeld, Viola da Gamba
Capriccio Stravagante
Skip Sempé
Треклист:
01. La Sultane
01-08. Première Suite en mi mineur
09. Le Dodo ou l'amour au berceau
10-11. Deuxième Suite en la majeur
12. La Superbe

LOG CD08:

Exact Audio Copy V1.0 beta 3 from 29. August 2011
EAC extraction logfile from 18. February 2015, 13:08
Skip Sempé / Couperin - La Sultane
Used drive : HL-DT-STDVDRAM GH24NS95 Adapter: 0 ID: 0
Read mode : Secure
Utilize accurate stream : Yes
Defeat audio cache : Yes
Make use of C2 pointers : No
Read offset correction : 6
Overread into Lead-In and Lead-Out : No
Fill up missing offset samples with silence : Yes
Delete leading and trailing silent blocks : No
Null samples used in CRC calculations : Yes
Used interface : Native Win32 interface for Win NT & 2000
Used output format : User Defined Encoder
Selected bitrate : 128 kBit/s
Quality : High
Add ID3 tag : No
Command line compressor : C:\Program Files (x86)\Exact Audio Copy\Flac\flac.exe
Additional command line options : -V -8 -T "Date=%year%" -T "Genre=%genre%" %source%
TOC of the extracted CD
Track | Start | Length | Start sector | End sector
---------------------------------------------------------
1 | 0:00.00 | 9:33.00 | 0 | 42974
2 | 9:33.00 | 4:21.00 | 42975 | 62549
3 | 13:54.00 | 2:34.45 | 62550 | 74144
4 | 16:28.45 | 1:40.30 | 74145 | 81674
5 | 18:09.00 | 4:34.00 | 81675 | 102224
6 | 22:43.00 | 2:32.00 | 102225 | 113624
7 | 25:15.00 | 2:26.00 | 113625 | 124574
8 | 27:41.00 | 5:42.00 | 124575 | 150224
9 | 33:23.00 | 5:29.00 | 150225 | 174899
10 | 38:52.00 | 3:05.30 | 174900 | 188804
11 | 41:57.30 | 2:03.45 | 188805 | 198074
12 | 44:01.00 | 5:42.00 | 198075 | 223724
13 | 49:43.00 | 4:06.00 | 223725 | 242174
14 | 53:49.00 | 7:28.30 | 242175 | 275804
Range status and errors
Selected range
Filename C:\Program Files (x86)\Exact Audio Copy\Flac\Couperin - La Sultane.wav
Peak level 97.3 %
Extraction speed 7.2 X
Range quality 100.0 %
Test CRC C5D8DE2B
Copy CRC C5D8DE2B
Copy OK
No errors occurred
AccurateRip summary
Track 1 accurately ripped (confidence 10) [6BDE2AD1] (AR v2)
Track 2 accurately ripped (confidence 10) [09EFFF45] (AR v2)
Track 3 accurately ripped (confidence 10) [6F0BE412] (AR v2)
Track 4 accurately ripped (confidence 10) [C0A4310A] (AR v2)
Track 5 accurately ripped (confidence 10) [7E17FAB2] (AR v2)
Track 6 accurately ripped (confidence 10) [D2A59104] (AR v2)
Track 7 accurately ripped (confidence 10) [57B773B8] (AR v2)
Track 8 accurately ripped (confidence 10) [A8AD217F] (AR v2)
Track 9 accurately ripped (confidence 10) [17C5C8B7] (AR v2)
Track 10 accurately ripped (confidence 10) [2FFC6557] (AR v2)
Track 11 accurately ripped (confidence 10) [7E14483A] (AR v2)
Track 12 accurately ripped (confidence 10) [821D6157] (AR v2)
Track 13 accurately ripped (confidence 10) [D1228639] (AR v2)
Track 14 accurately ripped (confidence 10) [C5708B02] (AR v2)
All tracks accurately ripped
End of status report
==== Log checksum 4E004FEFE32182D2B47B0C0CDBE563FBA6616030FF903C720EB510408DCB7EFB ====

CD09-CD10: Frescobaldi - Fiori Musicali - CD1:63'06; CD2:68'13

Girolamo Frescobaldi‎
Исполнители:
Canticum
Christoph Erkens, Leitungl direction
Треклист:
CD1: 01-21. Messa della Domenica
CD2: 01-23. Messa della Madonna

LOG CD09:

Exact Audio Copy V1.0 beta 3 from 29. August 2011
EAC extraction logfile from 19. February 2015, 10:56
Lorenzo Ghielmi, Christoph Erkens - Canticum / Frescobaldi - Messa della Madonna
Used drive : HL-DT-STDVDRAM GH24NS95 Adapter: 0 ID: 0
Read mode : Secure
Utilize accurate stream : Yes
Defeat audio cache : Yes
Make use of C2 pointers : No
Read offset correction : 6
Overread into Lead-In and Lead-Out : No
Fill up missing offset samples with silence : Yes
Delete leading and trailing silent blocks : No
Null samples used in CRC calculations : Yes
Used interface : Native Win32 interface for Win NT & 2000
Used output format : User Defined Encoder
Selected bitrate : 128 kBit/s
Quality : High
Add ID3 tag : No
Command line compressor : C:\Program Files (x86)\Exact Audio Copy\Flac\flac.exe
Additional command line options : -V -8 -T "Date=%year%" -T "Genre=%genre%" %source%
TOC of the extracted CD
Track | Start | Length | Start sector | End sector
---------------------------------------------------------
1 | 0:00.00 | 0:59.57 | 0 | 4481
2 | 0:59.57 | 5:34.15 | 4482 | 29546
3 | 6:33.72 | 3:18.65 | 29547 | 44461
4 | 9:52.62 | 1:45.73 | 44462 | 52409
5 | 11:38.60 | 5:47.40 | 52410 | 78474
6 | 17:26.25 | 2:31.62 | 78475 | 89861
7 | 19:58.12 | 1:24.48 | 89862 | 96209
8 | 21:22.60 | 3:31.55 | 96210 | 112089
9 | 24:54.40 | 1:22.10 | 112090 | 118249
10 | 26:16.50 | 0:56.65 | 118250 | 122514
11 | 27:13.40 | 3:04.65 | 122515 | 136379
12 | 30:18.30 | 0:28.55 | 136380 | 138534
13 | 30:47.10 | 5:05.00 | 138535 | 161409
14 | 35:52.10 | 0:46.02 | 161410 | 164861
15 | 36:38.12 | 3:14.55 | 164862 | 179466
16 | 39:52.67 | 3:48.25 | 179467 | 196591
17 | 43:41.17 | 5:30.55 | 196592 | 221396
18 | 49:11.72 | 1:17.28 | 221397 | 227199
19 | 50:29.25 | 5:10.30 | 227200 | 250479
20 | 55:39.55 | 6:12.32 | 250480 | 278411
21 | 61:52.12 | 0:31.68 | 278412 | 280804
22 | 62:24.05 | 1:28.67 | 280805 | 287471
23 | 63:52.72 | 4:21.23 | 287472 | 307069
Range status and errors
Selected range
Filename C:\Program Files (x86)\Exact Audio Copy\Flac\Frescobaldi - Messa della Madonna.wav
Suspicious position 0:50:15
Suspicious position 0:50:17
Suspicious position 0:50:23
Suspicious position 0:50:25
Suspicious position 0:50:36 - 0:50:37
Suspicious position 0:50:39 - 0:50:40
Peak level 91.3 %
Extraction speed 3.7 X
Range quality 99.7 %
Test CRC B754437E
Copy CRC 516E3A1D
Copy finished
There were errors
AccurateRip summary
Track 1 accurately ripped (confidence 9) [0A9626FE] (AR v2)
Track 2 accurately ripped (confidence 9) [F82CE273] (AR v2)
Track 3 accurately ripped (confidence 9) [21DF0F04] (AR v2)
Track 4 accurately ripped (confidence 9) [FB80EE53] (AR v2)
Track 5 accurately ripped (confidence 9) [692A924B] (AR v2)
Track 6 accurately ripped (confidence 9) [A79924E8] (AR v2)
Track 7 accurately ripped (confidence 9) [B325898D] (AR v2)
Track 8 accurately ripped (confidence 9) [8B8E478E] (AR v2)
Track 9 accurately ripped (confidence 9) [FCEA6310] (AR v2)
Track 10 accurately ripped (confidence 9) [A552F28C] (AR v2)
Track 11 accurately ripped (confidence 9) [5261954D] (AR v2)
Track 12 accurately ripped (confidence 9) [3D774245] (AR v2)
Track 13 accurately ripped (confidence 9) [026D6CB8] (AR v2)
Track 14 accurately ripped (confidence 9) [18934015] (AR v2)
Track 15 accurately ripped (confidence 9) [2E57403B] (AR v2)
Track 16 accurately ripped (confidence 9) [F0BB1234] (AR v2)
Track 17 accurately ripped (confidence 9) [5F54791F] (AR v2)
Track 18 cannot be verified as accurate (confidence 51) [F812E98E], AccurateRip returned [6CB4D269] (AR v2)
Track 19 cannot be verified as accurate (confidence 51) [6150CB6D], AccurateRip returned [6FD4FE68] (AR v2)
Track 20 accurately ripped (confidence 9) [EC5FD021] (AR v2)
Track 21 accurately ripped (confidence 9) [11C37D8F] (AR v2)
Track 22 accurately ripped (confidence 9) [1BCDEBEA] (AR v2)
Track 23 accurately ripped (confidence 9) [E0842518] (AR v2)
21 track(s) accurately ripped
2 track(s) could not be verified as accurate
Some tracks could not be verified as accurate
End of status report
==== Log checksum 05515C9AFDBE1A97B699C99B8946129C6CD8296CB9D3AD41E3D05B69761B0697 ====

LOG CD10:

Exact Audio Copy V1.0 beta 3 from 29. August 2011
EAC extraction logfile from 18. February 2015, 14:12
Canticum / Frescobaldi - Messa della Domenica
Used drive : HL-DT-STDVDRAM GH24NS95 Adapter: 0 ID: 0
Read mode : Secure
Utilize accurate stream : Yes
Defeat audio cache : Yes
Make use of C2 pointers : No
Read offset correction : 6
Overread into Lead-In and Lead-Out : No
Fill up missing offset samples with silence : Yes
Delete leading and trailing silent blocks : No
Null samples used in CRC calculations : Yes
Used interface : Native Win32 interface for Win NT & 2000
Used output format : User Defined Encoder
Selected bitrate : 128 kBit/s
Quality : High
Add ID3 tag : No
Command line compressor : C:\Program Files (x86)\Exact Audio Copy\Flac\flac.exe
Additional command line options : -V -8 -T "Date=%year%" -T "Genre=%genre%" %source%
TOC of the extracted CD
Track | Start | Length | Start sector | End sector
---------------------------------------------------------
1 | 0:00.00 | 1:13.40 | 0 | 5514
2 | 1:13.40 | 5:32.60 | 5515 | 30474
3 | 6:46.25 | 3:03.35 | 30475 | 44234
4 | 9:49.60 | 2:46.55 | 44235 | 56739
5 | 12:36.40 | 4:11.17 | 56740 | 75581
6 | 16:47.57 | 2:44.15 | 75582 | 87896
7 | 19:31.72 | 1:29.58 | 87897 | 94629
8 | 21:01.55 | 5:50.45 | 94630 | 120924
9 | 26:52.25 | 1:18.72 | 120925 | 126846
10 | 28:11.22 | 3:04.10 | 126847 | 140656
11 | 31:15.32 | 0:22.18 | 140657 | 142324
12 | 31:37.50 | 2:16.57 | 142325 | 152581
13 | 33:54.32 | 0:54.63 | 152582 | 156694
14 | 34:49.20 | 2:02.32 | 156695 | 165876
15 | 36:51.52 | 4:05.20 | 165877 | 184271
16 | 40:56.72 | 3:20.60 | 184272 | 199331
17 | 44:17.57 | 3:47.60 | 199332 | 216416
18 | 48:05.42 | 6:13.53 | 216417 | 244444
19 | 54:19.20 | 0:55.70 | 244445 | 248639
20 | 55:15.15 | 2:39.45 | 248640 | 260609
21 | 57:54.60 | 5:12.55 | 260610 | 284064
Range status and errors
Selected range
Filename C:\Program Files (x86)\Exact Audio Copy\Flac\Frescobaldi - Messa della Domenica.wav
Peak level 78.9 %
Extraction speed 7.3 X
Range quality 100.0 %
Test CRC C8E65F08
Copy CRC C8E65F08
Copy OK
No errors occurred
AccurateRip summary
Track 1 accurately ripped (confidence 11) [D4832943] (AR v2)
Track 2 accurately ripped (confidence 11) [C2C4EDF6] (AR v2)
Track 3 accurately ripped (confidence 11) [A6C514B5] (AR v2)
Track 4 accurately ripped (confidence 11) [2059C8DF] (AR v2)
Track 5 accurately ripped (confidence 11) [BF687FED] (AR v2)
Track 6 accurately ripped (confidence 11) [78C7B503] (AR v2)
Track 7 accurately ripped (confidence 11) [0675E4A9] (AR v2)
Track 8 accurately ripped (confidence 11) [76717BB3] (AR v2)
Track 9 accurately ripped (confidence 11) [5ED04FD0] (AR v2)
Track 10 accurately ripped (confidence 11) [53B21ECF] (AR v2)
Track 11 accurately ripped (confidence 11) [8C2D32C7] (AR v2)
Track 12 accurately ripped (confidence 11) [D7D0417B] (AR v2)
Track 13 accurately ripped (confidence 11) [AEC5BD76] (AR v2)
Track 14 accurately ripped (confidence 11) [4D9E62CE] (AR v2)
Track 15 accurately ripped (confidence 10) [40C45BC7] (AR v2)
Track 16 accurately ripped (confidence 11) [3588CD8A] (AR v2)
Track 17 accurately ripped (confidence 11) [64896BDA] (AR v2)
Track 18 accurately ripped (confidence 11) [D8595CC9] (AR v2)
Track 19 accurately ripped (confidence 11) [9A5B75B5] (AR v2)
Track 20 accurately ripped (confidence 11) [767B22CF] (AR v2)
Track 21 accurately ripped (confidence 11) [15C7C16C] (AR v2)
All tracks accurately ripped
End of status report
==== Log checksum 048E80FBF77C5985A13F398FB4660569ACDEED1154F3DA704EAFEC80876EDB1A ====

CD11: Purcell, Händel - CD:68'48

Henry Purcell
George Frideric Handel‎
Исполнители:
Nancy Argenta, soprano
Michael Chance, countertenor
Freiburger Barockorchester
Gottfried von der Goltz, Leitung
Треклист:
01-10. Purcell - Dioclesian suite
11-15. Händel - Concerto grosso Op.6 No.6 g-Moll
16-26. Il duello amoroso, HWV 82

LOG CD11:

Exact Audio Copy V1.0 beta 3 from 29. August 2011
EAC extraction logfile from 18. February 2015, 15:47
Freiburger Barockorchester, Nancy Argenta, Michael Chance / Purcel - Dioclesian suite, Handel - Concerto Grosso Op.6 No.6, Amarilli Vezzosa
Used drive : HL-DT-STDVDRAM GH24NS95 Adapter: 0 ID: 0
Read mode : Secure
Utilize accurate stream : Yes
Defeat audio cache : Yes
Make use of C2 pointers : No
Read offset correction : 6
Overread into Lead-In and Lead-Out : No
Fill up missing offset samples with silence : Yes
Delete leading and trailing silent blocks : No
Null samples used in CRC calculations : Yes
Used interface : Native Win32 interface for Win NT & 2000
Used output format : User Defined Encoder
Selected bitrate : 128 kBit/s
Quality : High
Add ID3 tag : No
Command line compressor : C:\Program Files (x86)\Exact Audio Copy\Flac\flac.exe
Additional command line options : -V -8 -T "Date=%year%" -T "Genre=%genre%" %source%
TOC of the extracted CD
Track | Start | Length | Start sector | End sector
---------------------------------------------------------
1 | 0:00.00 | 4:11.67 | 0 | 18891
2 | 4:11.67 | 3:06.53 | 18892 | 32894
3 | 7:18.45 | 2:14.42 | 32895 | 42986
4 | 9:33.12 | 3:45.73 | 42987 | 59934
5 | 13:19.10 | 4:16.47 | 59935 | 79181
6 | 17:35.57 | 1:46.40 | 79182 | 87171
7 | 19:22.22 | 3:34.15 | 87172 | 103236
8 | 22:56.37 | 2:28.55 | 103237 | 114391
9 | 25:25.17 | 2:24.25 | 114392 | 125216
10 | 27:49.42 | 4:11.50 | 125217 | 144091
11 | 32:01.17 | 2:54.33 | 144092 | 157174
12 | 34:55.50 | 1:35.12 | 157175 | 164311
13 | 36:30.62 | 4:55.15 | 164312 | 186451
14 | 41:26.02 | 2:42.28 | 186452 | 198629
15 | 44:08.30 | 2:10.45 | 198630 | 208424
16 | 46:19.00 | 2:28.35 | 208425 | 219559
17 | 48:47.35 | 0:30.00 | 219560 | 221809
18 | 49:17.35 | 3:50.15 | 221810 | 239074
19 | 53:07.50 | 0:33.42 | 239075 | 241591
20 | 53:41.17 | 3:28.53 | 241592 | 257244
21 | 57:09.70 | 0:46.35 | 257245 | 260729
22 | 57:56.30 | 2:04.57 | 260730 | 270086
23 | 60:01.12 | 0:29.68 | 270087 | 272329
24 | 60:31.05 | 4:33.60 | 272330 | 292864
25 | 65:04.65 | 1:41.72 | 292865 | 300511
26 | 66:46.62 | 2:02.30 | 300512 | 309691
Range status and errors
Selected range
Filename C:\Program Files (x86)\Exact Audio Copy\Flac\Purcel - Dioclesian suite, Handel - Concerto Grosso Op.6 No.6, Amarilli Vezzosa.wav
Peak level 96.2 %
Extraction speed 7.4 X
Range quality 100.0 %
Test CRC 0F5105C0
Copy CRC 0F5105C0
Copy OK
No errors occurred
AccurateRip summary
Track 1 accurately ripped (confidence 10) [323F6D45] (AR v2)
Track 2 accurately ripped (confidence 10) [417C4A55] (AR v2)
Track 3 accurately ripped (confidence 10) [89983825] (AR v2)
Track 4 accurately ripped (confidence 10) [ED18E889] (AR v2)
Track 5 accurately ripped (confidence 10) [BBE3CDD2] (AR v2)
Track 6 accurately ripped (confidence 10) [0A5845EA] (AR v2)
Track 7 accurately ripped (confidence 10) [F4BD58B3] (AR v2)
Track 8 accurately ripped (confidence 10) [A2C7BE26] (AR v2)
Track 9 accurately ripped (confidence 10) [6B0C964D] (AR v2)
Track 10 accurately ripped (confidence 10) [5394A321] (AR v2)
Track 11 accurately ripped (confidence 10) [9AAC726C] (AR v2)
Track 12 accurately ripped (confidence 10) [5964E131] (AR v2)
Track 13 accurately ripped (confidence 10) [32751403] (AR v2)
Track 14 accurately ripped (confidence 10) [BE6E7639] (AR v2)
Track 15 accurately ripped (confidence 10) [08C32281] (AR v2)
Track 16 accurately ripped (confidence 10) [4DE1ADC8] (AR v2)
Track 17 accurately ripped (confidence 10) [F8E10E2E] (AR v2)
Track 18 accurately ripped (confidence 10) [5DC6214F] (AR v2)
Track 19 accurately ripped (confidence 10) [5E3BDE9A] (AR v2)
Track 20 accurately ripped (confidence 10) [6D9FD955] (AR v2)
Track 21 accurately ripped (confidence 10) [AD19D85C] (AR v2)
Track 22 accurately ripped (confidence 10) [4B255BC7] (AR v2)
Track 23 accurately ripped (confidence 10) [B1699BF7] (AR v2)
Track 24 accurately ripped (confidence 10) [9012EDB7] (AR v2)
Track 25 accurately ripped (confidence 10) [10926E08] (AR v2)
Track 26 accurately ripped (confidence 10) [CB02FE3A] (AR v2)
All tracks accurately ripped
End of status report
==== Log checksum B261B48086CBB0FBE573EA8E2710D605E00FCE999E43C2B1B3EEBC759D6806B3 ====

CD12: Lassus - Requiem à 5 - CD:60'01

Orlande de Lassus
Исполнители:
Ensemble Pro Cantione Antiqua
Bruno Turner, Leitung
Collegium Aureum
Bläserkreis für Alte Musik Hamburg
Треклист:
01-08. Requiem à 5
09. O bone Jesu
10. Magnificat "Praeter rerum seriem"
11. Alma Redemptoris mater
12. Ave Maria

LOG CD12:

Exact Audio Copy V1.0 beta 3 from 29. August 2011
EAC extraction logfile from 18. February 2015, 17:22
Pro Cantione Antiqua / Lassus - Requiem à 5, Magnificat
Used drive : HL-DT-STDVDRAM GH24NS95 Adapter: 0 ID: 0
Read mode : Secure
Utilize accurate stream : Yes
Defeat audio cache : Yes
Make use of C2 pointers : No
Read offset correction : 6
Overread into Lead-In and Lead-Out : No
Fill up missing offset samples with silence : Yes
Delete leading and trailing silent blocks : No
Null samples used in CRC calculations : Yes
Used interface : Native Win32 interface for Win NT & 2000
Used output format : User Defined Encoder
Selected bitrate : 128 kBit/s
Quality : High
Add ID3 tag : No
Command line compressor : C:\Program Files (x86)\Exact Audio Copy\Flac\flac.exe
Additional command line options : -V -8 -T "Date=%year%" -T "Genre=%genre%" %source%
TOC of the extracted CD
Track | Start | Length | Start sector | End sector
---------------------------------------------------------
1 | 0:00.33 | 6:28.10 | 33 | 29142
2 | 6:28.43 | 3:20.47 | 29143 | 44189
3 | 9:49.15 | 3:27.08 | 44190 | 59722
4 | 13:16.23 | 4:55.55 | 59723 | 81902
5 | 18:12.03 | 6:53.00 | 81903 | 112877
6 | 25:05.03 | 3:35.40 | 112878 | 129042
7 | 28:40.43 | 3:32.52 | 129043 | 144994
8 | 32:13.20 | 2:59.05 | 144995 | 158424
9 | 35:12.25 | 3:51.63 | 158425 | 175812
10 | 39:04.13 | 13:45.65 | 175813 | 237752
11 | 52:50.03 | 4:17.07 | 237753 | 257034
12 | 57:07.10 | 2:43.23 | 257035 | 269282
Range status and errors
Selected range
Filename C:\Program Files (x86)\Exact Audio Copy\Flac\Lassus - Requiem à 5, Magnificat.wav
Peak level 93.4 %
Extraction speed 1.8 X
Range quality 100.0 %
Test CRC 37666F91
Copy CRC 37666F91
Copy OK
No errors occurred
AccurateRip summary
Track 1 accurately ripped (confidence 11) [B2A0E1BC] (AR v2)
Track 2 accurately ripped (confidence 11) [6168E024] (AR v2)
Track 3 accurately ripped (confidence 11) [D610A6D2] (AR v2)
Track 4 accurately ripped (confidence 11) [2AC59BBF] (AR v2)
Track 5 accurately ripped (confidence 11) [7264CB13] (AR v2)
Track 6 accurately ripped (confidence 11) [79A54E1F] (AR v2)
Track 7 accurately ripped (confidence 11) [F9C88856] (AR v2)
Track 8 accurately ripped (confidence 11) [1344E2B1] (AR v2)
Track 9 accurately ripped (confidence 11) [AD0B7357] (AR v2)
Track 10 accurately ripped (confidence 11) [FAF0FAC0] (AR v2)
Track 11 accurately ripped (confidence 10) [A6C024A4] (AR v2)
Track 12 accurately ripped (confidence 11) [D520FAFF] (AR v2)
All tracks accurately ripped
End of status report
==== Log checksum D878E404A6D569067D4798BC676A18371C18012C7C9BD5D86AA5C25A85BE72E7 ====

CD13: Lully - Divertissements - CD:61'18

Jean-Baptiste Lully‎
Исполнители:
Guillemette Laurens, tenor
Capriccio Stravagante
Skip Sempé
Треклист:
01-07. Divertissement I
08-10. Divertissement II
11-15. Divertissement III

LOG CD13:

Exact Audio Copy V1.0 beta 3 from 29. August 2011
EAC extraction logfile from 19. February 2015, 11:23
Skip Sempé / Lully - Divertissements
Used drive : HL-DT-STDVDRAM GH24NS95 Adapter: 0 ID: 0
Read mode : Secure
Utilize accurate stream : Yes
Defeat audio cache : Yes
Make use of C2 pointers : No
Read offset correction : 6
Overread into Lead-In and Lead-Out : No
Fill up missing offset samples with silence : Yes
Delete leading and trailing silent blocks : No
Null samples used in CRC calculations : Yes
Used interface : Native Win32 interface for Win NT & 2000
Used output format : User Defined Encoder
Selected bitrate : 128 kBit/s
Quality : High
Add ID3 tag : No
Command line compressor : C:\Program Files (x86)\Exact Audio Copy\Flac\flac.exe
Additional command line options : -V -8 -T "Date=%year%" -T "Genre=%genre%" %source%
TOC of the extracted CD
Track | Start | Length | Start sector | End sector
---------------------------------------------------------
1 | 0:00.00 | 2:26.60 | 0 | 11009
2 | 2:26.60 | 3:50.40 | 11010 | 28299
3 | 6:17.25 | 5:41.45 | 28300 | 53919
4 | 11:58.70 | 1:37.00 | 53920 | 61194
5 | 13:35.70 | 3:48.40 | 61195 | 78334
6 | 17:24.35 | 4:24.32 | 78335 | 98166
7 | 21:48.67 | 2:09.00 | 98167 | 107841
8 | 23:57.67 | 2:27.23 | 107842 | 118889
9 | 26:25.15 | 6:33.02 | 118890 | 148366
10 | 32:58.17 | 7:45.20 | 148367 | 183261
11 | 40:43.37 | 3:01.25 | 183262 | 196861
12 | 43:44.62 | 6:31.48 | 196862 | 226234
13 | 50:16.35 | 5:24.05 | 226235 | 250539
14 | 55:40.40 | 1:30.37 | 250540 | 257326
15 | 57:11.02 | 4:07.73 | 257327 | 275924
Range status and errors
Selected range
Filename C:\Program Files (x86)\Exact Audio Copy\Flac\Lully - Divertissements.wav
Peak level 64.0 %
Extraction speed 7.2 X
Range quality 100.0 %
Test CRC 0065E269
Copy CRC 0065E269
Copy OK
No errors occurred
AccurateRip summary
Track 1 accurately ripped (confidence 11) [FC4FA059] (AR v2)
Track 2 accurately ripped (confidence 11) [48572F77] (AR v2)
Track 3 accurately ripped (confidence 11) [CD8747BF] (AR v2)
Track 4 accurately ripped (confidence 11) [C7242F8A] (AR v2)
Track 5 accurately ripped (confidence 11) [85703D77] (AR v2)
Track 6 accurately ripped (confidence 11) [77EAC657] (AR v2)
Track 7 accurately ripped (confidence 11) [F6E89108] (AR v2)
Track 8 accurately ripped (confidence 11) [4D843597] (AR v2)
Track 9 accurately ripped (confidence 11) [2D49C627] (AR v2)
Track 10 accurately ripped (confidence 11) [54FAEB31] (AR v2)
Track 11 accurately ripped (confidence 11) [95DD5FB0] (AR v2)
Track 12 accurately ripped (confidence 11) [1BB83D42] (AR v2)
Track 13 accurately ripped (confidence 11) [DD53CC95] (AR v2)
Track 14 accurately ripped (confidence 11) [A53D7CC6] (AR v2)
Track 15 accurately ripped (confidence 11) [170E0495] (AR v2)
All tracks accurately ripped
End of status report
==== Log checksum 2B52647615C4AA9DE97EE4246CE68A2244624FFF24C844363B1A1A4817F43D57 ====

CD14: Marais - "Fantaisie Champêtre" Pièces en trio - CD:61'45

Marin Marais
Исполнители:
Ensemble Rebel
Треклист:
01-09. Pièces en trio D major
10-19. Pièces en trio G minor
20-28. Pièces en trio C major

LOG CD14:

Exact Audio Copy V1.0 beta 3 from 29. August 2011
EAC extraction logfile from 19. February 2015, 11:56
Ensemble Rebel / Marais - Fantaisie champetre, Pieces in trio
Used drive : HL-DT-STDVDRAM GH24NS95 Adapter: 0 ID: 0
Read mode : Secure
Utilize accurate stream : Yes
Defeat audio cache : Yes
Make use of C2 pointers : No
Read offset correction : 6
Overread into Lead-In and Lead-Out : No
Fill up missing offset samples with silence : Yes
Delete leading and trailing silent blocks : No
Null samples used in CRC calculations : Yes
Used interface : Native Win32 interface for Win NT & 2000
Used output format : User Defined Encoder
Selected bitrate : 128 kBit/s
Quality : High
Add ID3 tag : No
Command line compressor : C:\Program Files (x86)\Exact Audio Copy\Flac\flac.exe
Additional command line options : -V -8 -T "Date=%year%" -T "Genre=%genre%" %source%
TOC of the extracted CD
Track | Start | Length | Start sector | End sector
---------------------------------------------------------
1 | 0:00.00 | 1:39.72 | 0 | 7496
2 | 1:39.72 | 2:28.65 | 7497 | 18661
3 | 4:08.62 | 0:55.53 | 18662 | 22839
4 | 5:04.40 | 2:14.62 | 22840 | 32951
5 | 7:19.27 | 1:40.23 | 32952 | 40474
6 | 8:59.50 | 0:48.12 | 40475 | 44086
7 | 9:47.62 | 1:20.40 | 44087 | 50126
8 | 11:08.27 | 1:57.38 | 50127 | 58939
9 | 13:05.65 | 4:57.72 | 58940 | 81286
10 | 18:03.62 | 2:16.55 | 81287 | 91541
11 | 20:20.42 | 1:19.18 | 91542 | 97484
12 | 21:39.60 | 2:15.22 | 97485 | 107631
13 | 23:55.07 | 0:50.35 | 107632 | 111416
14 | 24:45.42 | 1:36.03 | 111417 | 118619
15 | 26:21.45 | 0:56.72 | 118620 | 122891
16 | 27:18.42 | 1:04.48 | 122892 | 127739
17 | 28:23.15 | 3:17.35 | 127740 | 142549
18 | 31:40.50 | 6:00.07 | 142550 | 169556
19 | 37:40.57 | 1:35.58 | 169557 | 176739
20 | 39:16.40 | 2:02.10 | 176740 | 185899
21 | 41:18.50 | 2:17.45 | 185900 | 196219
22 | 43:36.20 | 1:26.25 | 196220 | 202694
23 | 45:02.45 | 2:47.57 | 202695 | 215276
24 | 47:50.27 | 0:59.50 | 215277 | 219751
25 | 48:50.02 | 1:25.00 | 219752 | 226126
26 | 50:15.02 | 1:32.13 | 226127 | 233039
27 | 51:47.15 | 1:12.60 | 233040 | 238499
28 | 53:00.00 | 8:44.57 | 238500 | 277856
Range status and errors
Selected range
Filename C:\Program Files (x86)\Exact Audio Copy\Flac\Marais - Fantaisie champetre, Pieces in trio.wav
Peak level 78.8 %
Extraction speed 7.2 X
Range quality 100.0 %
Test CRC 880FFFD3
Copy CRC 880FFFD3
Copy OK
No errors occurred
AccurateRip summary
Track 1 accurately ripped (confidence 14) [4BF545AF] (AR v2)
Track 2 accurately ripped (confidence 14) [E82278D8] (AR v2)
Track 3 accurately ripped (confidence 14) [85E3C914] (AR v2)
Track 4 accurately ripped (confidence 14) [1974C5A5] (AR v2)
Track 5 accurately ripped (confidence 14) [976206E6] (AR v2)
Track 6 accurately ripped (confidence 14) [0DF011E0] (AR v2)
Track 7 accurately ripped (confidence 14) [A0533519] (AR v2)
Track 8 accurately ripped (confidence 14) [67CF5BBF] (AR v2)
Track 9 accurately ripped (confidence 14) [A4EA7EC2] (AR v2)
Track 10 accurately ripped (confidence 14) [09BE79E4] (AR v2)
Track 11 accurately ripped (confidence 14) [CFB5718F] (AR v2)
Track 12 accurately ripped (confidence 14) [60B1B73D] (AR v2)
Track 13 accurately ripped (confidence 14) [80C57D4F] (AR v2)
Track 14 accurately ripped (confidence 14) [1B64A710] (AR v2)
Track 15 accurately ripped (confidence 14) [360EDB5F] (AR v2)
Track 16 accurately ripped (confidence 14) [71DF7F4C] (AR v2)
Track 17 accurately ripped (confidence 14) [B2801460] (AR v2)
Track 18 accurately ripped (confidence 14) [BFB7840B] (AR v2)
Track 19 accurately ripped (confidence 13) [8B222DF0] (AR v2)
Track 20 accurately ripped (confidence 14) [D1FF6AB0] (AR v2)
Track 21 accurately ripped (confidence 14) [CCD029C7] (AR v2)
Track 22 accurately ripped (confidence 14) [A8A5535D] (AR v2)
Track 23 accurately ripped (confidence 14) [73584987] (AR v2)
Track 24 accurately ripped (confidence 14) [0B147050] (AR v2)
Track 25 accurately ripped (confidence 14) [042DB69E] (AR v2)
Track 26 accurately ripped (confidence 14) [DAE83E21] (AR v2)
Track 27 accurately ripped (confidence 14) [4F663FB9] (AR v2)
Track 28 accurately ripped (confidence 14) [2FE0AD28] (AR v2)
All tracks accurately ripped
End of status report
==== Log checksum 239CC9EFE5E560631C1FDA2610C4377E6B3C43D75A732E2494A4AC01B441ABEC ====

CD15-16: Monteverdi - Vespro della beata Vergine - CD1:55'38; CD2:34'37

Claudio Monteverdi
Исполнители:
Cantus Cölln
Konrad Junghänel, Künstlerische Leitung und Laute
Треклист:

LOG CD15:

Exact Audio Copy V1.0 beta 3 from 29. August 2011
EAC extraction logfile from 19. February 2015, 12:19
Cantus Cölln / Monteverdi - Vespro della Beata Vergine CD1
Used drive : HL-DT-STDVDRAM GH24NS95 Adapter: 0 ID: 0
Read mode : Secure
Utilize accurate stream : Yes
Defeat audio cache : Yes
Make use of C2 pointers : No
Read offset correction : 6
Overread into Lead-In and Lead-Out : No
Fill up missing offset samples with silence : Yes
Delete leading and trailing silent blocks : No
Null samples used in CRC calculations : Yes
Used interface : Native Win32 interface for Win NT & 2000
Used output format : User Defined Encoder
Selected bitrate : 128 kBit/s
Quality : High
Add ID3 tag : No
Command line compressor : C:\Program Files (x86)\Exact Audio Copy\Flac\flac.exe
Additional command line options : -V -8 -T "Date=%year%" -T "Genre=%genre%" %source%
TOC of the extracted CD
Track | Start | Length | Start sector | End sector
---------------------------------------------------------
1 | 0:00.00 | 2:15.22 | 0 | 10146
2 | 2:15.22 | 8:10.63 | 10147 | 46959
3 | 10:26.10 | 3:31.20 | 46960 | 62804
4 | 13:57.30 | 6:29.02 | 62805 | 91981
5 | 20:26.32 | 3:49.00 | 91982 | 109156
6 | 24:15.32 | 7:25.68 | 109157 | 142599
7 | 31:41.25 | 5:44.47 | 142600 | 168446
8 | 37:25.72 | 5:05.50 | 168447 | 191371
9 | 42:31.47 | 8:12.23 | 191372 | 228294
10 | 50:43.70 | 4:55.00 | 228295 | 250419
Range status and errors
Selected range
Filename C:\Program Files (x86)\Exact Audio Copy\Flac\Monteverdi - Vespro della Beata Vergine CD1.wav
Peak level 99.9 %
Extraction speed 7.0 X
Range quality 99.9 %
Test CRC F44A3556
Copy CRC F44A3556
Copy OK
No errors occurred
AccurateRip summary
Track 1 accurately ripped (confidence 60) [FAE2A3AF] (AR v2)
Track 2 accurately ripped (confidence 59) [8268D100] (AR v2)
Track 3 accurately ripped (confidence 60) [20F9A732] (AR v2)
Track 4 accurately ripped (confidence 60) [C135BCA7] (AR v2)
Track 5 accurately ripped (confidence 60) [D9C5BB2E] (AR v2)
Track 6 accurately ripped (confidence 60) [001B4906] (AR v2)
Track 7 accurately ripped (confidence 60) [BB980C4A] (AR v2)
Track 8 accurately ripped (confidence 60) [5509EBB1] (AR v2)
Track 9 accurately ripped (confidence 60) [2A54BD29] (AR v2)
Track 10 accurately ripped (confidence 57) [D36DABE0] (AR v2)
All tracks accurately ripped
End of status report
==== Log checksum 1E4C0389A1B569F07C35DA412328D013C8935F43D11B2B1880C214B1CDA11368 ====

LOG CD16:

Exact Audio Copy V1.0 beta 3 from 29. August 2011
EAC extraction logfile from 19. February 2015, 12:39
Cantus Cölln / Monteverdi - Vespro della Beata Vergine CD2
Used drive : HL-DT-STDVDRAM GH24NS95 Adapter: 0 ID: 0
Read mode : Secure
Utilize accurate stream : Yes
Defeat audio cache : Yes
Make use of C2 pointers : No
Read offset correction : 6
Overread into Lead-In and Lead-Out : No
Fill up missing offset samples with silence : Yes
Delete leading and trailing silent blocks : No
Null samples used in CRC calculations : Yes
Used interface : Native Win32 interface for Win NT & 2000
Used output format : User Defined Encoder
Selected bitrate : 128 kBit/s
Quality : High
Add ID3 tag : No
Command line compressor : C:\Program Files (x86)\Exact Audio Copy\Flac\flac.exe
Additional command line options : -V -8 -T "Date=%year%" -T "Genre=%genre%" %source%
TOC of the extracted CD
Track | Start | Length | Start sector | End sector
---------------------------------------------------------
1 | 0:00.00 | 7:09.65 | 0 | 32239
2 | 7:09.65 | 8:56.37 | 32240 | 72476
3 | 16:06.27 | 0:52.23 | 72477 | 76399
4 | 16:58.50 | 1:18.02 | 76400 | 82251
5 | 18:16.52 | 1:47.03 | 82252 | 90279
6 | 20:03.55 | 1:07.45 | 90280 | 95349
7 | 21:11.25 | 2:03.20 | 95350 | 104594
8 | 23:14.45 | 0:57.70 | 104595 | 108939
9 | 24:12.40 | 2:05.70 | 108940 | 118384
10 | 26:18.35 | 1:50.70 | 118385 | 126704
11 | 28:09.30 | 1:22.72 | 126705 | 132926
12 | 29:32.27 | 1:07.65 | 132927 | 138016
13 | 30:40.17 | 2:04.38 | 138017 | 147354
14 | 32:44.55 | 1:54.02 | 147355 | 155906
Range status and errors
Selected range
Filename C:\Program Files (x86)\Exact Audio Copy\Flac\Monteverdi - Vespro della Beata Vergine CD2.wav
Peak level 96.9 %
Extraction speed 6.3 X
Range quality 100.0 %
Test CRC 1D1A54F3
Copy CRC 1D1A54F3
Copy OK
No errors occurred
AccurateRip summary
Track 1 accurately ripped (confidence 62) [69975EC9] (AR v2)
Track 2 accurately ripped (confidence 62) [E1EC0B7E] (AR v2)
Track 3 accurately ripped (confidence 62) [9D12ABD7] (AR v2)
Track 4 accurately ripped (confidence 62) [0599953A] (AR v2)
Track 5 accurately ripped (confidence 62) [6A8D24FA] (AR v2)
Track 6 accurately ripped (confidence 62) [EFC7597E] (AR v2)
Track 7 accurately ripped (confidence 62) [484D0917] (AR v2)
Track 8 accurately ripped (confidence 62) [29F9C47B] (AR v2)
Track 9 accurately ripped (confidence 62) [56B85860] (AR v2)
Track 10 accurately ripped (confidence 62) [F1FDACBD] (AR v2)
Track 11 accurately ripped (confidence 62) [C579D5E4] (AR v2)
Track 12 accurately ripped (confidence 62) [33D23D70] (AR v2)
Track 13 accurately ripped (confidence 62) [9882EF86] (AR v2)
Track 14 accurately ripped (confidence 62) [379B5A6D] (AR v2)
All tracks accurately ripped
End of status report
==== Log checksum ACECF1887ADEACF1C7C114D9016E82D07D5B25B1E761EDE08A26C4C917A8F2A0 ====

CD17: Pergolesi - La Serva Padrona - CD:48'53

Giovanni Battista Pergolesi‎
Исполнители:
Maddalena Bonifaccio, sopran
Siegmund Nimsgern, bass
Collegium Aureum
Треклист:
01-07. Atto Primo
08-13. Atto Secondo

LOG CD17:

Exact Audio Copy V1.0 beta 3 from 29. August 2011
EAC extraction logfile from 19. February 2015, 13:05
Collegium Aureum / Pergolesi - La Serva Padrona
Used drive : HL-DT-STDVDRAM GH24NS95 Adapter: 0 ID: 0
Read mode : Secure
Utilize accurate stream : Yes
Defeat audio cache : Yes
Make use of C2 pointers : No
Read offset correction : 6
Overread into Lead-In and Lead-Out : No
Fill up missing offset samples with silence : Yes
Delete leading and trailing silent blocks : No
Null samples used in CRC calculations : Yes
Used interface : Native Win32 interface for Win NT & 2000
Used output format : User Defined Encoder
Selected bitrate : 128 kBit/s
Quality : High
Add ID3 tag : No
Command line compressor : C:\Program Files (x86)\Exact Audio Copy\Flac\flac.exe
Additional command line options : -V -8 -T "Date=%year%" -T "Genre=%genre%" %source%
TOC of the extracted CD
Track | Start | Length | Start sector | End sector
---------------------------------------------------------
1 | 0:00.00 | 1:44.50 | 0 | 7849
2 | 1:44.50 | 4:02.35 | 7850 | 26034
3 | 5:47.10 | 4:14.70 | 26035 | 45154
4 | 10:02.05 | 1:41.57 | 45155 | 52786
5 | 11:43.62 | 3:37.43 | 52787 | 69104
6 | 15:21.30 | 2:23.62 | 69105 | 79891
7 | 17:45.17 | 4:19.73 | 79892 | 99389
8 | 22:05.15 | 3:48.40 | 99390 | 116529
9 | 25:53.55 | 5:40.45 | 116530 | 142074
10 | 31:34.25 | 2:32.37 | 142075 | 153511
11 | 34:06.62 | 3:48.38 | 153512 | 170649
12 | 37:55.25 | 4:17.17 | 170650 | 189941
13 | 42:12.42 | 6:41.48 | 189942 | 220064
Range status and errors
Selected range
Filename C:\Program Files (x86)\Exact Audio Copy\Flac\Pergolesi - La Serva Padrona.wav
Peak level 90.0 %
Extraction speed 6.7 X
Range quality 99.9 %
Test CRC A305359E
Copy CRC A305359E
Copy OK
No errors occurred
AccurateRip summary
Track 1 accurately ripped (confidence 10) [4C06A073] (AR v2)
Track 2 accurately ripped (confidence 10) [24F2D6D6] (AR v2)
Track 3 accurately ripped (confidence 10) [686F76C9] (AR v2)
Track 4 accurately ripped (confidence 10) [C83E1848] (AR v2)
Track 5 accurately ripped (confidence 10) [B36B6584] (AR v2)
Track 6 accurately ripped (confidence 10) [D215B137] (AR v2)
Track 7 accurately ripped (confidence 10) [4DD2146D] (AR v2)
Track 8 accurately ripped (confidence 10) [F8013753] (AR v2)
Track 9 accurately ripped (confidence 10) [85C21870] (AR v2)
Track 10 accurately ripped (confidence 10) [B7992169] (AR v2)
Track 11 accurately ripped (confidence 10) [0EB6CF74] (AR v2)
Track 12 accurately ripped (confidence 10) [03982BDE] (AR v2)
Track 13 accurately ripped (confidence 10) [6CE8D813] (AR v2)
All tracks accurately ripped
End of status report
==== Log checksum 1A3B84BB3219FFF75A749D3DC2883E47D882DB325CFAC6DFE6D8C6DC6B565EB8 ====

CD18: Rameau - Suite pour Orchestre "Hippolyte et Aricie" - CD:51'39

Jean-Philippe Rameau‎
Исполнители:
Le Petite Bande
Sigiswald Kuijken, Direction
Треклист:
01-27. Suite pour Orchestre "Hippolyte et Aricie"

LOG CD18:

Exact Audio Copy V1.0 beta 3 from 29. August 2011
EAC extraction logfile from 19. February 2015, 14:20
Sigiswald Kuijken - Le Petite Bande / Rameau - Suite pour orchestre de Hippolyte et Aricie
Used drive : HL-DT-STDVDRAM GH24NS95 Adapter: 0 ID: 0
Read mode : Secure
Utilize accurate stream : Yes
Defeat audio cache : Yes
Make use of C2 pointers : No
Read offset correction : 6
Overread into Lead-In and Lead-Out : No
Fill up missing offset samples with silence : Yes
Delete leading and trailing silent blocks : No
Null samples used in CRC calculations : Yes
Used interface : Native Win32 interface for Win NT & 2000
Used output format : User Defined Encoder
Selected bitrate : 128 kBit/s
Quality : High
Add ID3 tag : No
Command line compressor : C:\Program Files (x86)\Exact Audio Copy\Flac\flac.exe
Additional command line options : -V -8 -T "Date=%year%" -T "Genre=%genre%" %source%
TOC of the extracted CD
Track | Start | Length | Start sector | End sector
---------------------------------------------------------
1 | 0:00.37 | 3:07.58 | 37 | 14119
2 | 3:08.20 | 1:48.05 | 14120 | 22224
3 | 4:56.25 | 2:22.12 | 22225 | 32886
4 | 7:18.37 | 1:50.23 | 32887 | 41159
5 | 9:08.60 | 2:37.37 | 41160 | 52971
6 | 11:46.22 | 1:56.70 | 52972 | 61741
7 | 13:43.17 | 1:05.48 | 61742 | 66664
8 | 14:48.65 | 2:00.70 | 66665 | 75734
9 | 16:49.60 | 2:08.45 | 75735 | 85379
10 | 18:58.30 | 1:46.12 | 85380 | 93341
11 | 20:44.42 | 1:16.63 | 93342 | 99104
12 | 22:01.30 | 1:40.60 | 99105 | 106664
13 | 23:42.15 | 1:43.72 | 106665 | 114461
14 | 25:26.12 | 2:10.25 | 114462 | 124236
15 | 27:36.37 | 2:05.23 | 124237 | 133634
16 | 29:41.60 | 1:20.70 | 133635 | 139704
17 | 31:02.55 | 1:39.17 | 139705 | 147146
18 | 32:41.72 | 0:43.25 | 147147 | 150396
19 | 33:25.22 | 2:00.33 | 150397 | 159429
20 | 35:25.55 | 1:55.45 | 159430 | 168099
21 | 37:21.25 | 1:06.57 | 168100 | 173106
22 | 38:28.07 | 3:04.03 | 173107 | 186909
23 | 41:32.10 | 2:50.50 | 186910 | 199709
24 | 44:22.60 | 0:46.10 | 199710 | 203169
25 | 45:08.70 | 1:03.22 | 203170 | 207916
26 | 46:12.17 | 3:20.70 | 207917 | 222986
27 | 49:33.12 | 2:06.35 | 222987 | 232471
Range status and errors
Selected range
Filename C:\Program Files (x86)\Exact Audio Copy\Flac\Rameau - Suite pour orchestre de Hippolyte et Aricie.wav
Peak level 94.7 %
Extraction speed 1.7 X
Range quality 100.0 %
Test CRC D7F3E803
Copy CRC D7F3E803
Copy OK
No errors occurred
AccurateRip summary
Track 1 accurately ripped (confidence 60) [E0A68643] (AR v2)
Track 2 accurately ripped (confidence 60) [04B7A960] (AR v2)
Track 3 accurately ripped (confidence 60) [0CFE0515] (AR v2)
Track 4 accurately ripped (confidence 60) [32690CEB] (AR v2)
Track 5 accurately ripped (confidence 59) [75AAC2EE] (AR v2)
Track 6 accurately ripped (confidence 59) [92B32252] (AR v2)
Track 7 accurately ripped (confidence 59) [2CB3E3FB] (AR v2)
Track 8 accurately ripped (confidence 59) [B43BD490] (AR v2)
Track 9 accurately ripped (confidence 59) [5A4665BC] (AR v2)
Track 10 accurately ripped (confidence 59) [BC037E05] (AR v2)
Track 11 accurately ripped (confidence 59) [4B10BE18] (AR v2)
Track 12 accurately ripped (confidence 59) [B13A37B4] (AR v2)
Track 13 accurately ripped (confidence 59) [32BA4E4C] (AR v2)
Track 14 accurately ripped (confidence 58) [55BDC86C] (AR v2)
Track 15 accurately ripped (confidence 59) [400D58A2] (AR v2)
Track 16 accurately ripped (confidence 59) [19B01B06] (AR v2)
Track 17 accurately ripped (confidence 59) [A7AEAA65] (AR v2)
Track 18 accurately ripped (confidence 59) [9705FFBC] (AR v2)
Track 19 accurately ripped (confidence 59) [578E8360] (AR v2)
Track 20 accurately ripped (confidence 59) [4172DE05] (AR v2)
Track 21 accurately ripped (confidence 59) [E96D75DB] (AR v2)
Track 22 accurately ripped (confidence 59) [0D789401] (AR v2)
Track 23 accurately ripped (confidence 59) [C5F0D7FA] (AR v2)
Track 24 accurately ripped (confidence 59) [838E5861] (AR v2)
Track 25 accurately ripped (confidence 59) [EA295AA9] (AR v2)
Track 26 accurately ripped (confidence 59) [DD457AE4] (AR v2)
Track 27 accurately ripped (confidence 59) [00F4989D] (AR v2)
All tracks accurately ripped
End of status report
==== Log checksum 3140C00E4E6337726339F150BDB335989A9B5E13184DBE9CEF80314B754CD06F ====

CD19: Sainte-Colombe - Pièces pour viole de gambe - CD:68'38

Monsieur de Sainte-Colombe
Исполнители:
Hille Perl, viole de gambe
Треклист:
01-11. Pièces pour viole de gambe

LOG CD19:

Exact Audio Copy V1.0 beta 3 from 29. August 2011
EAC extraction logfile from 19. February 2015, 14:47
Hille Perl / Sainte Colombe - Pieces pour viole de gambe
Used drive : HL-DT-STDVDRAM GH24NS95 Adapter: 0 ID: 0
Read mode : Secure
Utilize accurate stream : Yes
Defeat audio cache : Yes
Make use of C2 pointers : No
Read offset correction : 6
Overread into Lead-In and Lead-Out : No
Fill up missing offset samples with silence : Yes
Delete leading and trailing silent blocks : No
Null samples used in CRC calculations : Yes
Used interface : Native Win32 interface for Win NT & 2000
Used output format : User Defined Encoder
Selected bitrate : 128 kBit/s
Quality : High
Add ID3 tag : No
Command line compressor : C:\Program Files (x86)\Exact Audio Copy\Flac\flac.exe
Additional command line options : -V -8 -T "Date=%year%" -T "Genre=%genre%" %source%
TOC of the extracted CD
Track | Start | Length | Start sector | End sector
---------------------------------------------------------
1 | 0:00.00 | 1:36.10 | 0 | 7209
2 | 1:36.10 | 9:44.20 | 7210 | 51029
3 | 11:20.30 | 6:07.05 | 51030 | 78559
4 | 17:27.35 | 11:57.35 | 78560 | 132369
5 | 29:24.70 | 9:19.10 | 132370 | 174304
6 | 38:44.05 | 8:51.25 | 174305 | 214154
7 | 47:35.30 | 4:50.00 | 214155 | 235904
8 | 52:25.30 | 4:31.52 | 235905 | 256281
9 | 56:57.07 | 2:50.05 | 256282 | 269036
10 | 59:47.12 | 3:09.50 | 269037 | 283261
11 | 62:56.62 | 5:41.53 | 283262 | 308889
Range status and errors
Selected range
Filename C:\Program Files (x86)\Exact Audio Copy\Flac\Sainte Colombe - Pieces pour viole de gambe.wav
Peak level 50.7 %
Extraction speed 7.4 X
Range quality 100.0 %
Test CRC 28C09255
Copy CRC 28C09255
Copy OK
No errors occurred
AccurateRip summary
Track 1 accurately ripped (confidence 10) [5064A24E] (AR v2)
Track 2 accurately ripped (confidence 10) [8448D83D] (AR v2)
Track 3 accurately ripped (confidence 10) [7C614211] (AR v2)
Track 4 accurately ripped (confidence 10) [1D1F6E0B] (AR v2)
Track 5 accurately ripped (confidence 10) [962B7F97] (AR v2)
Track 6 accurately ripped (confidence 10) [1CF9C4D1] (AR v2)
Track 7 accurately ripped (confidence 10) [C780447B] (AR v2)
Track 8 accurately ripped (confidence 10) [6E3D496B] (AR v2)
Track 9 accurately ripped (confidence 10) [F63912B0] (AR v2)
Track 10 accurately ripped (confidence 10) [90612F32] (AR v2)
Track 11 accurately ripped (confidence 10) [223C6D27] (AR v2)
All tracks accurately ripped
End of status report
==== Log checksum 2BD69C4FDA662B2C881F971DF225F3F3E50C1AD5073968BFE9FE243988C7CF8A ====

CD20: Scarlatti - Passio Secundum Ioannem - CD:54'36

Alessandro Scarlatti‎
Исполнители:
René Jacobs - Testo
Kurt Widmer - Christus
Graham Pushee - Pilatus
Die Basler Madrigalisten
Schola Cantorum Basiliensis
Треклист:
01-16. Passio Secundum Ioannem

LOG CD20:

Exact Audio Copy V1.0 beta 3 from 29. August 2011
EAC extraction logfile from 19. February 2015, 15:56
Schola Cantorum Basiliensis / Scarlatti Alessandro - Passio Secundum Ioannem
Used drive : HL-DT-STDVDRAM GH24NS95 Adapter: 0 ID: 0
Read mode : Secure
Utilize accurate stream : Yes
Defeat audio cache : Yes
Make use of C2 pointers : No
Read offset correction : 6
Overread into Lead-In and Lead-Out : No
Fill up missing offset samples with silence : Yes
Delete leading and trailing silent blocks : No
Null samples used in CRC calculations : Yes
Used interface : Native Win32 interface for Win NT & 2000
Used output format : User Defined Encoder
Selected bitrate : 128 kBit/s
Quality : High
Add ID3 tag : No
Command line compressor : C:\Program Files (x86)\Exact Audio Copy\Flac\flac.exe
Additional command line options : -V -8 -T "Date=%year%" -T "Genre=%genre%" %source%
TOC of the extracted CD
Track | Start | Length | Start sector | End sector
---------------------------------------------------------
1 | 0:00.33 | 2:40.20 | 33 | 12052
2 | 2:40.53 | 1:08.60 | 12053 | 17212
3 | 3:49.38 | 5:26.37 | 17213 | 41699
4 | 9:16.00 | 1:26.23 | 41700 | 48172
5 | 10:42.23 | 2:26.22 | 48173 | 59144
6 | 13:08.45 | 3:53.68 | 59145 | 76687
7 | 17:02.38 | 1:43.50 | 76688 | 84462
8 | 18:46.13 | 3:03.10 | 84463 | 98197
9 | 21:49.23 | 5:18.17 | 98198 | 122064
10 | 27:07.40 | 1:23.55 | 122065 | 128344
11 | 28:31.20 | 7:09.50 | 128345 | 160569
12 | 35:40.70 | 3:05.03 | 160570 | 174447
13 | 38:45.73 | 5:29.30 | 174448 | 199152
14 | 44:15.28 | 2:23.67 | 199153 | 209944
15 | 46:39.20 | 3:20.15 | 209945 | 224959
16 | 49:59.35 | 4:36.35 | 224960 | 245694
Range status and errors
Selected range
Filename C:\Program Files (x86)\Exact Audio Copy\Flac\Scarlatti Alessandro - Passio Secundum Ioannem.wav
Peak level 100.0 %
Extraction speed 1.7 X
Range quality 100.0 %
Test CRC 876200B3
Copy CRC 876200B3
Copy OK
No errors occurred
AccurateRip summary
Track 1 accurately ripped (confidence 16) [CB298D4E] (AR v2)
Track 2 accurately ripped (confidence 16) [503F01DD] (AR v2)
Track 3 accurately ripped (confidence 16) [6A50935A] (AR v2)
Track 4 accurately ripped (confidence 16) [CDB18D04] (AR v2)
Track 5 accurately ripped (confidence 16) [D2174A8C] (AR v2)
Track 6 accurately ripped (confidence 16) [19EA3B51] (AR v2)
Track 7 accurately ripped (confidence 16) [5A7A9E6A] (AR v2)
Track 8 accurately ripped (confidence 16) [8E612681] (AR v2)
Track 9 accurately ripped (confidence 15) [0C77DFC1] (AR v2)
Track 10 accurately ripped (confidence 16) [DDFEC8B9] (AR v2)
Track 11 accurately ripped (confidence 16) [86502E42] (AR v2)
Track 12 accurately ripped (confidence 16) [2E41DA20] (AR v2)
Track 13 accurately ripped (confidence 16) [12D7B90A] (AR v2)
Track 14 accurately ripped (confidence 16) [54A2891A] (AR v2)
Track 15 accurately ripped (confidence 16) [64521EBA] (AR v2)
Track 16 accurately ripped (confidence 16) [808C603C] (AR v2)
All tracks accurately ripped
End of status report
==== Log checksum 4FD91327E2E6CA7178CDF139F7D8B4CCAAD5E6D23171734394CDBE4AB4FE9896 ====

CD21: Telemann - Konzerte fur Holzblasinstrumente - CD:62'29

Georg Philipp Telemann
Исполнители:
Camerata Köln
flûtes
Треклист:
01-04. Concerto for recorder, flute, strings & b.c. in E minor
05-08. Concerto for violin, oboe, strings & b.c. in C minor
09-12. Concerto for 2 recorders, strings & b.c. in A minor
13-15. Concerto for flute, strings & b.c. in B minor
16-18. Concerto for 2 oboes d'amore, cello, strings & b.c. in D major
19-22. Concerto for 2 flutes, oboe, violin, strings & b.c. in B flat major

LOG CD21:

Exact Audio Copy V1.0 beta 3 from 29. August 2011
EAC extraction logfile from 20. February 2015, 14:03
Camerata Koln / Telemann - Concertos for woodwind instruments
Used drive : HL-DT-STDVDRAM GH24NS95 Adapter: 0 ID: 0
Read mode : Secure
Utilize accurate stream : Yes
Defeat audio cache : Yes
Make use of C2 pointers : No
Read offset correction : 6
Overread into Lead-In and Lead-Out : No
Fill up missing offset samples with silence : Yes
Delete leading and trailing silent blocks : No
Null samples used in CRC calculations : Yes
Used interface : Native Win32 interface for Win NT & 2000
Used output format : User Defined Encoder
Selected bitrate : 128 kBit/s
Quality : High
Add ID3 tag : No
Command line compressor : C:\Program Files (x86)\Exact Audio Copy\Flac\flac.exe
Additional command line options : -V -8 -T "Date=%year%" -T "Genre=%genre%" %source%
TOC of the extracted CD
Track | Start | Length | Start sector | End sector
---------------------------------------------------------
1 | 0:00.00 | 3:42.62 | 0 | 16711
2 | 3:42.62 | 3:57.20 | 16712 | 34506
3 | 7:40.07 | 3:34.13 | 34507 | 50569
4 | 11:14.20 | 2:26.15 | 50570 | 61534
5 | 13:40.35 | 2:22.37 | 61535 | 72221
6 | 16:02.72 | 1:43.43 | 72222 | 79989
7 | 17:46.40 | 1:14.07 | 79990 | 85546
8 | 19:00.47 | 1:46.03 | 85547 | 93499
9 | 20:46.50 | 2:25.37 | 93500 | 104411
10 | 23:12.12 | 1:16.00 | 104412 | 110111
11 | 24:28.12 | 2:00.30 | 110112 | 119141
12 | 26:28.42 | 2:26.40 | 119142 | 130131
13 | 28:55.07 | 5:27.43 | 130132 | 154699
14 | 34:22.50 | 3:33.05 | 154700 | 170679
15 | 37:55.55 | 3:56.45 | 170680 | 188424
16 | 41:52.25 | 3:41.50 | 188425 | 205049
17 | 45:34.00 | 2:23.40 | 205050 | 215814
18 | 47:57.40 | 2:28.27 | 215815 | 226941
19 | 50:25.67 | 1:55.63 | 226942 | 235629
20 | 52:21.55 | 2:48.42 | 235630 | 248271
21 | 55:10.22 | 4:31.18 | 248272 | 268614
22 | 59:41.40 | 2:48.67 | 268615 | 281281
Range status and errors
Selected range
Filename C:\Program Files (x86)\Exact Audio Copy\Flac\Telemann - Concertos for woodwind instruments.wav
Peak level 92.6 %
Extraction speed 7.3 X
Range quality 100.0 %
Test CRC E54939BF
Copy CRC E54939BF
Copy OK
No errors occurred
AccurateRip summary
Track 1 accurately ripped (confidence 15) [B1302A01] (AR v2)
Track 2 accurately ripped (confidence 15) [E167A013] (AR v2)
Track 3 accurately ripped (confidence 14) [C79C6E0D] (AR v2)
Track 4 accurately ripped (confidence 15) [74D4F19E] (AR v2)
Track 5 accurately ripped (confidence 15) [C36C3CC4] (AR v2)
Track 6 accurately ripped (confidence 15) [E892CB03] (AR v2)
Track 7 accurately ripped (confidence 15) [527C9BB6] (AR v2)
Track 8 accurately ripped (confidence 15) [8FF5AC32] (AR v2)
Track 9 accurately ripped (confidence 14) [D9725E48] (AR v2)
Track 10 accurately ripped (confidence 14) [39A2DF57] (AR v2)
Track 11 accurately ripped (confidence 14) [43A4BFC2] (AR v2)
Track 12 accurately ripped (confidence 14) [9F8F05A6] (AR v2)
Track 13 accurately ripped (confidence 14) [A70ED034] (AR v2)
Track 14 accurately ripped (confidence 14) [27958FA5] (AR v2)
Track 15 accurately ripped (confidence 14) [757C8124] (AR v2)
Track 16 accurately ripped (confidence 14) [6A1ADD19] (AR v2)
Track 17 accurately ripped (confidence 14) [E088E5B5] (AR v2)
Track 18 accurately ripped (confidence 14) [AA86E0FC] (AR v2)
Track 19 accurately ripped (confidence 14) [30A13AFE] (AR v2)
Track 20 accurately ripped (confidence 14) [01B88B7D] (AR v2)
Track 21 accurately ripped (confidence 14) [0B5752E1] (AR v2)
Track 22 accurately ripped (confidence 14) [1D99B49E] (AR v2)
All tracks accurately ripped
End of status report
==== Log checksum 3A6C3A634438DE00F9D36BC8100E0F2A36E0BB65908D6ACB9C2F4CF63A3EBC2F ====

CD22: The Violoncello in the 17th Century - CD:67'46

Girolamo Frescobaldi‎
Giovanni Gabrieli‎
Giuseppe Maria Jacchini‎
Degli Antonii‎
Исполнители:
Anner Bylsma, Violoncello
Lidewy Scheifes, Violoncello
Bob Van Asperen, Orgel und Cembalo
Треклист:
01. Frescobaldi - Canzone XVI, a-Moll
02. Frescobaldi - Canzone VIII, g-Moll
03. Frescobaldi - Canzone XV, F-Dur
04. Gabrielli - Ricercar V, C-Dur
05. Gabrielli - Canon a due Violoncelli, D-Dur
06. Gabrielli - Ricercar I, g-Moll
07. Gabrielli - Sonata, G-Dur
08. Gabrielli - Ricercar IV, Es-Dur
09. Jacchini - Sonata, C-Dur
10. Gabrielli - Ricercar II, a-Moll
11. Jacchini - Sonata, a-Moll op.18
12. Gabrielli - Ricercar III, D-Dur
13. Gabrielli - Sonata, A-Dur
14. Degli Antonii - Ricercar III, F-Dur
15. Degli Antonii - Ricercar X, g-Moll
16. Jacchini - Sonata, G-Dur
17. Gabrielli - Ricercar VI, G-Dur
18. Gabrielli - Ricercar VII, d-Moll
19. Jacchini - Gigue 'La Milordine'

LOG CD22:

Exact Audio Copy V1.0 beta 3 from 29. August 2011
EAC extraction logfile from 20. February 2015, 18:15
Anner Bylsma / The Violoncello in the 17th Century
Used drive : HL-DT-STDVDRAM GH24NS95 Adapter: 0 ID: 0
Read mode : Secure
Utilize accurate stream : Yes
Defeat audio cache : Yes
Make use of C2 pointers : No
Read offset correction : 6
Overread into Lead-In and Lead-Out : No
Fill up missing offset samples with silence : Yes
Delete leading and trailing silent blocks : No
Null samples used in CRC calculations : Yes
Used interface : Native Win32 interface for Win NT & 2000
Used output format : User Defined Encoder
Selected bitrate : 128 kBit/s
Quality : High
Add ID3 tag : No
Command line compressor : C:\Program Files (x86)\Exact Audio Copy\Flac\flac.exe
Additional command line options : -V -8 -T "Date=%year%" -T "Genre=%genre%" %source%
TOC of the extracted CD
Track | Start | Length | Start sector | End sector
---------------------------------------------------------
1 | 0:00.33 | 2:15.62 | 33 | 10219
2 | 2:16.20 | 2:58.00 | 10220 | 23569
3 | 5:14.20 | 3:01.00 | 23570 | 37144
4 | 8:15.20 | 1:47.00 | 37145 | 45169
5 | 10:02.20 | 2:03.00 | 45170 | 54394
6 | 12:05.20 | 1:30.00 | 54395 | 61144
7 | 13:35.20 | 5:27.00 | 61145 | 85669
8 | 19:02.20 | 3:57.00 | 85670 | 103444
9 | 22:59.20 | 3:59.00 | 103445 | 121369
10 | 26:58.20 | 8:42.00 | 121370 | 160519
11 | 35:40.20 | 2:43.00 | 160520 | 172744
12 | 38:23.20 | 3:20.00 | 172745 | 187744
13 | 41:43.20 | 4:48.00 | 187745 | 209344
14 | 46:31.20 | 2:20.00 | 209345 | 219844
15 | 48:51.20 | 3:35.00 | 219845 | 235969
16 | 52:26.20 | 3:34.00 | 235970 | 252019
17 | 56:00.20 | 3:42.00 | 252020 | 268669
18 | 59:42.20 | 4:55.00 | 268670 | 290794
19 | 64:37.20 | 3:10.20 | 290795 | 305064
Range status and errors
Selected range
Filename C:\Program Files (x86)\Exact Audio Copy\Flac\The Violoncello in the 17th Century.wav
Peak level 100.0 %
Extraction speed 1.8 X
Range quality 100.0 %
Test CRC ABE3730A
Copy CRC ABE3730A
Copy OK
No errors occurred
AccurateRip summary
Track 1 accurately ripped (confidence 12) [866E6851] (AR v2)
Track 2 accurately ripped (confidence 12) [EA12F92D] (AR v2)
Track 3 accurately ripped (confidence 12) [ACDF318B] (AR v2)
Track 4 accurately ripped (confidence 12) [6666F634] (AR v2)
Track 5 accurately ripped (confidence 11) [E3AF00EA] (AR v2)
Track 6 accurately ripped (confidence 12) [3B768C78] (AR v2)
Track 7 accurately ripped (confidence 12) [E92343C2] (AR v2)
Track 8 accurately ripped (confidence 12) [0B281887] (AR v2)
Track 9 accurately ripped (confidence 12) [D2EEE886] (AR v2)
Track 10 accurately ripped (confidence 12) [3AF08E1A] (AR v2)
Track 11 accurately ripped (confidence 12) [88823926] (AR v2)
Track 12 accurately ripped (confidence 12) [28E23CEE] (AR v2)
Track 13 accurately ripped (confidence 12) [334FF2C4] (AR v2)
Track 14 accurately ripped (confidence 12) [0F01A143] (AR v2)
Track 15 accurately ripped (confidence 12) [7E0512F2] (AR v2)
Track 16 accurately ripped (confidence 11) [78C5FEA1] (AR v2)
Track 17 accurately ripped (confidence 12) [802C3A51] (AR v2)
Track 18 accurately ripped (confidence 12) [717680AB] (AR v2)
Track 19 accurately ripped (confidence 12) [5DBABF82] (AR v2)
All tracks accurately ripped
End of status report
==== Log checksum B71D3197532A25375DF041E48F94DE4345D8E02996B6D9FDBC33E65E9C1B4824 ====

CD23: Vivaldi - Sinfonie "Avanti l'opera" e Concerti - CD:68'27

Antonio Lucio Vivaldi‎
Исполнители:
Federico Guglielmo, violin
L'Arte dell'Arco
Christhpher Hogwood
Треклист:
01-03. Il Bajazet (Tamerlano) - Sinfonia in F major RV 703
04-07. L'Olimpiade - Sinfonia in C major RV 725
08-10. La verita in cimento - Sinfonia in G major RV 739
11-13. Violin Concerto in C minor 'Amato bene' RV 761
14-15. Ottone in villa - Sinfonia in C major RV 729
16-18. Concerto in F major RV 571
19-21. La Dorilla - Sinfonia in C major RV 709
22. Farnace - Sinfonia in C major RV 711
23-25. Sinfonia in G major RV 149
26-28. Concerto in D minor RV 128
29-31. Il Giustino - Sinfonia in C major RV 717

LOG CD23:

Exact Audio Copy V1.0 beta 3 from 29. August 2011
EAC extraction logfile from 20. February 2015, 19:23
Christhpher Hogwood / Vivaldi - Sinfonie 'Avanti l'opera' e Concerti
Used drive : HL-DT-STDVDRAM GH24NS95 Adapter: 0 ID: 0
Read mode : Secure
Utilize accurate stream : Yes
Defeat audio cache : Yes
Make use of C2 pointers : No
Read offset correction : 6
Overread into Lead-In and Lead-Out : No
Fill up missing offset samples with silence : Yes
Delete leading and trailing silent blocks : No
Null samples used in CRC calculations : Yes
Used interface : Native Win32 interface for Win NT & 2000
Used output format : User Defined Encoder
Selected bitrate : 128 kBit/s
Quality : High
Add ID3 tag : No
Command line compressor : C:\Program Files (x86)\Exact Audio Copy\Flac\flac.exe
Additional command line options : -V -8 -T "Date=%year%" -T "Genre=%genre%" %source%
TOC of the extracted CD
Track | Start | Length | Start sector | End sector
---------------------------------------------------------
1 | 0:00.00 | 2:40.07 | 0 | 12006
2 | 2:40.07 | 2:35.29 | 12007 | 23660
3 | 5:15.36 | 1:08.57 | 23661 | 28817
4 | 6:24.18 | 2:11.38 | 28818 | 38680
5 | 8:35.56 | 2:24.74 | 38681 | 49554
6 | 11:00.55 | 1:17.19 | 49555 | 55348
7 | 12:17.74 | 1:16.72 | 55349 | 61120
8 | 13:34.71 | 1:55.67 | 61121 | 69812
9 | 15:30.63 | 2:28.62 | 69813 | 80974
10 | 17:59.50 | 1:15.42 | 80975 | 86641
11 | 19:15.17 | 3:51.27 | 86642 | 103993
12 | 23:06.44 | 2:22.55 | 103994 | 114698
13 | 25:29.24 | 3:30.03 | 114699 | 130451
14 | 28:59.27 | 2:52.29 | 130452 | 143380
15 | 31:51.56 | 2:08.25 | 143381 | 153005
16 | 34:00.06 | 4:01.17 | 153006 | 171097
17 | 38:01.23 | 2:04.08 | 171098 | 180405
18 | 40:05.31 | 3:34.71 | 180406 | 196526
19 | 43:40.27 | 1:59.04 | 196527 | 205455
20 | 45:39.31 | 2:05.62 | 205456 | 214892
21 | 47:45.18 | 0:42.16 | 214893 | 218058
22 | 48:27.34 | 1:50.58 | 218059 | 226366
23 | 50:18.17 | 1:49.64 | 226367 | 234605
24 | 52:08.06 | 1:47.73 | 234606 | 242703
25 | 53:56.04 | 2:53.29 | 242704 | 255707
26 | 56:49.33 | 2:38.19 | 255708 | 267576
27 | 59:27.52 | 0:49.53 | 267577 | 271304
28 | 60:17.30 | 1:34.33 | 271305 | 278387
29 | 61:51.63 | 2:30.14 | 278388 | 289651
30 | 64:22.02 | 3:18.47 | 289652 | 304548
31 | 67:40.49 | 0:46.37 | 304549 | 308035
Range status and errors
Selected range
Filename C:\Program Files (x86)\Exact Audio Copy\Flac\Vivaldi - Sinfonie 'Avanti l'opera' e Concerti.wav
Peak level 93.4 %
Extraction speed 3.0 X
Range quality 99.9 %
Test CRC B048682A
Copy CRC B048682A
Copy OK
No errors occurred
AccurateRip summary
Track 1 accurately ripped (confidence 57) [74AF5A5B] (AR v2)
Track 2 accurately ripped (confidence 58) [1FD6C094] (AR v2)
Track 3 accurately ripped (confidence 58) [C62B9C18] (AR v2)
Track 4 accurately ripped (confidence 58) [DBE28CED] (AR v2)
Track 5 accurately ripped (confidence 58) [289C7FC6] (AR v2)
Track 6 accurately ripped (confidence 58) [5C08EC82] (AR v2)
Track 7 accurately ripped (confidence 58) [54C5A4D4] (AR v2)
Track 8 accurately ripped (confidence 51) [43D49460] (AR v2)
Track 9 accurately ripped (confidence 58) [232B6BE0] (AR v2)
Track 10 accurately ripped (confidence 58) [31665ECF] (AR v2)
Track 11 accurately ripped (confidence 57) [6751475B] (AR v2)
Track 12 accurately ripped (confidence 58) [D179A773] (AR v2)
Track 13 accurately ripped (confidence 58) [37E7C368] (AR v2)
Track 14 accurately ripped (confidence 58) [01C01AB6] (AR v2)
Track 15 accurately ripped (confidence 58) [9E0C74A4] (AR v2)
Track 16 accurately ripped (confidence 58) [816B479B] (AR v2)
Track 17 accurately ripped (confidence 58) [E87ED7CF] (AR v2)
Track 18 accurately ripped (confidence 57) [00F2359E] (AR v2)
Track 19 accurately ripped (confidence 58) [D52048A5] (AR v2)
Track 20 accurately ripped (confidence 58) [B665DF90] (AR v2)
Track 21 accurately ripped (confidence 58) [4380635C] (AR v2)
Track 22 accurately ripped (confidence 58) [49828779] (AR v2)
Track 23 accurately ripped (confidence 58) [D5254EA8] (AR v2)
Track 24 accurately ripped (confidence 58) [36A98CC1] (AR v2)
Track 25 accurately ripped (confidence 57) [9AB37145] (AR v2)
Track 26 accurately ripped (confidence 58) [0C088074] (AR v2)
Track 27 accurately ripped (confidence 58) [01748863] (AR v2)
Track 28 accurately ripped (confidence 58) [7ED69FB1] (AR v2)
Track 29 accurately ripped (confidence 58) [6C66DFE9] (AR v2)
Track 30 accurately ripped (confidence 58) [D04644D2] (AR v2)
Track 31 accurately ripped (confidence 58) [AB4308ED] (AR v2)
All tracks accurately ripped
End of status report
==== Log checksum ABE53587A99D6AF622D9A084535A6F22CBF6361A69BE3EB3BFBB4EA308C43465 ====

CD24: Vivaldi - Le Quattro Stagione - CD:66'02

Antonio Lucio Vivaldi‎
Исполнители:
Freiburger Barockorchester
Gottfried von der Goltz
The Harp Consort
Andrew Lawrence-King
Треклист:
01-03. Concerto No.1 E-Dur, RV269 'La Primavera'
04-06. Concerto No.2 G-Moll, RV315 'L'Estate'
07-09. Concerto No.3 F-Dur, RV293 'L'Autunno'
10-12. Concerto No.4 F-Moll, RV297 'L'Inverno'
13-15. Concerto No.6 C-Dur, RV180 'l Piacere'
16-18. Concerto No.5 Es-Dur, RV253 'La tempesta di mare'
19-22. Sonetti dimostrativi delle 'Quattro Stagioni'

LOG CD24:

Exact Audio Copy V1.0 beta 3 from 29. August 2011
EAC extraction logfile from 21. February 2015, 11:34
Freiburger Barockorchester / Vivaldi - Le Quattro Stagione
Used drive : HL-DT-STDVDRAM GH24NS95 Adapter: 0 ID: 0
Read mode : Secure
Utilize accurate stream : Yes
Defeat audio cache : Yes
Make use of C2 pointers : No
Read offset correction : 6
Overread into Lead-In and Lead-Out : No
Fill up missing offset samples with silence : Yes
Delete leading and trailing silent blocks : No
Null samples used in CRC calculations : Yes
Used interface : Native Win32 interface for Win NT & 2000
Used output format : User Defined Encoder
Selected bitrate : 128 kBit/s
Quality : High
Add ID3 tag : No
Command line compressor : C:\Program Files (x86)\Exact Audio Copy\Flac\flac.exe
Additional command line options : -V -8 -T "Date=%year%" -T "Genre=%genre%" %source%
TOC of the extracted CD
Track | Start | Length | Start sector | End sector
---------------------------------------------------------
1 | 0:00.32 | 3:29.58 | 32 | 15764
2 | 3:30.15 | 2:16.07 | 15765 | 25971
3 | 5:46.22 | 3:49.08 | 25972 | 43154
4 | 9:35.30 | 6:24.27 | 43155 | 71981
5 | 15:59.57 | 3:02.60 | 71982 | 85691
6 | 19:02.42 | 2:52.55 | 85692 | 98646
7 | 21:55.22 | 5:21.20 | 98647 | 122741
8 | 27:16.42 | 4:19.45 | 122742 | 142211
9 | 31:36.12 | 3:28.35 | 142212 | 157846
10 | 35:04.47 | 3:26.25 | 157847 | 173321
11 | 38:30.72 | 1:54.50 | 173322 | 181921
12 | 40:25.47 | 3:12.18 | 181922 | 196339
13 | 43:37.65 | 2:59.52 | 196340 | 209816
14 | 46:37.42 | 2:38.20 | 209817 | 221686
15 | 49:15.62 | 2:54.60 | 221687 | 234796
16 | 52:10.47 | 2:50.25 | 234797 | 247571
17 | 55:00.72 | 2:52.03 | 247572 | 260474
18 | 57:53.00 | 3:41.07 | 260475 | 277056
19 | 61:34.07 | 1:07.25 | 277057 | 282106
20 | 62:41.32 | 1:11.50 | 282107 | 287481
21 | 63:53.07 | 1:03.00 | 287482 | 292206
22 | 64:56.07 | 1:07.50 | 292207 | 297281
Range status and errors
Selected range
Filename C:\Program Files (x86)\Exact Audio Copy\Flac\Vivaldi - Le Quattro Stagione.wav
Peak level 80.1 %
Extraction speed 1.8 X
Range quality 99.9 %
Test CRC 4CB25522
Copy CRC 4CB25522
Copy OK
No errors occurred
AccurateRip summary
Track 1 accurately ripped (confidence 61) [88573ACC] (AR v2)
Track 2 accurately ripped (confidence 63) [F7918FF4] (AR v2)
Track 3 accurately ripped (confidence 63) [5BE1ADDE] (AR v2)
Track 4 accurately ripped (confidence 63) [B6C5C7DF] (AR v2)
Track 5 accurately ripped (confidence 63) [62AD1F3A] (AR v2)
Track 6 accurately ripped (confidence 63) [0B75B940] (AR v2)
Track 7 accurately ripped (confidence 63) [FA08964C] (AR v2)
Track 8 accurately ripped (confidence 63) [08F07ED8] (AR v2)
Track 9 accurately ripped (confidence 63) [5F50F7E2] (AR v2)
Track 10 accurately ripped (confidence 63) [DE4B6CAE] (AR v2)
Track 11 accurately ripped (confidence 62) [35C5FEC5] (AR v2)
Track 12 accurately ripped (confidence 63) [FF23751B] (AR v2)
Track 13 accurately ripped (confidence 63) [0CF7D552] (AR v2)
Track 14 accurately ripped (confidence 63) [94F90393] (AR v2)
Track 15 accurately ripped (confidence 63) [57B83BFE] (AR v2)
Track 16 accurately ripped (confidence 63) [D6565243] (AR v2)
Track 17 accurately ripped (confidence 63) [0DB5ECE2] (AR v2)
Track 18 accurately ripped (confidence 63) [6BC9C710] (AR v2)
Track 19 accurately ripped (confidence 62) [3A0C7888] (AR v2)
Track 20 accurately ripped (confidence 61) [CAC1E6C2] (AR v2)
Track 21 accurately ripped (confidence 62) [84208FFD] (AR v2)
Track 22 accurately ripped (confidence 60) [A7A46232] (AR v2)
All tracks accurately ripped
End of status report
==== Log checksum ABA8338689CFE00B28B2E81AE71073D49A490DC2CE977A7E734E710EB6D11959 ====

CD25: Zelenka - Missa Dei Filii, Litaniae Lauretanae - CD:70'26

Jan Dismas Zelenka‎
Исполнители:
Nancy Argenta, soprano
Michael Chance, alto
Christoph Prégardien, tenor
Gordon Jones, bass
Kammerchor Stuttgart
Tafelmusik Baroque Orchestra
Jean Lamon
Frieder Bernius
Треклист:
01-10. Missa Dei Filii, ZWV 20
11-19. Litaniae Lauretanae, ZWV 152

LOG CD25:

Exact Audio Copy V1.0 beta 3 from 29. August 2011
EAC extraction logfile from 21. February 2015, 14:02
Frieder Bernius - Tafelmusik / Zelenka - Missa dei Filii ZWV 20
Used drive : HL-DT-STDVDRAM GH24NS95 Adapter: 0 ID: 0
Read mode : Secure
Utilize accurate stream : Yes
Defeat audio cache : Yes
Make use of C2 pointers : No
Read offset correction : 6
Overread into Lead-In and Lead-Out : No
Fill up missing offset samples with silence : Yes
Delete leading and trailing silent blocks : No
Null samples used in CRC calculations : Yes
Used interface : Native Win32 interface for Win NT & 2000
Used output format : User Defined Encoder
Selected bitrate : 128 kBit/s
Quality : High
Add ID3 tag : No
Command line compressor : C:\Program Files (x86)\Exact Audio Copy\Flac\flac.exe
Additional command line options : -V -8 -T "Date=%year%" -T "Genre=%genre%" %source%
TOC of the extracted CD
Track | Start | Length | Start sector | End sector
---------------------------------------------------------
1 | 0:00.33 | 1:34.15 | 33 | 7097
2 | 1:34.48 | 4:51.22 | 7098 | 28944
3 | 6:25.70 | 1:32.03 | 28945 | 35847
4 | 7:57.73 | 9:37.20 | 35848 | 79142
5 | 17:35.18 | 9:52.35 | 79143 | 123577
6 | 27:27.53 | 2:03.12 | 123578 | 132814
7 | 29:30.65 | 0:24.68 | 132815 | 134682
8 | 29:55.58 | 5:24.07 | 134683 | 158989
9 | 35:19.65 | 0:26.50 | 158990 | 160989
10 | 35:46.40 | 6:54.55 | 160990 | 192094
11 | 42:41.20 | 4:48.40 | 192095 | 213734
12 | 47:29.60 | 5:00.35 | 213735 | 236269
13 | 52:30.20 | 3:09.40 | 236270 | 250484
14 | 55:39.60 | 0:17.50 | 250485 | 251809
15 | 55:57.35 | 2:00.48 | 251810 | 260857
16 | 57:58.08 | 3:49.40 | 260858 | 278072
17 | 61:47.48 | 3:15.27 | 278073 | 292724
18 | 65:03.00 | 0:35.28 | 292725 | 295377
19 | 65:38.28 | 4:48.55 | 295378 | 317032
Range status and errors
Selected range
Filename C:\Program Files (x86)\Exact Audio Copy\Flac\Zelenka - Missa dei Filii ZWV 20.wav
Peak level 100.0 %
Extraction speed 1.9 X
Range quality 100.0 %
Test CRC E19013D5
Copy CRC E19013D5
Copy OK
No errors occurred
AccurateRip summary
Track 1 accurately ripped (confidence 11) [33EA3E5E] (AR v2)
Track 2 accurately ripped (confidence 11) [4D06889F] (AR v2)
Track 3 accurately ripped (confidence 11) [154F2FEB] (AR v2)
Track 4 accurately ripped (confidence 11) [6A3B0674] (AR v2)
Track 5 accurately ripped (confidence 11) [6A3CCE81] (AR v2)
Track 6 accurately ripped (confidence 11) [DE1AD775] (AR v2)
Track 7 accurately ripped (confidence 11) [59EA5C69] (AR v2)
Track 8 accurately ripped (confidence 11) [8F789CFF] (AR v2)
Track 9 accurately ripped (confidence 11) [87806FFF] (AR v2)
Track 10 accurately ripped (confidence 11) [05240DF6] (AR v2)
Track 11 accurately ripped (confidence 11) [F27146DF] (AR v2)
Track 12 accurately ripped (confidence 11) [CBA0F020] (AR v2)
Track 13 accurately ripped (confidence 11) [D1CE843C] (AR v2)
Track 14 accurately ripped (confidence 11) [2AAD2421] (AR v2)
Track 15 accurately ripped (confidence 11) [E6D11392] (AR v2)
Track 16 accurately ripped (confidence 11) [74085B38] (AR v2)
Track 17 accurately ripped (confidence 10) [7F36A8C5] (AR v2)
Track 18 accurately ripped (confidence 11) [8BF8B025] (AR v2)
Track 19 accurately ripped (confidence 11) [F267AEAB] (AR v2)
All tracks accurately ripped
End of status report
==== Log checksum 7E1ECE0B2A9B357DD3E6F41B0DAB26F9B09E7CF5DD0607569FB16183D802C85E ====
-mp3-Внимание! Торрент-файл окончательно перезалит 04.03.2015 в 08:30 по МСК времени. Просьба перекачать торрент-файл заново.
[teatrix.ru].t20397.torrent 
Торрент: Зарегистрирован [ 2016-03-19 20:37 ] · 6C3A3505498F366559E815764E5325747E0BD85C

Скачать .torrent

Скачать

50 KB

Статус: проверено
Скачан: 1 раз
Размер: 6.84 GB
terms.php



Быстрый ответ

Имя:

      
Для отправки сообщений необходимо включить JavaScript
Показать сообщения:    

Текущее время: 05-Дек 17:35

Часовой пояс: UTC + 3


Вы можете начинать темы
Вы можете отвечать на сообщения
Вы не можете редактировать свои сообщения
Вы не можете удалять свои сообщения
Вы не можете голосовать в опросах
Вы не можете прикреплять файлы к сообщениям
Вы можете скачивать файлы