Панда / Panda / Pandy (Матуш Визар / Matúš Vizár) [2012, Чехия, авторская анимация, чёрный юмор, WEBRip]


 

[Цитировать]

Панда / Panda / Pandy
Страна: Чехия
Жанр: авторская анимация, чёрный юмор
Год выпуска: 2012
Продолжительность: 00:12:12
Перевод: не требуется
Cубтитры: нет
Режиссёр: Матуш Визар / Matúš Vizár
Описание: "Выживает не самый сильный из видов, выживает не самый умный. А тот, который наиболее приспособлен к переменам" - этой цитатой из Дарвина начинается фильм. В прологе излагается история эволюции панды, когда-то бывшего хищником, а ныне обратившегося в грузного увальня, жующего бамбуковые стебли. Далее следует рассказ про панду, осознавшего бессмысленность своего существования, и пытающегося покончить с жизнью. А это оказывается не просто: сохранность животных на планете отныне контролируют люди. Это доводит ситуацию до абсурдных и катастрофических последствий.
Доп. информация:
Special Distinction (Graduation Films) - Annecy Animated Film Festival (2013)
3rd place (Cinefondation Award) - Cannes Film Festival (2013)
Short Grand Prix - Warsaw Film Festival (2013)
Best debut - Goldfish Film Festival (2013)
Euroshort Award - Glasgow Film Festival (2014)
Качество видео: WEBRip
Формат видео: AVI
Видео: 1664 kbps, 704х384 (1.85:1), 25.000 fps, MPEG-4 Visual (XviD)
Аудио: 128 kbps, 44.1 kHz, 2 channels, MPEG Audio (MP3)

MediaInfo

General
Complete name : Panda (2012).avi
Format : AVI
Format/Info : Audio Video Interleave
File size : 157 MiB
Duration : 12mn 12s
Overall bit rate : 1 802 Kbps
Writing application : VirtualDubModRus 1.5.10.2 (build 2542/release)
Writing library : VirtualDubMod build 2542/release
Video
ID : 0
Format : MPEG-4 Visual
Format profile : Advanced Simple@L5
Format settings, BVOP : 2
Format settings, QPel : No
Format settings, GMC : No warppoints
Format settings, Matrix : Custom
Codec ID : XVID
Codec ID/Hint : XviD
Duration : 12mn 12s
Bit rate : 1 664 Kbps
Width : 704 pixels
Height : 384 pixels
Display aspect ratio : 1.85:1
Frame rate : 25.000 fps
Color space : YUV
Chroma subsampling : 4:2:0
Bit depth : 8 bits
Scan type : Progressive
Compression mode : Lossy
Bits/(Pixel*Frame) : 0.246
Stream size : 145 MiB (92%)
Writing library : XviD 65
Audio
ID : 1
Format : MPEG Audio
Format version : Version 1
Format profile : Layer 3
Mode : Joint stereo
Codec ID : 55
Codec ID/Hint : MP3
Duration : 12mn 12s
Bit rate mode : Constant
Bit rate : 128 Kbps
Channel(s) : 2 channels
Sampling rate : 44.1 KHz
Compression mode : Lossy
Stream size : 11.2 MiB (7%)
Alignment : Split accross interleaves
Interleave, duration : 40 ms (1.00 video frame)
Interleave, preload duratio : 500 ms
Writing library : LAME3.99r
Encoding settings : -m j -V 4 -q 3 -lowpass 17 -b 128

Скриншот c названием фильма

Скриншоты




Показать сообщения:    

Текущее время: 10-Дек 02:17

Часовой пояс: UTC + 3


Вы не можете начинать темы
Вы не можете отвечать на сообщения
Вы не можете редактировать свои сообщения
Вы не можете удалять свои сообщения
Вы не можете голосовать в опросах
Вы не можете прикреплять файлы к сообщениям
Вы не можете скачивать файлы