Фантазия на тему актрисы без амплуа. Лидия Сухаревская (Елена Никитан) [2009, Документальный, биография, история, культура, SATRip]


Статистика раздачи [Обновить пиров]
Размер:  453 MB   |    Зарегистрирован:  8 месяцев 14 дней   |    Скачан:  0 раз

Полного источника не было: Никогда

 
   
 
 
 

[Цитировать]

Фантазия на тему актрисы без амплуа. Лидия Сухаревская
Дата/Год выпуска: 2009
Страна: Россия, ГТРК "Культура"
Жанр: Документальный, биография, история, культура
Продолжительность: 00:38:53
Перевод: Не требуется
Режиссер: Елена Никитан
Описание: Искусство Лидии Сухаревской отмечено тонкостью, интеллигентностью, мягким юмором. Удавались актрисе и острохарактерные роли. Среди лучших работ: великая княгиня Елена Павловна ("Мусоргский"), Раиса Петерсон ("Поединок"), Антонина Ивановна ("Жизнь сначала", автор пьесы, а затем сценария), графиня Лидия Ивановна ("Анна Каренина").
качество: SATRip
формат: AVI
Видео: 704x448 (1.33:1), 25 fps, XviD build 50 ~1630 kbps avg, 0.16 bit/pixel
Аудио: 48 kHz, MPEG Layer 3, 2 ch, ~128.00 kbps avg

Скриншоты




MediaInfo

Общее
Полное имя : C:\Users\Андрей\Desktop\Мои рипы\Фантазия на тему актрисы без амплуа. Лидия Сухаревская.avi
Формат : AVI
Формат/Информация : Audio Video Interleave
Размер файла : 453 Мбайт
Продолжительность : 38 м.
Общий поток : 1630 Кбит/сек
Программа кодирования : VirtualDubMod 1.5.10.3 | www.virtualdub-fr.org || (build 2550/release)
Библиотека кодирования : VirtualDubMod build 2550/release
Видео
Идентификатор : 0
Формат : MPEG-4 Visual
Профиль формата : Simple@L1
Параметр BVOP формата : Нет
Параметр QPel формата : Нет
Параметр GMC формата : Без точки перехода
Параметр матрицы формата : Default (H.263)
Идентификатор кодека : XVID
Идентификатор кодека/Подсказка : XviD
Продолжительность : 38 м.
Битрейт : 1492 Кбит/сек
Ширина : 704 пикселя
Высота : 448 пикселей
Соотношение сторон : 16:10
Частота кадров : 25,000 кадров/сек
Цветовое пространство : YUV
Субдискретизация насыщенности : 4:2:0
Битовая глубина : 8 бит
Тип развёртки : Прогрессивная
Метод сжатия : С потерями
Бит/(Пиксели*Кадры) : 0.189
Размер потока : 415 Мбайт (92%)
Библиотека кодирования : Lavc53.33.0
Аудио
Идентификатор : 1
Формат : MPEG Audio
Версия формата : Version 1
Профиль формата : Layer 3
Идентификатор кодека : 55
Идентификатор кодека/Подсказка : MP3
Продолжительность : 38 м.
Вид битрейта : Постоянный
Битрейт : 128 Кбит/сек
Каналы : 2 канала
Частота : 48,0 КГц
Метод сжатия : С потерями
Размер потока : 35,6 Мбайт (8%)
Выравнивание : Соединение по промежуткам
Продолжительность промежутка : 40 мс. (1,00 видеокадр)
Время предзагрузки промежутка : 504 мс.
Библиотека кодирования : LAME3.99r
Настройки программы : -m s -V 4 -q 2 -lowpass 17 -b 128
[teatrix.ru].t20405.torrent 
Торрент: Зарегистрирован [ 2016-03-19 20:37 ] · 88EDC937C7EFB21260F2FEBB7E9FB0B5CF2027E1

Скачать .torrent

Скачать

18 KB

Статус: проверено
Скачан: 0 раз
Размер: 453 MB
terms.php



Быстрый ответ

Имя:

      
Для отправки сообщений необходимо включить JavaScript
Показать сообщения:    

Текущее время: 03-Дек 18:37

Часовой пояс: UTC + 3


Вы можете начинать темы
Вы можете отвечать на сообщения
Вы не можете редактировать свои сообщения
Вы не можете удалять свои сообщения
Вы не можете голосовать в опросах
Вы не можете прикреплять файлы к сообщениям
Вы можете скачивать файлы