(Classical) Grieg, Sibelius, Debussy, Rangstrom - Songs - Karen Vourc'h, Susan Manoff - 2009, FLAC (image+.cue) lossless


 

[Цитировать]

Grieg, Sibelius, Debussy, Rangström - Songs - Karen Vourc'h, Susan Manoff
Жанр: Classical
Страна-производитель диска: France
Год издания диска: 2009
Издатель (лейбл): Aparte
Номер по каталогу: AP002
Дата записи: 2009
Аудиокодек: FLAC
Тип рипа: image+.cue
Битрейт аудио: lossless
Продолжительность: 55:28
Источник: собственный рип
Наличие сканов в содержимом раздачи: да
Треклист:
Edvard Grieg
[1] I Rosentiden
[2] Jeg elsker dig!
[3] En drøm
[4] En Svane
[5] To brune øjne
[6] Solveigs sang
[7] Killingdans
[8] Med en vandlilje
Ture Rangström
[9] Pan
Jean Sibelius
[10] Se'n har jag ej frågat mera
[11] Marssnön
[12] Men min fågel märks doch icke
[13] Svarta Rosor
[14] En slända
[15] Flickan kom ifrån sin älsklings möte
Claude Debussy
[16]-[18] Trois Chansons de Bilitis
[19] Apparition
[20] Beau Soir
Исполнители:
Karen Vourc'h soprano
Susan Manoff piano

Лог создания рипа

Exact Audio Copy V1.0 beta 3 from 29. August 2011
EAC extraction logfile from 9. November 2014, 14:05
Karen Vourc'h, Susan Manoff / Till Solveig
Used drive : HL-DT-STDVDRAM GU70N Adapter: 0 ID: 0
Read mode : Secure
Utilize accurate stream : Yes
Defeat audio cache : Yes
Make use of C2 pointers : No
Read offset correction : 48
Overread into Lead-In and Lead-Out : No
Fill up missing offset samples with silence : Yes
Delete leading and trailing silent blocks : No
Null samples used in CRC calculations : Yes
Used interface : Native Win32 interface for Win NT & 2000
Used output format : User Defined Encoder
Selected bitrate : 128 kBit/s
Quality : High
Add ID3 tag : No
Command line compressor : C:\Program Files (x86)\Exact Audio Copy\Flac\flac.exe
Additional command line options : -V -8 -T "Date=%year%" -T "Genre=%genre%" %source%
TOC of the extracted CD
Track | Start | Length | Start sector | End sector
---------------------------------------------------------
1 | 0:00.00 | 3:28.23 | 0 | 15622
2 | 3:28.23 | 1:34.19 | 15623 | 22691
3 | 5:02.42 | 2:17.56 | 22692 | 33022
4 | 7:20.23 | 2:37.10 | 33023 | 44807
5 | 9:57.33 | 1:05.58 | 44808 | 49740
6 | 11:03.16 | 5:13.04 | 49741 | 73219
7 | 16:16.20 | 1:56.61 | 73220 | 81980
8 | 18:13.06 | 2:08.50 | 81981 | 91630
9 | 20:21.56 | 3:11.41 | 91631 | 105996
10 | 23:33.22 | 2:10.16 | 105997 | 115762
11 | 25:43.38 | 1:29.56 | 115763 | 122493
12 | 27:13.19 | 2:28.31 | 122494 | 133624
13 | 29:41.50 | 1:53.65 | 133625 | 142164
14 | 31:35.40 | 4:59.04 | 142165 | 164593
15 | 36:34.44 | 2:39.02 | 164594 | 176520
16 | 39:13.46 | 2:55.70 | 176521 | 189715
17 | 42:09.41 | 3:52.25 | 189716 | 207140
18 | 46:01.66 | 2:50.24 | 207141 | 219914
19 | 48:52.15 | 3:54.68 | 219915 | 237532
20 | 52:47.08 | 2:39.35 | 237533 | 249492
Range status and errors
Selected range
Filename C:\temp\AP002 Grieg, Sibelius, Debussy - Till Solveig (Karen Vourc'h, Susan Manoff)\Till Solveig.wav
Peak level 100.0 %
Extraction speed 5.0 X
Range quality 100.0 %
Test CRC 6DA73BC7
Copy CRC 6DA73BC7
Copy OK
No errors occurred
AccurateRip summary
Track 1 accurately ripped (confidence 3) [7CB06D07] (AR v2)
Track 2 accurately ripped (confidence 3) [07D5B524] (AR v2)
Track 3 accurately ripped (confidence 3) [2F9F8013] (AR v2)
Track 4 accurately ripped (confidence 3) [8CA99E7F] (AR v2)
Track 5 accurately ripped (confidence 3) [9B814561] (AR v2)
Track 6 accurately ripped (confidence 3) [624C9944] (AR v2)
Track 7 accurately ripped (confidence 3) [2EFC0180] (AR v2)
Track 8 accurately ripped (confidence 3) [7EBB1545] (AR v2)
Track 9 accurately ripped (confidence 3) [2B60E93F] (AR v2)
Track 10 accurately ripped (confidence 3) [EA3BF16C] (AR v2)
Track 11 accurately ripped (confidence 3) [5C8DA467] (AR v2)
Track 12 accurately ripped (confidence 3) [D2AE5E08] (AR v2)
Track 13 accurately ripped (confidence 3) [5FB08DCE] (AR v2)
Track 14 accurately ripped (confidence 3) [05DFC17F] (AR v2)
Track 15 accurately ripped (confidence 2) [B94DBAF9] (AR v2)
Track 16 accurately ripped (confidence 3) [EAC4777F] (AR v2)
Track 17 accurately ripped (confidence 3) [A7ED05A1] (AR v2)
Track 18 accurately ripped (confidence 3) [689DAC3A] (AR v2)
Track 19 accurately ripped (confidence 3) [F748C942] (AR v2)
Track 20 accurately ripped (confidence 3) [E1D4E8EB] (AR v2)
All tracks accurately ripped
End of status report
==== Log checksum AEAF3B16884941C70907014B061CD2E09BF24843F8DA7BE89A213C83FAE0E0B6 ====



Показать сообщения:    

Текущее время: 08-Дек 07:08

Часовой пояс: UTC + 3


Вы не можете начинать темы
Вы не можете отвечать на сообщения
Вы не можете редактировать свои сообщения
Вы не можете удалять свои сообщения
Вы не можете голосовать в опросах
Вы не можете прикреплять файлы к сообщениям
Вы не можете скачивать файлы