[TR24][SM][OF] Beethoven - 9 Symphonies - Herbert von Karajan & Berliner Philharmoniker - 1963 (Classical)


Статистика раздачи [Обновить пиров]
Размер:  6.42 GB   |    Зарегистрирован:  8 месяцев 22 дня   |    Скачан:  1 раз

Полного источника не было: 5 месяцев 22 дня

 
   
 
 
 

[Цитировать]

·
·
Ludwig van Beethoven (1770-1827)Жанр: Symphony
Носитель: Official Digital Download
Год издания/переиздания диска: 1963/2014
Издатель(лейбл): © Deutsche Grammophon
Номер по каталогу: 479 3442
Продолжительность: 05:33:08
Наличие сканов в содержимом раздачи: artwork
Контейнер: FLAC (*.flac)
Разрядность: 24/96
Количество каналов: 2.0
Формат: tracks
Источник: HDtracks
Pелизер: WEB (thanks to the original customer)
Herbert von Karajan
Berliner Philharmoniker

Vol. 1 • 56:32

Symphony No. 1 in C major op. 2101 1. Adagio molto – Allegro con brio 9:34
02 2. Andante cantabile con moto 5:53
03 3. Menuetto. Allegro molto e vivace 3:58
05 4. Adagio – Allegro molto e vivace 5:41
Symphony No. 2 in D major op. 36
06 1. Adagio – Allegro con brio 10:19
07 2. Larghetto 10:35
08 3. Scherzo. Allegro 3:54
09 4. Allegro molto 6:26

-

Dynamic Range Meter

foobar2000 1.2.6 / Dynamic Range Meter 1.1.1
log date: 2015-02-21 00:20:54
--------------------------------------------------------------------------------
Analyzed: Berliner Philharmoniker & Herbert von Karajan / Beethoven: 9 Symphonies
--------------------------------------------------------------------------------
DR Peak RMS Duration Track
--------------------------------------------------------------------------------
DR11 -1.20 dB -17.39 dB 9:34 01-Symphony No.1 In C, Op.21 - 1. Adagio molto - Allegro con brio
DR13 -3.36 dB -22.68 dB 5:53 02-Symphony No.1 In C, Op.21 - 2. Andante cantabile con moto
DR11 -2.26 dB -18.93 dB 3:58 03-Symphony No.1 In C, Op.21 - 3. Menuetto (Allegro molto e vivace)
DR11 -1.10 dB -17.58 dB 5:52 04-Symphony No.1 In C, Op.21 - 4. Finale (Adagio - Allegro molto e vivace)
DR11 -1.83 dB -17.24 dB 10:19 05-Symphony No.2 In D, Op.36 - 1. Adagio molto - Allegro con brio
DR11 -5.07 dB -22.14 dB 10:35 06-Symphony No.2 In D, Op.36 - 2. Larghetto
DR12 -3.59 dB -20.28 dB 3:54 07-Symphony No.2 In D, Op.36 - 3. Scherzo (Allegro)
DR11 -0.93 dB -16.41 dB 6:26 08-Symphony No.2 In D, Op.36 - 4. Allegro molto
--------------------------------------------------------------------------------
Number of tracks: 8
Official DR value: DR11
Samplerate: 96000 Hz
Channels: 2
Bits per sample: 24
Bitrate: 2729 kbps
Codec: FLAC
================================================================================

Vol. 2 • 81:16

Symphony No. 3 in E f lat major op. 55 “Eroica”
01 1. Allegro con brio 14:50
02 2. Marcia funebre. Adagio assai 17:06
03 3. Scherzo. Allegro vivace 5:46
04 4. Finale. Allegro molto 12:18
Symphony No. 4 in B f lat major op. 60
05 1. Adagio – Allegro vivace 9:55
06 2. Adagio 9:58
07 3. Allegro vivace 5:45
08 4. Allegro ma non troppo 5:31

-

Dynamic Range Meter

foobar2000 1.2.6 / Dynamic Range Meter 1.1.1
log date: 2015-02-21 00:22:10
--------------------------------------------------------------------------------
Analyzed: Berliner Philharmoniker & Herbert von Karajan / Beethoven: 9 Symphonies
--------------------------------------------------------------------------------
DR Peak RMS Duration Track
--------------------------------------------------------------------------------
DR11 -1.88 dB -17.86 dB 14:50 09-Symphony No.3 In E Flat, Op.55 -"Eroica" - 1. Allegro con brio
DR12 -2.05 dB -20.38 dB 17:10 10-Symphony No.3 In E Flat, Op.55 -"Eroica" - 2. Marcia funebre (Adagio assai)
DR12 -2.34 dB -20.90 dB 5:47 11-Symphony No.3 In E Flat, Op.55 -"Eroica" - 3. Scherzo (Allegro vivace)
DR11 0.00 dB -17.30 dB 12:29 12-Symphony No.3 In E Flat, Op.55 -"Eroica" - 4. Finale (Allegro molto)
DR11 -3.36 dB -19.79 dB 9:56 13-Symphony No.4 In B Flat, Op.60 - 1. Adagio - Allegro vivace
DR13 -4.80 dB -24.13 dB 9:59 14-Symphony No.4 In B Flat, Op.60 - 2. Adagio
DR11 -4.34 dB -21.65 dB 5:45 15-Symphony No.4 In B Flat, Op.60 - 3. Allegro vivace
DR11 -2.45 dB -20.27 dB 5:31 16-Symphony No.4 In B Flat, Op.60 - 4. Allegro ma non troppo
--------------------------------------------------------------------------------
Number of tracks: 8
Official DR value: DR12
Samplerate: 96000 Hz
Channels: 2
Bits per sample: 24
Bitrate: 2702 kbps
Codec: FLAC
================================================================================

Vol. 3 • 67:14

Symphony No. 5 in C minor op. 6701 1. Allegro con brio 7:18
02 2. Andante con moto 10:04
03 3. Allegro – attacca 4:54
04 4. Allegro 8:53
Symphony No. 6 in F major op. 68 “Pastoral”
05 1. Erwachen heiterer Empfindungen bei der Ankunft auf dem Lande 9:01
Allegro ma non troppo
06 2. Szene am Bach 11:34
Andante molto mosso
07 3. Lustiges Zusammensein der Landleute 3:01
Allegro – attacca
08 4. Gewitter – Sturm 3:25
Allegro – attacca
09 5. Hir tengesang. Frohe und dankbare Gefühle nach dem Sturm 8:52
Allegretto

-

Dynamic Range Meter

foobar2000 1.2.6 / Dynamic Range Meter 1.1.1
log date: 2015-02-21 00:23:19
--------------------------------------------------------------------------------
Analyzed: Berliner Philharmoniker & Herbert von Karajan / Beethoven: 9 Symphonies
--------------------------------------------------------------------------------
DR Peak RMS Duration Track
--------------------------------------------------------------------------------
DR11 -0.09 dB -15.01 dB 7:20 17-Symphony No.5 In C Minor, Op.67 - 1. Allegro con brio
DR11 -0.39 dB -18.40 dB 10:04 18-Symphony No.5 In C Minor, Op.67 - 2. Andante con moto
DR11 -0.80 dB -17.50 dB 4:53 19-Symphony No.5 In C Minor, Op.67 - 3. Allegro
DR10 -0.35 dB -13.83 dB 9:05 20-Symphony No.5 In C Minor, Op.67 - 4. Allegro
DR11 -1.53 dB -19.40 dB 8:59 21-Symphony No.6 In F, Op.68 -"Pastoral" - 1. Erwachen heiterer Empfindungen bei der Ankunft auf dem Lande: Allegro ma non troppo
DR13 -4.14 dB -23.15 dB 11:34 22-Symphony No.6 In F, Op.68 -"Pastoral" - 2. Szene am Bach: (Andante molto mosso)
DR11 -0.21 dB -17.29 dB 3:01 23-Symphony No.6 In F, Op.68 -"Pastoral" - 3. Lustiges Zusammensein der Landleute (Allegro)
DR10 0.00 dB -14.83 dB 3:25 24-Symphony No.6 In F, Op.68 -"Pastoral" - 4. Gewitter, Sturm (Allegro)
DR11 -1.26 dB -17.12 dB 8:52 25-Symphony No.6 In F, Op.68 -"Pastoral" - 5. Hirtengesang. Frohe und dankbare Gefühle nach dem Sturm: Allegretto
--------------------------------------------------------------------------------
Number of tracks: 9
Official DR value: DR11
Samplerate: 96000 Hz
Channels: 2
Bits per sample: 24
Bitrate: 2824 kbps
Codec: FLAC
================================================================================

Vol. 4 • 60:40

Symphony No. 7 in A major op. 9201 1. Poco sostenuto – Vivace 11:27
02 2. Allegretto 8:02
03 3. Presto 7:48
04 4. Allegro con brio 6:35
Symphony No. 8 in F major op. 93
05 1. Allegro vivace e con brio 9:22
06 2. Allegretto scherzando 3:58
07 3. Tempo di Menuetto 5:59
08 4. Allegro vivace 7:18

-

Dynamic Range Meter

foobar2000 1.2.6 / Dynamic Range Meter 1.1.1
log date: 2015-02-21 00:24:31
--------------------------------------------------------------------------------
Analyzed: Berliner Philharmoniker & Herbert von Karajan / Beethoven: 9 Symphonies
--------------------------------------------------------------------------------
DR Peak RMS Duration Track
--------------------------------------------------------------------------------
DR11 -0.64 dB -16.08 dB 11:27 26-Symphony No.7 In A, Op.92 - 1. Poco sostenuto - Vivace
DR13 -1.19 dB -20.50 dB 8:02 27-Symphony No.7 In A, Op.92 - 2. Allegretto
DR11 0.00 dB -17.05 dB 7:49 28-Symphony No.7 In A, Op.92 - 3. Presto - Assai meno presto
DR10 0.00 dB -13.09 dB 6:43 29-Symphony No.7 In A, Op.92 - 4. Allegro con brio
DR10 -1.00 dB -15.08 dB 9:22 30-Symphony No.8 In F, Op.93 - 1. Allegro vivace e con brio
DR13 -4.16 dB -23.28 dB 3:58 31-Symphony No.8 In F, Op.93 - 2. Allegretto scherzando
DR11 -2.44 dB -17.46 dB 5:59 32-Symphony No.8 In F, Op.93 - 3. Tempo di menuetto
DR11 -1.02 dB -15.95 dB 7:18 33-Symphony No.8 In F, Op.93 - 4. Allegro vivace
--------------------------------------------------------------------------------
Number of tracks: 8
Official DR value: DR11
Samplerate: 96000 Hz
Channels: 2
Bits per sample: 24
Bitrate: 2765 kbps
Codec: FLAC
================================================================================

Vol. 5 • 67:03

Symphony No. 9 in D minor op. 125
01 1. Allegro ma non troppo, un poco maestoso 15:30
02 2. Molto vivace 11:01
03 3. Adagio molto e cantabile 16:26
04 4. Presto – Allegro assai – 6:24
05 Presto – Recitativo: “O Freunde, nicht diese Töne!” – Allegro assai 17:43
Gundula Janowitz soprano | Hilde Rössel-Majdan contralto
Waldemar Kmentt tenor | Walter Berry bass-baritone
WIENER SINGVEREIN
Chorus Master: Reinhold Schmid

-

Dynamic Range Meter

foobar2000 1.2.6 / Dynamic Range Meter 1.1.1
log date: 2015-02-21 00:25:39
--------------------------------------------------------------------------------
Analyzed: Berliner Philharmoniker & Herbert von Karajan / Beethoven: 9 Symphonies
--------------------------------------------------------------------------------
DR Peak RMS Duration Track
--------------------------------------------------------------------------------
DR11 0.00 dB -15.20 dB 15:30 34-Symphony No.9 In D Minor, Op.125 - "Choral" - 1. Allegro ma non troppo, un poco maestoso
DR12 -0.13 dB -16.86 dB 11:08 35-Symphony No.9 In D Minor, Op.125 - "Choral" - 2. Molto vivace
DR16 -2.43 dB -24.52 dB 16:35 36-Symphony No.9 In D Minor, Op.125 - "Choral" - 3. Adagio molto e cantabile
DR11 -0.31 dB -17.75 dB 6:24 37-Symphony No.9 In D Minor, Op.125 - "Choral" - 4. Presto
DR11 0.00 dB -14.95 dB 17:42 38-Symphony No.9 In D Minor, Op.125 - "Choral" - 4. Presto - "O Freunde nicht diese Töne"
--------------------------------------------------------------------------------
Number of tracks: 5
Official DR value: DR12
Samplerate: 96000 Hz
Channels: 2
Bits per sample: 24
Bitrate: 2889 kbps
Codec: FLAC
================================================================================
[teatrix.ru].t20415.torrent 
Торрент: Зарегистрирован [ 2016-03-19 20:37 ] · 5B62CC2A6B5AF449189FF9F404F98BC5F2F2FBD1

Скачать .torrent

Скачать

21 KB

Статус: проверено
Скачан: 1 раз
Размер: 6.42 GB
terms.php



Быстрый ответ

Имя:

      
Для отправки сообщений необходимо включить JavaScript
Показать сообщения:    

Текущее время: 11-Дек 14:58

Часовой пояс: UTC + 3


Вы можете начинать темы
Вы можете отвечать на сообщения
Вы не можете редактировать свои сообщения
Вы не можете удалять свои сообщения
Вы не можете голосовать в опросах
Вы не можете прикреплять файлы к сообщениям
Вы можете скачивать файлы