(Classical) Jean-Baptiste Lully - The Grand Motets - Le Concert Spirituel, Herve Niquet - 3CD - 2011, FLAC (image+.cue) lossless


Статистика раздачи [Обновить пиров]
Размер:  821 MB   |    Зарегистрирован:  8 месяцев 20 дней   |    Скачан:  0 раз

Полного источника не было: Никогда

 
   
 
 
 

[Цитировать]

Jean-Baptiste Lully - The Grand Motets - Le Concert Spirituel, Hervé Niquet
Жанр: Classical
Год издания диска: 2011
Издатель (лейбл): Naxos
Номер по каталогу: 8.503229
Дата записи: 1993, 1994
Аудиокодек: FLAC
Тип рипа: image+.cue
Битрейт аудио: lossless
Продолжительность: 3:00:45
Источник: собственный рип
Наличие сканов в содержимом раздачи: да
Треклист:
Jean-Baptiste Lully (1632-1687)
CD1
[1]-[6] Te Deum
[7]-[11] Miserere
[12]-[14] Plaude lætare Gallia
CD2
[1]-[2] Quare fremuerunt
[3]-[4] O Lachrymae
[5]-[7] Dies irae
[8]-[10] De profundis
CD3
[1]-[5] Exaudiat te Dominus (Psalm 19)
[6] O dulcissime Domine
[7]-[9] Notus in Judæa Deus (Psalm 75)
[10] Laudate pueri Dominum (Psalm 112)
[11]-[17] Benedictus
Исполнители:
Le Concert Spirituel
Hervé Niquet

Лог создания рипа: CD1

Exact Audio Copy V1.0 beta 3 from 29. August 2011
EAC extraction logfile from 25. July 2014, 16:07
Le Concert Sprituel, Hervé Niquet / Lully - The Grand Motets - CD1
Used drive : HL-DT-STDVDRRW GWA-4164B Adapter: 5 ID: 0
Read mode : Secure
Utilize accurate stream : Yes
Defeat audio cache : Yes
Make use of C2 pointers : No
Read offset correction : 102
Overread into Lead-In and Lead-Out : No
Fill up missing offset samples with silence : Yes
Delete leading and trailing silent blocks : No
Null samples used in CRC calculations : Yes
Used interface : Native Win32 interface for Win NT & 2000
Used output format : User Defined Encoder
Selected bitrate : 896 kBit/s
Quality : High
Add ID3 tag : No
Command line compressor : C:\Program Files\Exact Audio Copy\FLAC\FLAC.EXE
Additional command line options : -V -8 %source%
TOC of the extracted CD
Track | Start | Length | Start sector | End sector
---------------------------------------------------------
1 | 0:00.00 | 6:42.40 | 0 | 30189
2 | 6:42.40 | 6:00.02 | 30190 | 57191
3 | 12:42.42 | 4:25.30 | 57192 | 77096
4 | 17:07.72 | 4:32.15 | 77097 | 97511
5 | 21:40.12 | 5:29.03 | 97512 | 122189
6 | 27:09.15 | 1:52.70 | 122190 | 130659
7 | 29:02.10 | 6:21.62 | 130660 | 159296
8 | 35:23.72 | 5:07.18 | 159297 | 182339
9 | 40:31.15 | 3:04.27 | 182340 | 196166
10 | 43:35.42 | 5:15.43 | 196167 | 219834
11 | 48:51.10 | 2:13.07 | 219835 | 229816
12 | 51:04.17 | 2:39.38 | 229817 | 241779
13 | 53:43.55 | 2:39.40 | 241780 | 253744
14 | 56:23.20 | 2:01.05 | 253745 | 262824
Range status and errors
Selected range
Filename D:\temp\Music\Naxos_8.503229 - Lully - The Grand Motets\CD1\Lully - The Grand Motets - CD1.wav
Peak level 97.1 %
Extraction speed 2.0 X
Range quality 100.0 %
Test CRC C3AAF25C
Copy CRC C3AAF25C
Copy OK
No errors occurred
AccurateRip summary
Track 1 accurately ripped (confidence 7) [5795E778] (AR v2)
Track 2 accurately ripped (confidence 7) [653486ED] (AR v2)
Track 3 accurately ripped (confidence 7) [D252B605] (AR v2)
Track 4 accurately ripped (confidence 7) [7B7A1BE1] (AR v2)
Track 5 accurately ripped (confidence 7) [1BC4DCE0] (AR v2)
Track 6 accurately ripped (confidence 7) [F3904596] (AR v2)
Track 7 accurately ripped (confidence 7) [29CD0AA8] (AR v2)
Track 8 accurately ripped (confidence 7) [353529A5] (AR v2)
Track 9 accurately ripped (confidence 7) [71DEB309] (AR v2)
Track 10 accurately ripped (confidence 7) [A2B2CA47] (AR v2)
Track 11 accurately ripped (confidence 7) [83EB7596] (AR v2)
Track 12 accurately ripped (confidence 7) [82769E21] (AR v2)
Track 13 accurately ripped (confidence 7) [A38F540F] (AR v2)
Track 14 accurately ripped (confidence 7) [89907931] (AR v2)
All tracks accurately ripped
End of status report
==== Log checksum E6D8005BCB9F5C73B334D0B0F568689C19AB43034125C1BD8073FC2F5142C678 ====

Лог создания рипа: CD2

Exact Audio Copy V1.0 beta 3 from 29. August 2011
EAC extraction logfile from 25. July 2014, 17:00
Le Concert Sprituel, Hervé Niquet / Lully - The Grand Motets - CD2
Used drive : HL-DT-STDVDRRW GWA-4164B Adapter: 5 ID: 0
Read mode : Secure
Utilize accurate stream : Yes
Defeat audio cache : Yes
Make use of C2 pointers : No
Read offset correction : 102
Overread into Lead-In and Lead-Out : No
Fill up missing offset samples with silence : Yes
Delete leading and trailing silent blocks : No
Null samples used in CRC calculations : Yes
Used interface : Native Win32 interface for Win NT & 2000
Used output format : User Defined Encoder
Selected bitrate : 896 kBit/s
Quality : High
Add ID3 tag : No
Command line compressor : C:\Program Files\Exact Audio Copy\FLAC\FLAC.EXE
Additional command line options : -V -8 %source%
TOC of the extracted CD
Track | Start | Length | Start sector | End sector
---------------------------------------------------------
1 | 0:00.00 | 7:21.27 | 0 | 33101
2 | 7:21.27 | 6:05.68 | 33102 | 60544
3 | 13:27.20 | 7:39.65 | 60545 | 95034
4 | 21:07.10 | 10:59.55 | 95035 | 144514
5 | 32:06.65 | 4:24.72 | 144515 | 164386
6 | 36:31.62 | 8:29.40 | 164387 | 202601
7 | 45:01.27 | 2:54.18 | 202602 | 215669
8 | 47:55.45 | 6:45.67 | 215670 | 246111
9 | 54:41.37 | 7:09.55 | 246112 | 278341
10 | 61:51.17 | 2:50.28 | 278342 | 291119
Range status and errors
Selected range
Filename D:\temp\Music\Naxos_8.503229 - Lully - The Grand Motets\CD2\Lully - The Grand Motets - CD2.wav
Peak level 95.6 %
Extraction speed 3.0 X
Range quality 100.0 %
Test CRC 7D4C0AC3
Copy CRC 7D4C0AC3
Copy OK
No errors occurred
AccurateRip summary
Track 1 accurately ripped (confidence 12) [6ECBC031] (AR v2)
Track 2 accurately ripped (confidence 12) [79742B88] (AR v2)
Track 3 accurately ripped (confidence 12) [86F927FA] (AR v2)
Track 4 accurately ripped (confidence 12) [B9D6C9DF] (AR v2)
Track 5 accurately ripped (confidence 12) [DBCAA916] (AR v2)
Track 6 accurately ripped (confidence 12) [3C83FB3B] (AR v2)
Track 7 accurately ripped (confidence 12) [5DC9F005] (AR v2)
Track 8 accurately ripped (confidence 12) [821305E2] (AR v2)
Track 9 accurately ripped (confidence 12) [F71865A3] (AR v2)
Track 10 accurately ripped (confidence 12) [A2B767F6] (AR v2)
All tracks accurately ripped
End of status report
==== Log checksum CB3B566523D871E1D371CBBDD8773E999B4E01669DF9EC717F0198E4D2635C08 ====

Лог создания рипа: CD3

Exact Audio Copy V1.0 beta 3 from 29. August 2011
EAC extraction logfile from 25. July 2014, 17:53
Le Concert Sprituel, Hervé Niquet / Lully - The Grand Motets - CD3
Used drive : HL-DT-STDVDRRW GWA-4164B Adapter: 5 ID: 0
Read mode : Secure
Utilize accurate stream : Yes
Defeat audio cache : Yes
Make use of C2 pointers : No
Read offset correction : 102
Overread into Lead-In and Lead-Out : No
Fill up missing offset samples with silence : Yes
Delete leading and trailing silent blocks : No
Null samples used in CRC calculations : Yes
Used interface : Native Win32 interface for Win NT & 2000
Used output format : User Defined Encoder
Selected bitrate : 896 kBit/s
Quality : High
Add ID3 tag : No
Command line compressor : C:\Program Files\Exact Audio Copy\FLAC\FLAC.EXE
Additional command line options : -V -8 %source%
TOC of the extracted CD
Track | Start | Length | Start sector | End sector
---------------------------------------------------------
1 | 0:00.00 | 3:53.00 | 0 | 17474
2 | 3:53.00 | 3:33.50 | 17475 | 33499
3 | 7:26.50 | 2:46.37 | 33500 | 45986
4 | 10:13.12 | 3:10.40 | 45987 | 60276
5 | 13:23.52 | 1:55.43 | 60277 | 68944
6 | 15:19.20 | 5:47.57 | 68945 | 95026
7 | 21:07.02 | 3:13.38 | 95027 | 109539
8 | 24:20.40 | 4:52.40 | 109540 | 131479
9 | 29:13.05 | 3:04.22 | 131480 | 145301
10 | 32:17.27 | 7:01.05 | 145302 | 176881
11 | 39:18.32 | 4:07.13 | 176882 | 195419
12 | 43:25.45 | 3:09.05 | 195420 | 209599
13 | 46:34.50 | 1:16.30 | 209600 | 215329
14 | 47:51.05 | 1:23.17 | 215330 | 221571
15 | 49:14.22 | 2:32.53 | 221572 | 233024
16 | 51:47.00 | 1:29.37 | 233025 | 239736
17 | 53:16.37 | 4:16.18 | 239737 | 258954
Range status and errors
Selected range
Filename D:\temp\Music\Naxos_8.503229 - Lully - The Grand Motets\CD3\Lully - The Grand Motets - CD3.wav
Peak level 98.5 %
Extraction speed 2.7 X
Range quality 100.0 %
Test CRC AC878282
Copy CRC AC878282
Copy OK
No errors occurred
AccurateRip summary
Track 1 accurately ripped (confidence 4) [667C84C0] (AR v2)
Track 2 accurately ripped (confidence 4) [0F8BBE8E] (AR v2)
Track 3 accurately ripped (confidence 4) [CBA8CFEA] (AR v2)
Track 4 accurately ripped (confidence 4) [2657347F] (AR v2)
Track 5 accurately ripped (confidence 4) [5767609E] (AR v2)
Track 6 accurately ripped (confidence 4) [74CA8017] (AR v2)
Track 7 accurately ripped (confidence 4) [3B05A2CB] (AR v2)
Track 8 accurately ripped (confidence 4) [4B27CF09] (AR v2)
Track 9 accurately ripped (confidence 4) [18591ECF] (AR v2)
Track 10 accurately ripped (confidence 4) [03FEBEA1] (AR v2)
Track 11 accurately ripped (confidence 4) [2A95D105] (AR v2)
Track 12 accurately ripped (confidence 4) [A3F381C4] (AR v2)
Track 13 accurately ripped (confidence 4) [D42FF655] (AR v2)
Track 14 accurately ripped (confidence 4) [FDF84D40] (AR v2)
Track 15 accurately ripped (confidence 4) [F5E5AAC8] (AR v2)
Track 16 accurately ripped (confidence 4) [44D8808F] (AR v2)
Track 17 accurately ripped (confidence 4) [B68D3E58] (AR v2)
All tracks accurately ripped
End of status report
==== Log checksum 4855CB02E78EE42885A9C4AA0C6830AE37DBE9915FDAFEAE64223A7659E502F1 ====
[teatrix.ru].t20417.torrent 
Торрент: Зарегистрирован [ 2016-03-19 20:36 ] · 6DE532A82901659C0D39D3C7321A10619C087072

Скачать .torrent

Скачать

34 KB

Статус: проверено
Скачан: 0 раз
Размер: 821 MB
terms.php



Быстрый ответ

Имя:

      
Для отправки сообщений необходимо включить JavaScript
Показать сообщения:    

Текущее время: 09-Дек 18:34

Часовой пояс: UTC + 3


Вы можете начинать темы
Вы можете отвечать на сообщения
Вы не можете редактировать свои сообщения
Вы не можете удалять свои сообщения
Вы не можете голосовать в опросах
Вы не можете прикреплять файлы к сообщениям
Вы можете скачивать файлы