Робер Оссейн: интервью каналу RTF / Cinepanorama: Robert Hossein RTF Interview (Франсуа Шале / Francois Chalais) [06.06.1964, документальный, кинематограф, DVDRip-AVC] VO + Original (Fre) + Sub (Rus)


Статистика раздачи [Обновить пиров]
Размер:  89 MB   |    Зарегистрирован:  8 месяцев 22 дня   |    Скачан:  0 раз

Полного источника не было: Никогда

 
   
 
 
 

[Цитировать]

Робер Оссейн: интервью каналу RTF
Cinépanorama: Robert Hossein RTF Interview- Дата/Год выпуска: 06.06.1964
Страна: Франция
Жанр: документальный, кинематограф
Продолжительность: 00:06:34
Перевод: Одноголосый закадровый (Andi)
Русские субтитры: есть
Формат субтитров: softsub (SRT)
Доп. информация о субтитрах: инициатор Алексей Проскуряков aka Aleks Punk
Оригинальная аудиодорожка: французский
Режиссер: Франсуа Шале / François ChalaisОписание: Самый большой успех Робер Оссейн имел в роли графа Тулузского Жоффрея де Пейрака в экранизациях Бернара Бордери пяти романов Анн и Серж Голон об Анжелике, где его партнёршей стала французская актриса Мишель Мерсье. Интервью после выхода первого фильма цикла "Анжелика — маркиза ангелов" берет журналист, киновед, писатель и режиссер Франсуа Шале / François Chalais, в честь которого ежегодно вручается приз за заслуги в журналистике на кинофестивале в Каннах.
Доп. информация: Интервью вышло на 3-х-дисковом DVD-сборнике "Reflets de Cannes & Cinépanorama" в 2011 году. За предоставленный материал благодарность Aleks Punk.

качество: DVDRip-AVC
формат: MKV
Видео: AVC (H.264), 640x480 (4:3), 25 fps, ~1500 kbps avg, 0.195 bit/pixel
Аудио 1: AC3, 2 ch, 48 kHz, ~192.00 kbps avg - русский
Аудио 2: AC3, 2 ch, 48 kHz, ~192.00 kbps avg - французский

Пример субтитров

1
00:00:04,620 --> 00:00:07,900
- Робер Оссейн, мы как-то
беседовали с вами,
2
00:00:08,020 --> 00:00:18,420
я сказал вам в шутку, что для меня Робер Оссейн -
это актер, который хотел бы быть автором,
который не прочь побыть режиссером...
3
00:00:18,540 --> 00:00:22,620
То есть ты никогда не знаешь с кем
имеешь дело, когда речь заходит о вас.
Вы сами знаете?
4
00:00:23,620 --> 00:00:26,580
- Нет, то есть я никогда
не знаю кто я в данный момент.
5
00:00:26,660 --> 00:00:29,620
Но я отлично знаю, кем я хотел бы быть.
- Ага, объясните, пожалуйста.
6
00:00:30,540 --> 00:00:35,140
- Не знаю... Я актер и обожаю мою
профессию, но...
7
00:00:35,460 --> 00:00:40,540
мне кажется, что я лучше делаю
эту работу, если роль, которую мне нужно
сыграть, для меня интереснее, чем другие роли.
8
00:00:40,660 --> 00:00:44,060
И тогда я мечтаю быть
хорошим режиссером.
9
00:00:44,180 --> 00:00:51,220
Поэтому мне кажется, что я все еще в поиске,
я продолжаю учиться профессии
10
00:00:51,580 --> 00:00:58,300
как можно лучше, потому что мне
это очень нравится... Я не занимаюсь этим
только для того, чтобы заниматься режиссурой.
11
00:00:59,620 --> 00:01:03,580
Что касается авторства, я думаю, что
автор я совсем вторичный.
12
00:01:03,700 --> 00:01:08,820
Я не автор, я часто сочиняю сюжеты,
которые я играю...
13
00:01:08,900 --> 00:01:15,900
Но потом есть адаптаторы и авторы диалогов,
которые отлично с этим справляются.
Я не претендую на то, чтобы заниматься
всеми этими профессиями сразу,
14
00:01:16,100 --> 00:01:19,500
Мне трудно уже быть просто актером.
15
00:01:19,580 --> 00:01:22,700
- А если я вас, например, спрошу, какая у вас
профессия. Что вы ответите?
16
00:01:23,700 --> 00:01:25,940
- Трудно так сходу ответить,
наверно актер.
17
00:01:26,100 --> 00:01:32,260
Но мечтаю стать режиссером, я мечтаю,
может быть, стать режиссером в тот день,
когда ясно пойму,
что могу быть режиссером.
18
00:01:32,420 --> 00:01:37,540
- Я думаю, что вы ищете в вашей профессии, в том,
чем вы занимаетесь,
- Да.
19
00:01:37,660 --> 00:01:40,300
- чего-то большего, чем реализм
или идеализм - удовольствия.
20
00:01:40,620 --> 00:01:49,780
- Удовольствие, да, но наверно все-таки...
удовольствие не только для меня,
это удовольствие я хотел бы

MediaInfo

Общее
Уникальный идентификатор : 242321611502889026652521011512863731985 (0xB64D71DCE0648ACE9B0C70409C11B111)
Полное имя : H:\My Torrents\[apreder]Documentary_Shorts\[apreder]Cinepanorama_Robert_Hossein_RTF_Interview(1964)DVDRip.mkv
Формат : Matroska
Версия формата : Version 2
Размер файла : 89,0 Мбайт
Продолжительность : 6 м. 36 с.
Общий поток : 1884 Кбит/сек
Дата кодирования : UTC 2015-11-14 10:28:56
Программа кодирования : mkvmerge v8.5.2 ('Crosses') 64bit
Библиотека кодирования : libebml v1.3.3 + libmatroska v1.4.4
Attachements : cover.jpg / cover_small.jpg
TITLE : Cinépanorama: Robert Hossein RTF Interview
DATE_RELEASED : 1964-06-06
LAW_RATING : 16+
GENRE : Documentary
DIRECTOR : François Chalais
KEYWORDS : rutracker.org
Видео
Идентификатор : 1
Формат : AVC
Формат/Информация : Advanced Video Codec
Профиль формата : High@L4.1
Параметр CABAC формата : Да
Параметр ReFrames формата : 16 кадров
Идентификатор кодека : V_MPEG4/ISO/AVC
Продолжительность : 6 м. 36 с.
Битрейт : 1500 Кбит/сек
Ширина : 640 пикселей
Высота : 480 пикселей
Соотношение сторон : 4:3
Режим частоты кадров : Постоянный
Частота кадров : 25,000 кадров/сек
Цветовое пространство : YUV
Субдискретизация насыщенности : 4:2:0
Битовая глубина : 8 бит
Тип развёртки : Прогрессивная
Бит/(Пиксели*Кадры) : 0.195
Размер потока : 69,1 Мбайт (78%)
Библиотека кодирования : x264 core 144 r2525 40bb568
Настройки программы : cabac=1 / ref=16 / deblock=1:-1:-1 / analyse=0x3:0x133 / me=umh / subme=10 / psy=1 / psy_rd=1.00:0.15 / mixed_ref=1 / me_range=24 / chroma_me=1 / trellis=2 / 8x8dct=1 / cqm=0 / deadzone=21,11 / fast_pskip=1 / chroma_qp_offset=-3 / threads=6 / lookahead_threads=1 / sliced_threads=0 / nr=0 / decimate=1 / interlaced=0 / bluray_compat=0 / constrained_intra=0 / bframes=8 / b_pyramid=2 / b_adapt=2 / b_bias=0 / direct=3 / weightb=1 / open_gop=0 / weightp=2 / keyint=250 / keyint_min=25 / scenecut=40 / intra_refresh=0 / rc_lookahead=60 / rc=2pass / mbtree=1 / bitrate=1500 / ratetol=1.0 / qcomp=0.60 / qpmin=0 / qpmax=69 / qpstep=4 / cplxblur=20.0 / qblur=0.5 / vbv_maxrate=62500 / vbv_bufsize=78125 / nal_hrd=none / filler=0 / ip_ratio=1.40 / aq=1:1.00
Default : Да
Forced : Нет
Аудио #1
Идентификатор : 2
Формат : AC-3
Формат/Информация : Audio Coding 3
Расширение режима : CM (complete main)
Параметр Endianness формата : Big
Идентификатор кодека : A_AC3
Продолжительность : 6 м. 36 с.
Вид битрейта : Постоянный
Битрейт : 192 Кбит/сек
Каналы : 2 канала
Расположение каналов : Front: L R
Частота : 44,1 КГц
Метод сжатия : С потерями
Размер потока : 9,07 Мбайт (10%)
Язык : Russian
Default : Нет
Forced : Нет
Аудио #2
Идентификатор : 3
Формат : AC-3
Формат/Информация : Audio Coding 3
Расширение режима : CM (complete main)
Параметр Endianness формата : Big
Идентификатор кодека : A_AC3
Продолжительность : 6 м. 36 с.
Вид битрейта : Постоянный
Битрейт : 192 Кбит/сек
Каналы : 2 канала
Расположение каналов : Front: L R
Частота : 48,0 КГц
Метод сжатия : С потерями
Размер потока : 9,07 Мбайт (10%)
Язык : French
Default : Да
Forced : Нет
Текст
Идентификатор : 4
Формат : UTF-8
Идентификатор кодека : S_TEXT/UTF8
Идентификатор кодека/Информация : UTF-8 Plain Text
Язык : Russian
Default : Да
Forced : Нет

Скриншоты

Резервные скриншоты

- [2'126]
[teatrix.ru].t20418.torrent 
Торрент: Зарегистрирован [ 2016-03-19 20:36 ] · 4438EFE18F44E0E9CC47610292A8CAD437AD4CBA

Скачать .torrent

Скачать

14 KB

Статус: проверено
Скачан: 0 раз
Размер: 89 MB
terms.php



Показать сообщения:    

Текущее время: 11-Дек 07:12

Часовой пояс: UTC + 3


Вы не можете начинать темы
Вы не можете отвечать на сообщения
Вы не можете редактировать свои сообщения
Вы не можете удалять свои сообщения
Вы не можете голосовать в опросах
Вы не можете прикреплять файлы к сообщениям
Вы можете скачивать файлы