(Oprera) Wagner - Tristan und Isolde (Gould, Stemme, Youn, Breedt, Reuter, Rundfunkchor Berlin, Eberhard Friedrich, Rundfunk-Sinfonieorchester Berlin, Marek Janowski) - 2012, FLAC (image+.cue), lossless


 

[Цитировать]

Wagner - Tristan und Isolde - Janowski
Жанр: Oprera
Страна-производитель диска: Germany
Год издания диска: 2012
Издатель (лейбл): PentaTone Classics
Номер по каталогу: PTC 5186 404
Дата записи: 27.03.2012
Аудиокодек: FLAC
Тип рипа: image+.cue
Битрейт аудио: lossless
Продолжительность: 76.40 + 75.37 + 72.34
Источник: собственный рип
Наличие сканов в содержимом раздачи: да

CD1:Треклист:

Act I
01. Vorspiel
02. Westwärts schweift der Blick
03. Frisch weht der Wind
04. Weh! Ach wehe!
05. Auf! Auf! Ihr Frauen!
06. Begehrt, Herrin
Total 76.40

Лог создания рипа:

Exact Audio Copy V1.0 beta 3 from 29. August 2011
Отчёт EAC об извлечении, выполненном 21. февраля 2015, 19:35
Richard Wagner / Wagner-Tristan und Isolde - CD1
Дисковод: _NEC DVD_RW ND-3570A Adapter: 2 ID: 0
Режим чтения : Скоростной
Коррекция смещения при чтении : 48
Способность читать области Lead-in и Lead-out : Нет
Заполнение пропущенных сэмплов тишиной : Да
Удаление блоков с тишиной в начале и конце : Нет
При вычислениях CRC использовались нулевые сэмплы : Да
Интерфейс : Встроенный Win32-интерфейс для Win NT/2000
Выходной формат : Пользовательский кодировщик
Выбранный битрейт : 896 kBit/s
Качество : Высокий
Добавление ID3-тега : Нет
Утилита сжатия : C:\Program Files\FLAC Frontend\tools\flac.exe
Дополнительные параметры : -V -8 -T "Date=%year%" -T "Genre=%genre%" %source%
TOC извлечённого CD
Трек | Старт | Длительность | Начальный сектор | Конечный сектор
---------------------------------------------------------------------
1 | 0:00.00 | 10:26.13 | 0 | 46962
2 | 10:26.13 | 5:26.57 | 46963 | 71469
3 | 15:52.70 | 9:40.48 | 71470 | 115017
4 | 25:33.43 | 18:30.46 | 115018 | 198313
5 | 44:04.14 | 7:28.15 | 198314 | 231928
6 | 51:32.29 | 25:07.70 | 231929 | 345023
Характеристики диапазона извлечения и сообщения об ошибках
Выбранный диапазон
Имя файла N:\Wagner - Tristan und Isolde - Janowski\CD1\Richard Wagner - Wagner-Tristan und Isolde - CD1.wav
Пиковый уровень 94.5 %
Скорость извлечения 15.1 X
CRC теста 841ACF4C
CRC копии 841ACF4C
Копирование... OK
Ошибок не произошло
AccurateRip: сводка
Трек 1 : извлечено точно (доверие 9) [13E29F99] (AR v2)
Трек 2 : извлечено точно (доверие 9) [166B6122] (AR v2)
Трек 3 : извлечено точно (доверие 9) [766E007E] (AR v2)
Трек 4 : извлечено точно (доверие 9) [7A425D52] (AR v2)
Трек 5 : извлечено точно (доверие 9) [D58EB9B9] (AR v2)
Трек 6 : извлечено точно (доверие 9) [5059273A] (AR v2)
Все треки извлечены точно
Конец отчёта
==== Контрольная сумма отчёта EF156125BDDA947789660EB527BED878DE598F386A2932E9A913DE9CE361972D ====

CD2:Треклист:

Act II
01. Vorspiel
02. Hörst du sie noch
03. Isolde! Geliebte!
04. O sink hernieder, Nacht der Liebe
05. Rette dich, Tristan
06. Tatest du's wirklich?
Total 75.37

Лог создания рипа:

Exact Audio Copy V1.0 beta 3 from 29. August 2011
Отчёт EAC об извлечении, выполненном 21. февраля 2015, 19:57
Richard Wagner / Tristan und Isolde - CD2
Дисковод: _NEC DVD_RW ND-3570A Adapter: 2 ID: 0
Режим чтения : Скоростной
Коррекция смещения при чтении : 48
Способность читать области Lead-in и Lead-out : Нет
Заполнение пропущенных сэмплов тишиной : Да
Удаление блоков с тишиной в начале и конце : Нет
При вычислениях CRC использовались нулевые сэмплы : Да
Интерфейс : Встроенный Win32-интерфейс для Win NT/2000
Выходной формат : Пользовательский кодировщик
Выбранный битрейт : 896 kBit/s
Качество : Высокий
Добавление ID3-тега : Нет
Утилита сжатия : C:\Program Files\FLAC Frontend\tools\flac.exe
Дополнительные параметры : -V -8 -T "Date=%year%" -T "Genre=%genre%" %source%
TOC извлечённого CD
Трек | Старт | Длительность | Начальный сектор | Конечный сектор
---------------------------------------------------------------------
1 | 0:00.00 | 1:48.04 | 0 | 8103
2 | 1:48.04 | 13:09.63 | 8104 | 67341
3 | 14:57.67 | 16:32.40 | 67342 | 141781
4 | 31:30.32 | 21:40.46 | 141782 | 239327
5 | 53:11.03 | 1:32.22 | 239328 | 246249
6 | 54:43.25 | 20:53.50 | 246250 | 340274
Характеристики диапазона извлечения и сообщения об ошибках
Выбранный диапазон
Имя файла N:\Wagner - Tristan und Isolde - Janowski\CD2\Richard Wagner - Tristan und Isolde - CD2.wav
Пиковый уровень 95.7 %
Скорость извлечения 15.0 X
CRC теста 3E9B93AD
CRC копии 3E9B93AD
Копирование... OK
Ошибок не произошло
AccurateRip: сводка
Трек 1 : извлечено точно (доверие 9) [71E6B9B1] (AR v2)
Трек 2 : извлечено точно (доверие 9) [E1EC8DE4] (AR v2)
Трек 3 : извлечено точно (доверие 9) [B2E8B8E7] (AR v2)
Трек 4 : извлечено точно (доверие 9) [8927EA0E] (AR v2)
Трек 5 : извлечено точно (доверие 9) [E7D13289] (AR v2)
Трек 6 : извлечено точно (доверие 9) [0F248176] (AR v2)
Все треки извлечены точно
Конец отчёта
==== Контрольная сумма отчёта 1DDB3806CE2D51F4EFB09F834B74FC126E397A734C03779C79534CD76D7CBC9E ====

CD3:Треклист:

Act III
01. Vorspiel
02. Kurwenal! He!
03. Die alte Weise sagt mir’s wieder
04. O, diese Sonne!
05. Ha! Ich bin's, süssester Freund!
06. Kurwenal! Hör!
07. Mild und leise
Total 72.34

Лог создания рипа:

Exact Audio Copy V1.0 beta 3 from 29. August 2011
Отчёт EAC об извлечении, выполненном 21. февраля 2015, 20:20
Richard Wagner / Tristan und Isolde - CD3
Дисковод: _NEC DVD_RW ND-3570A Adapter: 2 ID: 0
Режим чтения : Скоростной
Коррекция смещения при чтении : 48
Способность читать области Lead-in и Lead-out : Нет
Заполнение пропущенных сэмплов тишиной : Да
Удаление блоков с тишиной в начале и конце : Нет
При вычислениях CRC использовались нулевые сэмплы : Да
Интерфейс : Встроенный Win32-интерфейс для Win NT/2000
Выходной формат : Пользовательский кодировщик
Выбранный битрейт : 896 kBit/s
Качество : Высокий
Добавление ID3-тега : Нет
Утилита сжатия : C:\Program Files\FLAC Frontend\tools\flac.exe
Дополнительные параметры : -V -8 -T "Date=%year%" -T "Genre=%genre%" %source%
TOC извлечённого CD
Трек | Старт | Длительность | Начальный сектор | Конечный сектор
---------------------------------------------------------------------
1 | 0:00.00 | 4:01.09 | 0 | 18083
2 | 4:01.09 | 29:00.60 | 18084 | 148643
3 | 33:01.69 | 16:49.09 | 148644 | 224327
4 | 49:51.03 | 3:05.73 | 224328 | 238275
5 | 52:57.01 | 5:23.42 | 238276 | 262542
6 | 58:20.43 | 8:02.50 | 262543 | 298742
7 | 66:23.18 | 6:10.47 | 298743 | 326539
Характеристики диапазона извлечения и сообщения об ошибках
Выбранный диапазон
Имя файла N:\Wagner - Tristan und Isolde - Janowski\CD3\Richard Wagner - Tristan und Isolde - CD3.wav
Пиковый уровень 90.2 %
Скорость извлечения 14.9 X
CRC теста 5EEC77B1
CRC копии 5EEC77B1
Копирование... OK
Ошибок не произошло
AccurateRip: сводка
Трек 1 : извлечено точно (доверие 9) [E1FFE680] (AR v2)
Трек 2 : извлечено точно (доверие 9) [47966444] (AR v2)
Трек 3 : извлечено точно (доверие 9) [A35408B6] (AR v2)
Трек 4 : извлечено точно (доверие 9) [E4980A91] (AR v2)
Трек 5 : извлечено точно (доверие 9) [87260D28] (AR v2)
Трек 6 : извлечено точно (доверие 9) [8E8442F7] (AR v2)
Трек 7 : извлечено точно (доверие 9) [0D86D42B] (AR v2)
Все треки извлечены точно
Конец отчёта
==== Контрольная сумма отчёта 3B82AFE04B63C6CB9331A6CFA9C9F6EC126941B78A6B7E5EBC6E33D1CBFC3EBD ====

Исполнители:

Stephen Gould - Tristan
Nina Stemme - Isolde
Kwangchul Youn - König Mark
Johan Reuter - Kurwenal
Michele Breedt - Brangäne
Simon Pauly - Melot
Clemens Bieber - Ein Hirte
Arttu Kataja - Ein Steuermann
Timothy Fallon - Ein junger Seeman
Rundfunkchor Berlin, Eberhard Friedrich
Rundfunk-Sinfonieorchester Berlin
Marek Janowski



Показать сообщения:    

Текущее время: 04-Дек 11:12

Часовой пояс: UTC + 3


Вы не можете начинать темы
Вы не можете отвечать на сообщения
Вы не можете редактировать свои сообщения
Вы не можете удалять свои сообщения
Вы не можете голосовать в опросах
Вы не можете прикреплять файлы к сообщениям
Вы не можете скачивать файлы