[TR24][SM][OF] Vox Cosmica (Hildegard von Bingen, Petrus Abaelardus, Petter Udland Johansen) - Arianna Savall & Hirundo Maris - 2015 (Classical)


Статистика раздачи [Обновить пиров]
Размер:  1.46 GB   |    Зарегистрирован:  8 месяцев 14 дней   |    Скачан:  1 раз

Полного источника не было: 2 месяца 8 дней

 
   
 
 
 

[Цитировать]

·Petrus Abaelardus (1079 – 1142)
Hildegard von Bingen (1098 – 1179)
Petter Udland Johansen (*1971)
Жанр: Vocal Music
Носитель: Official Digital Download
Год издания диска: 2014
Издатель(лейбл): Carpe Diem Records
Номер по каталогу: CD-16304
Продолжительность: 01:17:35
Наличие сканов в содержимом раздачи: booklet, inlay, sleeve
Контейнер: FLAC (*.flac)
Разрядность: 24/96
Количество каналов: 2.0
Формат: tracks
Источник: prestoclassical.co.uk
Pелизер: WEB (thanks to the original customer)
http://www.carpediem-records.de/en/vox-cosmica
http://www.prestoclassical.co.uk/search.php?searchString=vox+cosmica

Треклист

01. Hildegard von Bingen Responsorium: O tu suavissima virga 15:14
02. Hildegard von Bingen Antiphona: Karitas habundat 5:57
03. Petter Udland Johansen Meditation I 4:54
04. Petrus Abaelardus Sequentia: Planctus David 16:00
05. Petter Udland Johansen Meditation II 4:09
06. Hildegard von Bingen Responsorium: Ave Maria 10:26
07. Petter Udland Johansen Meditation III 4:33
08. Hildegard von Bingen Antiphona: O quam mirabilis 7:57
09. Petter Udland Johansen Meditation IV 4:27
10. Hildegard von Bingen Antiphona: O virtus Sapientie 6:21
11. Hildegard von Bingen Ave Generosa 9:51 MP3 Bonus Track
musical arrangements: A. Savall and P. U. Johansen

Hirundo Maris

Arianna SavallVoice, Medieval Harp, Italian Triple Harp, Lyra, Tibetan Singing Bowl
Petter Udland JohansenVoice, Hardingfele, Lyra, Fiddle, Monochord
Andreas SpindlerFlutes, Fiddle, Romain Bells, Colascione, Tromba Marina, Voice
Anke SpindlerNyckelharpa, Fiddles, Viola da Gamba, Voice
David MayoralSantur, Percussion, Romain Bells, Voice

Dynamic Range Meter

oobar2000 1.2.6 / Dynamic Range Meter 1.1.1
log date: 2015-02-21 22:48:26
--------------------------------------------------------------------------------
Analyzed: Hirundo Maris, Arianna Savall / Hildegard von Bingen: Vox cosmica (1-5)
Hirundo Maris, Petter Udland Johansen / Hildegard von Bingen: Vox cosmica (6)
Hirundo Maris / Hildegard von Bingen: Vox cosmica (7-10)
--------------------------------------------------------------------------------
DR Peak RMS Duration Track
--------------------------------------------------------------------------------
DR9 -0.97 dB -14.91 dB 12:52 01-O tu suavissima virga (Responsorium)
DR12 -0.98 dB -18.40 dB 5:58 02-Karitas habundat (Antiphona)
DR11 -0.97 dB -16.59 dB 10:27 06-Ave Maria (Responsorium)
DR13 -0.97 dB -19.19 dB 7:57 08-O quam mirabilis (Antiphona)
DR12 -0.97 dB -18.40 dB 6:22 10-O virtus Sapientie (Antiphona)
DR14 -0.97 dB -19.78 dB 16:01 04-Dolorum solatium, "Planctus David super Saul et Jonatha"
DR11 -6.74 dB -22.33 dB 4:55 03-Meditation No. 1
DR13 -0.97 dB -19.09 dB 4:09 05-Meditation No. 2
DR12 -1.64 dB -18.42 dB 4:34 07-Meditation No. 3
DR11 -0.97 dB -14.92 dB 4:28 09-Meditation No. 4
--------------------------------------------------------------------------------
Number of tracks: 10
Official DR value: DR12
Samplerate: 96000 Hz
Channels: 2
Bits per sample: 24
Bitrate: 2883 kbps
Codec: FLAC
================================================================================
[teatrix.ru].t20420.torrent 
Торрент: Зарегистрирован [ 2016-03-19 20:36 ] · 8E15A2743F60D354F96A2B30784325A4B49BA541

Скачать .torrent

Скачать

16 KB

Статус: проверено
Скачан: 1 раз
Размер: 1.46 GB
terms.php



Быстрый ответ

Имя:

      
Для отправки сообщений необходимо включить JavaScript
Показать сообщения:    

Текущее время: 03-Дек 05:27

Часовой пояс: UTC + 3


Вы можете начинать темы
Вы можете отвечать на сообщения
Вы не можете редактировать свои сообщения
Вы не можете удалять свои сообщения
Вы не можете голосовать в опросах
Вы не можете прикреплять файлы к сообщениям
Вы можете скачивать файлы