[TR24][OF] Clare Hammond - Etude (Сергей Ляпунов / Sergei Lyapunov, 진은숙 / Unsuk Chin, Karol Szymanowski, Николай Капустин / Nikolai Kapustin) - 2014 (Classical, Piano)


Статистика раздачи [Обновить пиров]
Размер:  1020 MB   |    Зарегистрирован:  8 месяцев 16 дней   |    Скачан:  0 раз

Полного источника не было: Никогда

 
   
 
 
 

[Цитировать]

Clare Hammond
Etude
Sergei Lyapunov · Unsuk Chin
Karol Szymanowski · Nikolai Kapustin
-Год издания: 2014 | Жанр: Classical, Piano
Издатель: BIS | Продолжительность: 01:07:22
Наличие сканов: Sleeve, Digital Booklet- -Clare Hammond (piano)-Контейнер: FLAC (*.flac) | Тип рипа: tracks
Разрядность: 24bit / 96kHz | Количество каналов: 2.0
-

ТреклистSergei Lyapunov (1859 - 1924)
12 Études d’exécution transcendante, Op. 11 (excerpts) (1897 - 1900)
01.Étude IV. Térek. Allegro impetuoso (4:11)
02. Étude V. Nuit d’été. Lento ma non troppo (8:28)
03. Étude VI. Tempête. Allegro agitato molto (4:33)
Unsuk Chin (born 1961)
Piano Études (1995 - 2003)
04. I. in C (3:23)
05. II. Sequenzen (2:45)
06. III. Scherzo ad libitum (3:13)
07. IV. Scalen (2:51)
08. V. Toccata (2:48)
09. VI. Grains (4:14)
Karol Szymanowski (1882 - 1937)
12 Studies, Op.33 (1916)
10. 1. Presto (1:17)
11. 2. Andantino soave (1:22)
12. 3. Vivace assai (0:36)
13. 4. Presto (1:24)
14. 5. Andante espressivo (0:56)
15. 6. Vivace (0:34)
16. 7. Allegro molto (0:49)
17. 8. Lento assai mesto (1:47)
18. 9. Animato (1:00)
19. 10. Presto. Tempestoso (1:05)
20. 11. Andante soave (1:31)
21. 12. Presto (1:49)
Nikolai Kapustin (born 1937)
Five Études in Different Intervals, Op.68 (1992)
22. 1. Allegro [In minor seconds] (3:23)
23. 2. Allegro [In fourths] (3:06)
24. 3. Animato [In sixths] (2:44)
25. 4. Vivace [In major seconds] (3:11)
26. 5. Animato [In octaves] (4:23)

О релизе


As Clare Hammond writes in the liner notes to her thought-provoking selection of piano études, the genre, at its best, ‘combines the visceral excitement of technical display with expressive, coloristic and compositional ingenuity’. Opening with three studies from Sergei Lyapunov’s 12 Études d’exécution transcendante, composed around the turn of the last century, the programme demonstrates the tremendous developments that have taken place in writing for the piano over the past 120 years. Lyapunov modelled his ample études directly on Liszt’s set with the same title, and they epitomise the drama and passion of late Romanticism, fused with a distinctly Russian colour. In comparison, Szymanowski’s set of 12 Studies, written in 1916, are miniatures whose mercurial timbres and fleet textures suggest an affinity with Debussy’s études, composed one year earlier. ‘Twelve small piano pieces forming one whole, interesting technically, difficult’ is how Szymanowski described the set to his publisher. Born in the same year that Szymanowski died, Nikolai Kapustin initially set out to become a classical pianist, but at the age of 16 began to study jazz. In his early twenties he decided to focus on composition, and the Five Études in Different Intervals are characteristic of his output in that they fuse formal classical structures with jazz idioms. Of the four composers represented on this disc, Unsuk Chin is the only one who never trained as a pianist. Her six Études, the most recent set on this disc, are natural successors to those by Ligeti with whom Chin studied and reflect her fascination with virtuosity and the playful side of music-making
Recorded September 2013 at Potton Hal, Suffolk

ОтчётыДинамический диапазон

foobar2000 1.2.2 / Dynamic Range Meter 1.1.1
log date: 2015-02-21 19:52:55
--------------------------------------------------------------------------------
Analyzed: Clare Hammond / Etude
--------------------------------------------------------------------------------
DR Peak RMS Duration Track
--------------------------------------------------------------------------------
DR12 -3.43 dB -19.63 dB 4:11 ?-12 Études d’exécution transcendante (excerpts) - Étude IV. Térek. Allegro impetuoso
DR15 -4.70 dB -27.24 dB 8:28 ?-12 Études d’exécution transcendante (excerpts) - Étude V. Nuit d’été. Lento ma non troppo
DR11 -3.24 dB -18.98 dB 4:33 ?-12 Études d’exécution transcendante (excerpts) - Étude VI. Tempête. Allegro agitato molto
DR13 -5.26 dB -23.01 dB 3:23 ?-Piano Études - I. in C
DR13 -1.10 dB -20.90 dB 2:45 ?-Piano Études - II. Sequenzen
DR13 -0.46 dB -21.28 dB 3:13 ?-Piano Études - III. Scherzo ad libitum
DR15 -1.35 dB -21.48 dB 2:51 ?-Piano Études - IV. Scalen
DR14 -2.63 dB -21.91 dB 2:48 ?-Piano Études - V. Toccata
DR18 -3.13 dB -26.53 dB 4:14 ?-Piano Études - VI. Grains
DR13 -10.05 dB -26.29 dB 1:17 ?-12 Studies - 1. Presto
DR12 -14.08 dB -31.07 dB 1:22 ?-12 Studies - 2. Andantino soave
DR10 -0.54 dB -17.08 dB 0:36 ?-12 Studies - 3. Vivace assai
DR12 -14.28 dB -31.46 dB 1:24 ?-12 Studies - 4. Presto
DR10 -11.04 dB -29.93 dB 0:56 ?-12 Studies - 5. Andante espressivo
DR11 -2.96 dB -17.97 dB 0:34 ?-12 Studies - 6. Vivace
DR12 -4.88 dB -20.24 dB 0:49 ?-12 Studies - 7. Allegro molto
DR13 -5.19 dB -28.28 dB 1:47 ?-12 Studies - 8. Lento assai mesto
DR12 -8.55 dB -26.09 dB 1:00 ?-12 Studies - 9. Animato
DR12 -1.94 dB -20.97 dB 1:05 ?-12 Studies - 10. Presto. Tempestoso
DR14 -5.13 dB -27.25 dB 1:31 ?-12 Studies - 11. Andante soave
DR12 -3.20 dB -19.66 dB 1:49 ?-12 Studies - 12. Presto
DR14 -4.67 dB -21.99 dB 3:23 ?-Five Études in Different Intervals - 1. Allegro [In minor seconds]
DR13 -8.10 dB -24.29 dB 3:06 ?-Five Études in Different Intervals - 2. Allegro [In fourths]
DR14 -3.56 dB -23.05 dB 2:44 ?-Five Études in Different Intervals - 3. Animato [In sixths]
DR14 -4.69 dB -22.26 dB 3:11 ?-Five Études in Different Intervals - 4. Vivace [In major seconds]
DR14 -1.97 dB -19.83 dB 4:23 ?-Five Études in Different Intervals - 5. Animato [In octaves]
--------------------------------------------------------------------------------
Number of tracks: 26
Official DR value: DR13
Samplerate: 96000 Hz
Channels: 2
Bits per sample: 24
Bitrate: 2169 kbps
Codec: FLAC
================================================================================

Скриншот спектра частот

Доп. информация

При скачивании, если необходимо, переименуйте папку, в которой будет находиться альбомБольшая просьба к скачавшим поддерживать раздачу! Помогайте другим, ведь вам тоже может понадобиться помощь!Не забываем говорить "Спасибо"!Комментарии приветствуются!
[teatrix.ru].t20421.torrent 
Торрент: Зарегистрирован [ 2016-03-19 20:36 ] · E3A0EEB5487FC4B26DA1CAEECF3A599639E6AD6A

Скачать .torrent

Скачать

23 KB

Статус: проверено
Скачан: 0 раз
Размер: 1020 MB
terms.php



Быстрый ответ

Имя:

      
Для отправки сообщений необходимо включить JavaScript
Показать сообщения:    

Текущее время: 04-Дек 21:25

Часовой пояс: UTC + 3


Вы можете начинать темы
Вы можете отвечать на сообщения
Вы не можете редактировать свои сообщения
Вы не можете удалять свои сообщения
Вы не можете голосовать в опросах
Вы не можете прикреплять файлы к сообщениям
Вы можете скачивать файлы