Кант (Миндаугас Карбаускис) [2014 г., о критике чистого разума, SATRip] Московский академический театр им. В.Маяковского


 

[Цитировать]

Кант (2 акта) Название театра: Московский академический театр им. В.Маяковского.
Год выпуска: 2014.
Жанр: о критике чистого разума.
Продолжительность: 01:27:31 + 01:16:55 (02:44:26).
Режиссеры: Миндаугас Карбаускис, Максим Рязанский.
Действующие лица и исполнители:
Иммануил Кант - народный артист России Михаил Филиппов,
Мартин Лямпе - народный артист России Анатолий Лобоцкий,
Фоби Грин - Юлия Соломатина,
Иоганн Шульц - народный артист России Игорь Костолевский,
Иоганн Вигилянтий - заслуженный артист России Александр Андриенко,
Иоганн Шефнер - Виктор Запорожский,
Йоэль - Юрий Коренев,
Фридерика-Ребекка - Вера Панфилова,
Анна-Регина - народная артистка России Светлана Немоляева,
Иоганн Кауфман - Нияз Гаджиев.
Описание:
Действие совершается приблизительно в ноябре 1784 года в Кёнигсберге, Принцессинштрассе 3, в доме, принадлежащем Канту.
В пространстве художника Сергея Бархина – в шестиграннике-амфитеатре, покрытом алым бархатом – пройдет обед философа Иммануила Канта. Точнее спектакль-обед. О чем пойдет речь? В Кенигсберге безоблачное небо и все хорошо. Точнее, плохо: с природой что-то не то, не улетают птицы и не опадают яблоки. У Канта традиционный обед с гостями: как известно, Кант выработал некие правила обеда и застольной беседы – шутка способствует пищеварению, застольная беседа – великое искусство и не надо перескакивать в диалоге с одного предмета на другой, разговор должен быть ровным, без страстей и так далее. В этом искусстве компании нет равных.
И вот по этим законам за трапезой течет медленный необязательный разговор – о необходимости женщин и счастье жить без них, о том, почему шатаются стулья и каким образом французы подняли в небо воздушный шар. Канта вообще беспокоит здоровье. Мужской разговор прерывает звонок в дверь – это девушка Фоби из Шотландии, племянница местного Джозефа Грина, приятеля Канта. Приехала за автографом – с томиком только что изданной "Критики чистого разума". Фоби молода, красива и плохо говорит по-немецки, но очень хочет понять содержание философии Канта. Кант сначала нехотя объясняет, а потом сдается и раскладывает человека по полочкам: на ум, воображение, наконец любовь. Девушка уходит и исчезает. Компания идет ее искать по Кенигсбергу, заходит к Грину и выясняет, что его племянница давно мертва... Кто же заходил на обед к Канту? Почему интересовался человеческой природой?

Дополнительная информация:
Страна: Россия .
Выпущено: © Компания "Шар", © Центр Стаса Намина, © Правительство Москвы.
Режиссер спектакля: Миндаугас Карбаускис.
Автор: Марюс Ивашкявичюс.
Автор перевода: Георгий Ефремов.
Сценография: Сергей Бархин.
Художник по костюмам: Наталья Войнова.
Художник по свету: Сергей Скорнецкий.
Художественный руководитель театра: Миндаугас Карбаускис.
Премьера состоялась 17 декабря 2013 года на Основной сцене, с 7 ноября 2014 года идет на Сцене на Сретенке.
Режиссер телеверсии: Максим Рязанский.
Оператор-постановщик: Сергей Отрепьев.

О спектакле.
Релиз

Качество видео:...SATRip
Формат:.................AVI
Видео:..720x400 (1.80:1), 25 fps, DivX Codec 6.8.3 ~1752 kbps avg, 0.24 bit/pixel
Аудио:..44.100 kHz, MPEG Layer 3, 2 ch, ~128.00 kbps avg

Отчет MediaInfo

1-й акт
Общее
Полное имя : Kant_Moskovskij.teatr.im.Mayakovskogo.2014.XviD.SATRip.fenixclub\Kant_Moskovskij.teatr.im.Mayakovskogo.2014.1.akt.avi
Формат : AVI
Формат/Информация : Audio Video Interleave
Размер файла : 1,16 Гбайт
Продолжительность : 1 ч. 27 м.
Общий поток : 1890 Кбит/сек
Программа кодирования : VirtualDubModRus 1.5.10.2 (build 2542/release)
Библиотека кодирования : VirtualDub build 32842/release
Видео
Идентификатор : 0
Формат : MPEG-4 Visual
Параметр BVOP формата : 1
Параметр QPel формата : Нет
Параметр GMC формата : Без точки перехода
Параметр матрицы формата : Default (H.263)
Режим смешивания : Сжатый битовый поток
Идентификатор кодека : DX50
Идентификатор кодека/Подсказка : DivX 5
Продолжительность : 1 ч. 27 м.
Битрейт : 1753 Кбит/сек
Ширина : 720 пикселей
Высота : 400 пикселей
Соотношение сторон : 16:9
Частота кадров : 25,000 кадров/сек
Цветовое пространство : YUV
Субдискретизация насыщенности : 4:2:0
Битовая глубина : 8 бит
Тип развёртки : Прогрессивная
Метод сжатия : С потерями
Бит/(Пиксели*Кадры) : 0.243
Размер потока : 1,07 Гбайт (93%)
Библиотека кодирования : DivX 6.8.3-6.8.4 (UTC 2008-06-07)
Аудио
Идентификатор : 1
Формат : MPEG Audio
Версия формата : Version 1
Профиль формата : Layer 3
Режим : Joint stereo
Расширение режима : MS Stereo
Идентификатор кодека : 55
Идентификатор кодека/Подсказка : MP3
Продолжительность : 1 ч. 27 м.
Вид битрейта : Постоянный
Битрейт : 128 Кбит/сек
Каналы : 2 канала
Частота : 44,1 КГц
Метод сжатия : С потерями
Размер потока : 80,1 Мбайт (7%)
Выравнивание : Разделение по промежуткам
Продолжительность промежутка : 40 мс. (1,00 видеокадр)
Время предзагрузки промежутка : 500 мс.
2-й акт
Общее
Полное имя : Kant_Moskovskij.teatr.im.Mayakovskogo.2014.XviD.SATRip.fenixclub\Kant_Moskovskij.teatr.im.Mayakovskogo.2014.2.akt.avi
Формат : AVI
Формат/Информация : Audio Video Interleave
Размер файла : 1,02 Гбайт
Продолжительность : 1 ч. 16 м.
Общий поток : 1894 Кбит/сек
Программа кодирования : VirtualDubModRus 1.5.10.2 (build 2542/release)
Библиотека кодирования : VirtualDub build 32842/release
Видео
Идентификатор : 0
Формат : MPEG-4 Visual
Параметр BVOP формата : 1
Параметр QPel формата : Нет
Параметр GMC формата : Без точки перехода
Параметр матрицы формата : Default (H.263)
Режим смешивания : Сжатый битовый поток
Идентификатор кодека : DX50
Идентификатор кодека/Подсказка : DivX 5
Продолжительность : 1 ч. 16 м.
Битрейт : 1757 Кбит/сек
Ширина : 720 пикселей
Высота : 400 пикселей
Соотношение сторон : 16:9
Частота кадров : 25,000 кадров/сек
Цветовое пространство : YUV
Субдискретизация насыщенности : 4:2:0
Битовая глубина : 8 бит
Тип развёртки : Прогрессивная
Метод сжатия : С потерями
Бит/(Пиксели*Кадры) : 0.244
Размер потока : 966 Мбайт (93%)
Библиотека кодирования : DivX 6.8.3-6.8.4 (UTC 2008-06-07)
Аудио
Идентификатор : 1
Формат : MPEG Audio
Версия формата : Version 1
Профиль формата : Layer 3
Режим : Joint stereo
Расширение режима : MS Stereo
Идентификатор кодека : 55
Идентификатор кодека/Подсказка : MP3
Продолжительность : 1 ч. 16 м.
Вид битрейта : Постоянный
Битрейт : 128 Кбит/сек
Каналы : 2 канала
Частота : 44,1 КГц
Метод сжатия : С потерями
Размер потока : 70,4 Мбайт (7%)
Выравнивание : Разделение по промежуткам
Продолжительность промежутка : 40 мс. (1,00 видеокадр)
Время предзагрузки промежутка : 500 мс.

Скриншот с названием постановки

Скриншоты


Альтернативный хост





Показать сообщения:    

Текущее время: 11-Дек 13:01

Часовой пояс: UTC + 3


Вы не можете начинать темы
Вы не можете отвечать на сообщения
Вы не можете редактировать свои сообщения
Вы не можете удалять свои сообщения
Вы не можете голосовать в опросах
Вы не можете прикреплять файлы к сообщениям
Вы не можете скачивать файлы