(Baroque / Classical / Contemporary) Various - Harmony (Le Chant des Reves) (1999) (2CD, Compilation) - 1999, FLAC (image+.cue) lossless


 

[Цитировать]

Various - Harmony (Le Chant des Reves)
Жанр: Baroque / Classical / Contemporary
Страна-производитель диска: Europe
Год издания диска: 1999
Издатель (лейбл): Virgin
Номер по каталогу: 7243 8 47074 2 2
Аудиокодек: FLAC
Тип рипа: image+.cue
Битрейт аудио: lossless
Продолжительность: 2:34:51
Источник: Own rip
Наличие сканов в содержимом раздачи: да
Треклист:
Disc 1
01. Antonio Vivaldi - LES 4 SAISONS Concerto N°1 en mi majeur 'Le PRINTEMPS' 3eme mouvement (4:26)
02. Tomaso Albinoni - ADAGIO en sol mineur (real. Giazotto - extrait) (5:51)
03. Maurice Ravel - BOLERO (extrait) (5:17)
04. Ludwig van Beethoven - LETTRE A ELISE (2:58)
05. Wolfgang Amadeus Mozart - SERENADE en sol majeur K525 'UNE PETITE MUSIQUE DE NUIT' 1er mouvement (5:50)
06. Johann Pachelbel - CANON en re majeur (4:56)
07. Johann Sebastian Bach - AIR (extrait de la Suite N°3 en re majeur BWV1068) (3:31)
08. Dmitri Shostakovich - SUITE POUR ORCHESTRE DE JAZZ N°2 - Valse N°2 (3:43)
09. Edvard Grieg - MATIN (extrait de 'PEER GYNT' Musique de scene Opus 23) (4:16)
10. Ludwig van Beethoven - SONATE POUR PIANO N°14 en ut diese mineur 'AU CLAIR DE LUNE' Opus 27- N°2 1er mouvement (extrait) (3:56)
11. Erik Satie - GYMNOPEDIE N°1 (orch. Debussy) (2:50)
12. Claude Debussy - CLAIR DE LUNE (extrait de la 'SUITE BERGAMASQUE') (4:55)
13. Bedřich Smetana - LA MOLDAU (extrait de 'MA VLAST' - debut) (4:59)
14. Wolfgang Amadeus Mozart - CONCERTO en ut pour Flute et Harpe K299 2eme mouvement (extrait) (4:00)
15. Franz Schubert - AVE MARIA 'ELLENS GESANG' D839 (6:41)
16. James Horner, Will Jennings - MY HEART WILL GO ON (arr. Shearman) (4:20)
17. Franz Liszt - REVE D'AMOUR N°3 en la bemol majeur (4:28)
Disc 2
01. Samuel Barber - ADAGIO POUR CORDES Opus 11A (6:22)
02. Johann Sebastian Bach - JESUS QUE MA JOIE DEMEURE (extrait de la Cantate N°147) (3:30)
03. Johann Strauss Jr. - LE BEAU DANUBE BLEU Walzer, Opus 314 (extrait) (3:47)
04. Wolfgang Amadeus Mozart - CONCERTO POUR PIANO N°21 en ut majeur 'ELVIRA MADIGAN' K467 2eme mouvement (extrait) (5:19)
05. Frédéric Chopin - NOCTURNE N°2 en mi bemol majeur Opus 9 N°2 (5:17)
06. Antonín Dvořák - SYMPHONIE N°9 en mi majeur Opus 95 'DU NOUVEAU MONDE' 2eme mouvement (extrait) (4:45)
07. Johann Sebastian Bach - SUITE POUR VIOLONCELLE N°1 en sol majeur BWV1007 1er mouvement Prelude (2:26)
08. Charles Gounod, Johann Sebastian Bach - AVE MARIA (3:11)
09. Georg Friedrich Händel - SARABANDE (extrait de la Suite pour Clavecin N°11 en re mineur - debut) (3:01)
10. Joaquín Rodrigo - CONCIERTO DE ARANJUEZ 2eme mouvement (extrait) (4:43)
11. Gabriel Fauré - PAVANE (5:07)
12. Camille Saint-Saëns - LE CYGNE (extrait du 'CARNAVAL DES ANIMAUX') (2:50)
13. Wolfgang Amadeus Mozart - CONCERTO POUR CLARINETTE en la majeur K622 2eme mouvement (extrait) (4:28)
14. Alexander Borodin - DANSES POLOVTSIENNES (extrait du 'PRINCE IGOR' - Orch. Rimsky Korsakov & Glazounov - debut) (3:52)
15. Robert Schumann - REVERIE (Scenes d'enfants N°7) (2:38)
16. John Williams - LA LISTE DE SCHINDLER (theme) (5:04)
17. Wolfgang Amadeus Mozart - LACRIMOSA (extrait du Requiem en re mineur K626) (2:56)
18. Ralph Vaughan Williams - FANTASIA ON 'GREENSLEEVES' (extrait de 'SIR JOHN IN LOVE') (4:39)
19. Francesco Sartori, Lucio Quarantotto - TIME TO SAY GOODBYE (arr. Shearman) (3:58)

Исполнители

Disc 1
Track 01
Conductor – Alberto Lysy
Orchestra – Camerata Lysy Gstaad
Violin – Yehudi Menuhin
Track 02
Arranged By – Remo Giazotto
Conductor – Sir Neville Marriner
Orchestra – Academy Of St. Martin-in-the-Fields, The
Track 03
Conductor – André Previn
Orchestra – London Symphony Orchestra, The
Track 04
Piano – John Ogdon
Track 05
Conductor – Sir Neville Marriner
Orchestra – Academy Of St. Martin-in-the-Fields, The
Track 06
Conductor – Sir Neville Marriner
Orchestra – Academy Of St. Martin-in-the-Fields, The
Track 07
Conductor – Sir Neville Marriner
Orchestra – Academy Of St. Martin-in-the-Fields, The
Track 08
Conductor – Mariss Jansons
Orchestra – Philadelphia Orchestra, The
Track 09
Conductor – Sir Neville Marriner
Orchestra – Academy Of St. Martin-in-the-Fields, The
Track 10
Piano – Dame Moura Lympany
Track 11
Conductor – Louis Frémaux
Orchestra – City Of Birmingham Symphony Orchestra
Orchestrated By – Claude Debussy
Track 12
Piano – Dame Moura Lympany
Track 13
Conductor – Paavo Berglund
Orchestra – Staatskapelle Dresden
Track 14
Conductor – Herbert von Karajan
Flute – James Galway
Harp – Fritz Helmis
Orchestra – Berliner Philharmoniker
Track 15
Mezzo-soprano Vocals – Dame Janet Baker
Piano – Gerald Moore
Track 16
Arranged By – James Shearman
Conductor – David Abel
Track 17
Piano – John Ogdon
Disc 2
Track 01
Conductor – Eugene Ormandy
Orchestra – Philadelphia Orchestra, The
Track 02
Choir – King's College Choir, Cambridge*
Conductor – Sir Neville Marriner
Orchestra – Academy Of St. Martin-in-the-Fields, The
Track 03
Conductor – Herbert von Karajan
Orchestra – Berliner Philharmoniker
Track 04
Conductor – Bryden Thomson
Orchestra – Hallé Orchestra
Piano – Stephen Hough
Track 05
Piano – John Ogdon
Track 06
Conductor – Mariss Jansons
Orchestra – Olso Philharmonic Orchestra
Track 07
Cello – Paul Tortelier
Track 08
Mezzo-soprano Vocals – Dame Janet Baker*
Piano – Philip Ledger
Track 09
Piano – Andrei Gavrilov
Track 10
Conductor – Sir Simon Rattle
Guitar – Julian Bream
Orchestra – City Of Birmingham Symphony Orchestra
Track 11
Conductor – Sir Thomas Beecham
Orchestra – Orchestre National De l'ORTF
Track 12
Cello – Jacqueline Du Pré
Harp – Osian Ellis
Track 13
Clarinet – Karl Leister
Conductor – Herbert von Karajan
Orchestra – Berliner Philharmoniker
Track 14
Conductor – Sir Thomas Beecham
Orchestra – Royal Philharmonic Orchestra, The
Orchestrated By – Alexander Glazounov, Nikolai Rimsky-Korsakov
Track 15
Piano – Dame Moura Lympany
Track 16
Conductor – Iain Sutherland (2)
Orchestra – New World Philharmonic, The
Violin – Tasmin Little
Track 17
Choir – London Philharmonic Choir, The
Conductor – Franz Welser-Möst
Edited By – Franz Beyer
Orchestra – London Philharmonic Orchestra, The
Track 18
Conductor – Sir John Barbirolli
Orchestra – Sinfonia Of London, The
Track 19
Arranged By – James Shearman
Conductor – David Abel

Лог создания рипа

Disc 1
Exact Audio Copy V1.0 beta 4 from 7. December 2014
EAC extraction logfile from 31. January 2015, 18:34
Various / Harmony (Le Chant des Reves)
Used drive : TSSTcorpCDDVDW SH-224DB Adapter: 1 ID: 0
Read mode : Secure
Utilize accurate stream : Yes
Defeat audio cache : Yes
Make use of C2 pointers : No
Read offset correction : 6
Overread into Lead-In and Lead-Out : No
Fill up missing offset samples with silence : Yes
Delete leading and trailing silent blocks : No
Null samples used in CRC calculations : Yes
Used interface : Native Win32 interface for Win NT & 2000
Used output format : User Defined Encoder
Selected bitrate : 32 kBit/s
Quality : High
Add ID3 tag : No
Command line compressor : C:\Program Files (x86)\Exact Audio Copy\Flac\flac.exe
Additional command line options : -8 -V -T "ARTIST=%artist%" -T "TITLE=%title%" -T "ALBUM=%albumtitle%" -T "DATE=%year%" -T "TRACKNUMBER=%tracknr%" -T "GENRE=%genre%" -T "COMMENT=%comment%" -T "BAND=%albuminterpret%" -T "COMPOSER=%composer%" %haslyrics%--tag-from-file=LYRICS="%lyricsfile%"%haslyrics% -T "TOTALTRACKS=%numtracks%" %hascover%--picture="%coverfile%"%hascover% %source% -o %dest%
TOC of the extracted CD
Track | Start | Length | Start sector | End sector
---------------------------------------------------------
1 | 0:00.00 | 4:26.37 | 0 | 19986
2 | 4:26.37 | 5:50.55 | 19987 | 46291
3 | 10:17.17 | 5:17.00 | 46292 | 70066
4 | 15:34.17 | 2:58.28 | 70067 | 83444
5 | 18:32.45 | 5:49.42 | 83445 | 109661
6 | 24:22.12 | 4:56.03 | 109662 | 131864
7 | 29:18.15 | 3:31.07 | 131865 | 147696
8 | 32:49.22 | 3:43.18 | 147697 | 164439
9 | 36:32.40 | 4:16.22 | 164440 | 183661
10 | 40:48.62 | 3:56.00 | 183662 | 201361
11 | 44:44.62 | 2:50.00 | 201362 | 214111
12 | 47:34.62 | 4:55.30 | 214112 | 236266
13 | 52:30.17 | 4:59.00 | 236267 | 258691
14 | 57:29.17 | 3:59.50 | 258692 | 276666
15 | 61:28.67 | 6:41.18 | 276667 | 306759
16 | 68:10.10 | 4:19.42 | 306760 | 326226
17 | 72:29.52 | 4:27.48 | 326227 | 346299
Range status and errors
Selected range
Filename D:\Various - Harmony (Le Chant des Reves) (1999) [2CD, Compilation] [Virgin 7243 8 47074 2 2, France]\CDImage1.wav
Peak level 90.8 %
Extraction speed 3.4 X
Range quality 100.0 %
Test CRC 89001D05
Copy CRC 89001D05
Copy OK
No errors occurred
AccurateRip summary
Track 1 accurately ripped (confidence 10) [A39E68FD] (AR v2)
Track 2 accurately ripped (confidence 11) [B2D77386] (AR v2)
Track 3 accurately ripped (confidence 11) [7438C361] (AR v2)
Track 4 accurately ripped (confidence 10) [453FD912] (AR v2)
Track 5 accurately ripped (confidence 11) [10142C97] (AR v2)
Track 6 accurately ripped (confidence 11) [FC55322E] (AR v2)
Track 7 accurately ripped (confidence 11) [31FBA6B8] (AR v2)
Track 8 accurately ripped (confidence 11) [44E42B65] (AR v2)
Track 9 accurately ripped (confidence 11) [F6F0846F] (AR v2)
Track 10 accurately ripped (confidence 11) [E4807B75] (AR v2)
Track 11 accurately ripped (confidence 11) [F3605063] (AR v2)
Track 12 accurately ripped (confidence 11) [1C0115E2] (AR v2)
Track 13 accurately ripped (confidence 11) [B7FE4CAD] (AR v2)
Track 14 accurately ripped (confidence 11) [B88D438B] (AR v2)
Track 15 accurately ripped (confidence 11) [0689D9A3] (AR v2)
Track 16 accurately ripped (confidence 11) [6612EDC2] (AR v2)
Track 17 accurately ripped (confidence 10) [63D6B8F2] (AR v2)
All tracks accurately ripped
End of status report
---- CUETools DB Plugin V2.1.4
[CTDB TOCID: Qm0HJhqkHwPMryOtxu3dn3RL.zU-] found
Submit result: Qm0HJhqkHwPMryOtxu3dn3RL.zU- has been confirmed
Track | CTDB Status
1 | (15/15) Accurately ripped
2 | (15/15) Accurately ripped
3 | (15/15) Accurately ripped
4 | (15/15) Accurately ripped
5 | (15/15) Accurately ripped
6 | (15/15) Accurately ripped
7 | (14/15) Accurately ripped
8 | (14/15) Accurately ripped
9 | (15/15) Accurately ripped
10 | (15/15) Accurately ripped
11 | (15/15) Accurately ripped
12 | (15/15) Accurately ripped
13 | (15/15) Accurately ripped
14 | (15/15) Accurately ripped
15 | (15/15) Accurately ripped
16 | (15/15) Accurately ripped
17 | (15/15) Accurately ripped
Disc 2
Exact Audio Copy V1.0 beta 4 from 7. December 2014
EAC extraction logfile from 31. January 2015, 19:15
Various / Harmony (Le Chant des Rêves)
Used drive : TSSTcorpCDDVDW SH-224DB Adapter: 1 ID: 0
Read mode : Secure
Utilize accurate stream : Yes
Defeat audio cache : Yes
Make use of C2 pointers : No
Read offset correction : 6
Overread into Lead-In and Lead-Out : No
Fill up missing offset samples with silence : Yes
Delete leading and trailing silent blocks : No
Null samples used in CRC calculations : Yes
Used interface : Native Win32 interface for Win NT & 2000
Used output format : User Defined Encoder
Selected bitrate : 32 kBit/s
Quality : High
Add ID3 tag : No
Command line compressor : C:\Program Files (x86)\Exact Audio Copy\Flac\flac.exe
Additional command line options : -8 -V -T "ARTIST=%artist%" -T "TITLE=%title%" -T "ALBUM=%albumtitle%" -T "DATE=%year%" -T "TRACKNUMBER=%tracknr%" -T "GENRE=%genre%" -T "COMMENT=%comment%" -T "BAND=%albuminterpret%" -T "COMPOSER=%composer%" %haslyrics%--tag-from-file=LYRICS="%lyricsfile%"%haslyrics% -T "TOTALTRACKS=%numtracks%" %hascover%--picture="%coverfile%"%hascover% %source% -o %dest%
TOC of the extracted CD
Track | Start | Length | Start sector | End sector
---------------------------------------------------------
1 | 0:00.00 | 6:22.30 | 0 | 28679
2 | 6:22.30 | 3:29.70 | 28680 | 44424
3 | 9:52.25 | 3:46.42 | 44425 | 61416
4 | 13:38.67 | 5:19.15 | 61417 | 85356
5 | 18:58.07 | 5:17.00 | 85357 | 109131
6 | 24:15.07 | 4:45.05 | 109132 | 130511
7 | 29:00.12 | 2:26.35 | 130512 | 141496
8 | 31:26.47 | 3:11.15 | 141497 | 155836
9 | 34:37.62 | 3:00.60 | 155837 | 169396
10 | 37:38.47 | 4:43.23 | 169397 | 190644
11 | 42:21.70 | 5:06.47 | 190645 | 213641
12 | 47:28.42 | 2:50.00 | 213642 | 226391
13 | 50:18.42 | 4:27.55 | 226392 | 246471
14 | 54:46.22 | 3:51.48 | 246472 | 263844
15 | 58:37.70 | 2:38.35 | 263845 | 275729
16 | 61:16.30 | 5:04.15 | 275730 | 298544
17 | 66:20.45 | 2:56.15 | 298545 | 311759
18 | 69:16.60 | 4:39.02 | 311760 | 332686
19 | 73:55.62 | 3:57.58 | 332687 | 350519
Range status and errors
Selected range
Filename D:\Various - Harmony (Le Chant des Reves) (1999) [2CD, Compilation] [Virgin 7243 8 47074 2 2, France]\CDImage2.wav
Peak level 93.5 %
Extraction speed 3.4 X
Range quality 99.9 %
Test CRC 75A82BD0
Copy CRC 75A82BD0
Copy OK
No errors occurred
AccurateRip summary
Track 1 accurately ripped (confidence 7) [E57458A5] (AR v2)
Track 2 accurately ripped (confidence 9) [45AFB31A] (AR v2)
Track 3 accurately ripped (confidence 9) [ACD87F83] (AR v2)
Track 4 accurately ripped (confidence 9) [25FED45E] (AR v2)
Track 5 accurately ripped (confidence 9) [B2C1EB17] (AR v2)
Track 6 accurately ripped (confidence 9) [E5949BE3] (AR v2)
Track 7 accurately ripped (confidence 9) [1C2363BE] (AR v2)
Track 8 accurately ripped (confidence 9) [67E65786] (AR v2)
Track 9 accurately ripped (confidence 9) [1E8D9664] (AR v2)
Track 10 accurately ripped (confidence 9) [C306CFC3] (AR v2)
Track 11 accurately ripped (confidence 9) [B79C1C44] (AR v2)
Track 12 accurately ripped (confidence 9) [908452B3] (AR v2)
Track 13 accurately ripped (confidence 8) [6B6353F5] (AR v2)
Track 14 accurately ripped (confidence 9) [B9A7D75A] (AR v2)
Track 15 accurately ripped (confidence 9) [7EF05D11] (AR v2)
Track 16 accurately ripped (confidence 9) [096841BA] (AR v2)
Track 17 accurately ripped (confidence 9) [AB698808] (AR v2)
Track 18 accurately ripped (confidence 9) [46B43388] (AR v2)
Track 19 accurately ripped (confidence 9) [C3BA5925] (AR v2)
All tracks accurately ripped
End of status report
---- CUETools DB Plugin V2.1.4
[CTDB TOCID: 7KMfy0j85NnqukhrJJtD9yb5VWE-] found
Submit result: 7KMfy0j85NnqukhrJJtD9yb5VWE- has been confirmed
Track | CTDB Status
1 | (18/18) Accurately ripped
2 | (18/18) Accurately ripped
3 | (18/18) Accurately ripped
4 | (18/18) Accurately ripped
5 | (18/18) Accurately ripped
6 | (18/18) Accurately ripped
7 | (18/18) Accurately ripped
8 | (18/18) Accurately ripped
9 | (18/18) Accurately ripped
10 | (18/18) Accurately ripped
11 | (18/18) Accurately ripped
12 | (18/18) Accurately ripped
13 | (18/18) Accurately ripped
14 | (18/18) Accurately ripped
15 | (18/18) Accurately ripped
16 | (18/18) Accurately ripped
17 | (17/18) Accurately ripped
18 | (17/18) Accurately ripped
19 | (17/18) Accurately ripped[/pre]

Доп. информация

Это двухдисковое издание было приобретено мной через интернет-сервис Discogs.com в январе 2015 года.



Показать сообщения:    

Текущее время: 24-Янв 00:03

Часовой пояс: UTC + 3


Вы не можете начинать темы
Вы не можете отвечать на сообщения
Вы не можете редактировать свои сообщения
Вы не можете удалять свои сообщения
Вы не можете голосовать в опросах
Вы не можете прикреплять файлы к сообщениям
Вы не можете скачивать файлы