Джузеппе Ди Стефано - Голос сердца / Giuseppe Di Stefano - La Voce del Cuore [1977, Opera & Documentary, DVDRip-AVC] [Русские субтитры (Elena-Rybka)] [Eng, Ger.]


 

[Цитировать]

-'Hardy Classics' представляет
»«ГОЛОС СЕРДЦА ДЖУЗЕППЕ ди СТЕФАНО»«
24 июля (July 24,) 1928 — 3 марта (Marсh 3,) 2008
Сцены и арии из опер • Интервью с маэстро • Фотогалерея
-- Год записи: Записи разных лет
Дата выхода: 2007
•••
Лейбл: Hardy Classics
Страна: Italy
Жанр: Opera & Documentary
Продолжительность: 81 min.
Язык: Итальянский
Авторский перевод: © Elena-Rybka
Субтитры/Subtitls: РУССКИЕ,
English, German в составе контейнера

•••
Качество видео: DVDRip-AVC
Исходник: DVD5
Формат/Контейнер: MKV
Видео кодек: H.264
Аудио кодек: AC3
Видео поток: 700x480@538, 1592 kbps, 29,970 fps.
Аудио поток: Italiano, 448 kbps, 48,0 KHz, 6 ch original
•••
Ведущий: ДЖАНКАРЛО ЛАНДИНИ Giancarlo Landini
Оператор: ДЖУЗЕППЕ СКАРФОНЕ Giuseppe Scarfone


Intervista di Giancarlo Landini a Giuseppe di Stefano del 1977
Cardillo:
Core 'ngrato
Donizetti:
Lucia di Lammermoor (excerpts)
Lehár:
Dein ist mein ganzes Herz (from Das Land des Lächelns)
sung in Italian as 'Tu che m'hai preso il cuor'
Mascagni:
Cavalleria Rusticana, 1969: finale
Puccini:
Che gelida manina (from La Bohème)
Verdi:
Un dì felice, eterea (from La traviata, 1959)
La donna è mobile (from Rigoletto, 1951)
Zeller:
Wie mein Ahn’l zwanzig Jahr (from Der Vogelhändler)
sung in Italian as 'Sui vent'anni pien d'amore'

Скриншоты

MediaInfo

-

x264.log


avs [info]: 700x480p 156:175 @ 30000/1001 fps (cfr)
x264 [info]: using SAR=156/175
x264 [info]: using cpu capabilities: MMX2 SSE2Fast SSEMisalign LZCNT
x264 [info]: profile High, level 4.1
x264 [info]: frame I:610 Avg QP:18.58 size: 38995
x264 [info]: frame P:29676 Avg QP:19.78 size: 16467
x264 [info]: frame B:116235 Avg QP:21.85 size: 3962
x264 [info]: consecutive B-frames: 1.5% 0.3% 3.6% 17.5% 19.8% 55.0% 2.4%
x264 [info]: mb I I16..4: 7.0% 79.9% 13.1%
x264 [info]: mb P I16..4: 0.1% 7.5% 0.5% P16..4: 31.7% 40.0% 16.3% 1.9% 0.2% skip: 1.7%
x264 [info]: mb B I16..4: 0.0% 0.3% 0.0% B16..8: 30.9% 19.2% 2.6% direct: 6.6% skip:40.3% L0:36.7% L1:40.0% BI:23.4%
x264 [info]: 8x8 transform intra:89.8% inter:54.9%
x264 [info]: coded y,uvDC,uvAC intra: 98.2% 61.1% 17.4% inter: 26.6% 17.5% 0.2%
x264 [info]: i16 v,h,dc,p: 18% 13% 20% 48%
x264 [info]: i8 v,h,dc,ddl,ddr,vr,hd,vl,hu: 11% 9% 7% 9% 13% 14% 13% 12% 14%
x264 [info]: i4 v,h,dc,ddl,ddr,vr,hd,vl,hu: 12% 10% 2% 7% 15% 16% 15% 11% 12%
x264 [info]: i8c dc,h,v,p: 33% 40% 17% 11%
x264 [info]: Weighted P-Frames: Y:11.9% UV:2.1%
x264 [info]: ref P L0: 35.6% 11.6% 21.0% 6.8% 7.5% 4.8% 5.6% 2.8% 3.6% 0.7% 0.0%
x264 [info]: ref B L0: 84.0% 7.8% 2.7% 1.8% 1.2% 1.2% 0.8% 0.5%
x264 [info]: ref B L1: 98.3% 1.7%
x264 [info]: kb/s:1592.06
-
General
Unique ID : 214473596047984284516046806823538472482 (0xA15A1CB1FD9E4187A630A2F7A9233622)
Complete name : Giuseppe Di Stefano - La Voce del Cuore.mkv
Format : Matroska
Format version : Version 4 / Version 2
File size : 1.16 GiB
Duration : 1h 22mn
Overall bit rate : 2 029 Kbps
Encoded date : UTC 2015-02-22 05:04:07
Writing application : mkvmerge v7.5.0 ('Glass Culture') 32bit built on Jan 4 2015 16:37:25
Writing library : libebml v1.3.1 + libmatroska v1.4.2
DURATION : 01:15:56.009000000
NUMBER_OF_FRAMES : 524
NUMBER_OF_BYTES : 25290
_STATISTICS_WRITING_APP : mkvmerge v7.5.0 ('Glass Culture') 32bit built on Jan 4 2015 16:37:25
_STATISTICS_WRITING_DATE_UTC : 2015-02-22 05:04:07
_STATISTICS_TAGS : BPS DURATION NUMBER_OF_FRAMES NUMBER_OF_BYTES
Video
ID : 1
Format : AVC
Format/Info : Advanced Video Codec
Format profile : High@L4.1
Format settings, CABAC : Yes
Format settings, ReFrames : 9 frames
Codec ID : V_MPEG4/ISO/AVC
Duration : 1h 21mn
Bit rate : 1 541 Kbps
Width : 700 pixels
Height : 480 pixels
Display aspect ratio : 4:3
Original display aspect ratio : 4:3
Frame rate mode : Constant
Frame rate : 29.970 fps
Color space : YUV
Chroma subsampling : 4:2:0
Bit depth : 8 bits
Scan type : Progressive
Bits/(Pixel*Frame) : 0.153
Stream size : 904 MiB (76%)
Writing library : x264 core 130 r2273 b3065e6
Encoding settings : cabac=1 / ref=9 / deblock=1:-3:-3 / analyse=0x3:0x133 / me=hex / subme=11 / psy=1 / psy_rd=1.05:0.15 / mixed_ref=1 / me_range=16 / chroma_me=1 / trellis=2 / 8x8dct=1 / cqm=0 / deadzone=21,11 / fast_pskip=1 / chroma_qp_offset=-3 / threads=3 / lookahead_threads=1 / sliced_threads=0 / nr=0 / decimate=1 / interlaced=0 / bluray_compat=0 / constrained_intra=0 / bframes=6 / b_pyramid=2 / b_adapt=2 / b_bias=0 / direct=1 / weightb=1 / open_gop=0 / weightp=2 / keyint=250 / keyint_min=25 / scenecut=40 / intra_refresh=0 / rc=crf / mbtree=0 / crf=18.0 / qcomp=0.65 / qpmin=0 / qpmax=69 / qpstep=4 / ip_ratio=1.40 / pb_ratio=1.30 / aq=1:0.90
Language : English
Default : Yes
Forced : No
DURATION : 01:21:28.917000000
NUMBER_OF_FRAMES : 146521
NUMBER_OF_BYTES : 972933830
_STATISTICS_WRITING_APP : mkvmerge v7.5.0 ('Glass Culture') 32bit built on Jan 4 2015 16:37:25
_STATISTICS_WRITING_DATE_UTC : 2015-02-22 05:04:07
_STATISTICS_TAGS : BPS DURATION NUMBER_OF_FRAMES NUMBER_OF_BYTES
Audio
ID : 2
Format : AC-3
Format/Info : Audio Coding 3
Mode extension : CM (complete main)
Format settings, Endianness : Big
Codec ID : A_AC3
Duration : 1h 22mn
Bit rate mode : Constant
Bit rate : 448 Kbps
Channel(s) : 6 channels
Channel positions : Front: L C R, Side: L R, LFE
Sampling rate : 48.0 KHz
Bit depth : 16 bits
Compression mode : Lossy
Stream size : 263 MiB (22%)
Default : Yes
Forced : No
Text #1
ID : 3
Format : ASS
Codec ID : S_TEXT/ASS
Codec ID/Info : Advanced Sub Station Alpha
Compression mode : Lossless
Language : Russian
Default : Yes
Forced : No
Text #2
ID : 4
Format : UTF-8
Codec ID : S_TEXT/UTF8
Codec ID/Info : UTF-8 Plain Text
Language : English
Default : No
Forced : No
Text #3
ID : 5
Format : UTF-8
Codec ID : S_TEXT/UTF8
Codec ID/Info : UTF-8 Plain Text
Language : German
Default : No
Forced : No



Показать сообщения:    

Текущее время: 03-Дек 14:33

Часовой пояс: UTC + 3


Вы не можете начинать темы
Вы не можете отвечать на сообщения
Вы не можете редактировать свои сообщения
Вы не можете удалять свои сообщения
Вы не можете голосовать в опросах
Вы не можете прикреплять файлы к сообщениям
Вы не можете скачивать файлы