[TR24][OF] Alice Sara Ott and Francesco Tristano - Scandale (Ravel, Римский-Корсаков / Rimsky-Korsakov, Schlimé, Стравинский / Stravinsky) - 2014 (Classical, Piano)

DL-List and Torrent activity [Update пиров]
Size:  960 MB   |    Registered:  7 months 4 days   |    Completed:  0 times

Seeder not seen: Never



Alice Sara Ott · Francesco Tristano
Ravel · Rimsky-Korsakov · Schlimé · Stravinsky
- Год издания: 2014
Жанр: Classical, Piano
Издатель (лейбл): Deutsche Grammophon
Продолжительность: 01:01:58
Наличие сканов: Sleeve, Digital Booklet
- -
Francesco Tristano Schlimé ('1981)
A Soft Shell Groove (World-Premiere Recording)
01. A Soft Shell Groove (7:07)
Igor Stravinsky (1882-1971)
The Rite of Spring - Version For Piano Duet (Published 1913)
02. Part 1: The Adoration Of The Earth (16:07)
03. Part 2: The Sacrifice (17:50)
Nicolai Rimsky-Korsakov (1844-1908)
Scheherazade, Op.35 (arr. for four hands)
04. The Story Of The Calender Prince (8:53)
Maurice Ravel (1875-1937)
La Valse (Choreographic Poem) - Version For Piano Duet
05. La Valse (12:01)
-Alice Sara Ott (piano) & Francesco Tristano (piano)
Контейнер: FLAC (*.flac)
Тип рипа: tracks
Разрядность: 24bit / 96kHz
Количество каналов: 2.0
-О релизе
A dream team
For her new recording rising star Alice Sara Ott teams up with Francesco Tristano, who is a guarantor for highly innovative projects. Fascinated from the idea of Ballets Russes their challenging programme for two pianos centers upon Stravinsky’s extremely rhythmic and avant-garde score of “The rite of spring”, the crowning success de scandale of Ballets Russes and includes the catchy tune of Rimsky-Korsakov’s “Scheherazade”.
The album features an exciting new composition by Francesco Tristano himself 'A soft shell groove', which has never been recorded before.
No ballet company influenced the 20th-century intellectual world as did Serge Diaghilev’s Ballets Russes, with its signature conceptualization of dance, music and the fine arts as equal partners in a unified art form.
Diaghilev’s Ballets Russes became one of the most influential ballet companies of the 20th century, in part because of its ground-breaking artistic collaboration among contemporary choreographers, composers, artists, and dancers.
Individually, Alice Sara Ott and Francesco Tristano are two of their generation’s brightest young stars. Together, they are a pianistic dream team.
While their choice of title is an allusion to the Russian impresario Sergei Pavlovich Diaghilev (1872–1929), they have no desire to view him or his era through a retrospective, idealistic haze. Scandale is a pianistic conversation between two artists set against the varied backdrop of the music they love.
The music they have chosen is bold and big: orchestral epics rendered on two pianos. Stravinsky’s Rite of Spring was transcribed for piano duo by the composer himself. Heard on keyboards, its primal harmonies and rhythms are all the more sinewy and visceral, the melodies rendered in high definition, and it’s an athletic showpiece for the pianists.
When Alice Sara Ott and Francesco Tristano come together to play the works on this album, pieces that have been performed a thousand times before, something miraculous happens. Watch them give a whole new meaning to "piano duets."

ОтчётыДинамический диапазон

foobar2000 1.2.2 / Dynamic Range Meter 1.1.1
log date: 2015-02-22 13:26:47
Analyzed: Alice Sara Ott, Francesco Tristano / Scandale
DR Peak RMS Duration Track
DR15 -1.40 dB -20.09 dB 7:07 ?-A Soft Shell Groove
DR13 -0.26 dB -18.20 dB 16:07 ?-The Rite of Spring - Part 1: The Adoration Of The Earth
DR15 -0.28 dB -20.46 dB 17:50 ?-The Rite of Spring - Part 2: The Sacrifice
DR14 -0.69 dB -21.74 dB 8:53 ?-Scheherazade, Op. 35: The Story Of The Calender Prince
DR13 -0.22 dB -18.27 dB 12:01 ?-La Valse
Number of tracks: 5
Official DR value: DR14
Samplerate: 96000 Hz
Channels: 2
Bits per sample: 24
Bitrate: 2200 kbps
Codec: FLAC

Скриншот спектра частот

Доп. информация

При скачивании, если необходимо, переименуйте папку, в которой будет находиться альбомБольшая просьба к скачавшим поддерживать раздачу! Помогайте другим, ведь вам тоже может понадобиться помощь!Не забываем говорить "Спасибо"!Комментарии приветствуются!
Torrent: Registered [ 2016-03-19 20:36 ] · D1A0AC477CC7418DF17F827DB89872EDB89A4B45

Download .torrent


20 KB

Status: checked
Completed: 0 times
Size: 960 MB

Quick Reply


Heads necessary to send messages to enable JavaScript
Display posts:    

Current time is: 24-Oct 17:06

All times are UTC + 3

You can post new topics in this forum
You can reply to topics in this forum
You cannot edit your posts in this forum
You cannot delete your posts in this forum
You cannot vote in polls in this forum
You cannot attach files in this forum
You can download files in this forum