[TR24][OF] Wolfgang Amadeus Mozart - Violin Concertos Nos 1, 5 & Sinfonia concertante (Vilde Frang, Максим Рысанов / Maxim Rysanov, Arcangelo, Jonathan Cohen) - 2015 (Classical)


Статистика раздачи [Обновить пиров]
Размер:  721 MB   |    Зарегистрирован:  8 месяцев 20 дней   |    Скачан:  1 раз

Полного источника не было: 13 дней

 
   
 
 
 

[Цитировать]

Wolfgang Amadeus Mozart
Violin Concertos Nos 1, 5 & Sinfonia concertante
Vilde Frang
Maxim Rysanov · Arcangelo & Jonathan Cohen
- Год издания: 2015
Жанр: Classical
Издатель (лейбл): Warner Classics
Продолжительность: 01:17:25
Наличие сканов: Sleeve, Digital Booklet
- -
Wolfgang Amadeus Mozart (1756 - 1791)
Violin Concerto No. 1 in B-Flat Major, K. 207 (Cadenzas: Jonathan Cohen)
01. I. Allegro moderato (6:37)
02. II. Adagio (7:18)
03. III. Presto (5:40)
Violin Concerto No. 5 in A Major, K. 219 (Cadenzas: Jonathan Cohen)
04. I. Allegro aperto (9:44)
05. II. Adagio (9:50)
06. III. Rondeau: Tempo di menuetto (8:47)
Sinfonia Concertante in E-Flat Major, K. 364* (Cadenzas: Mozart)
07. I. Allegro maestoso (12:47)
08. II. Andante (10:48)
09. III. Presto (5:55)

-
Vilde Frang violin
*Maxim Rysanov viola
Arcangelo directed by Jonathan Cohen

-
Контейнер: FLAC (*.flac)
Тип рипа: tracks
Разрядность: 24bit / 44.1kHz
Количество каналов: 2.0
-О релизе
Following the success of her discs of Romantic and Late Romantic repertoire, Vilde Frang has recorded Mozart’s Concertos Nos. 1 and 5 ‘Turkish’ and the Sinfonia Concertante K364, enabling music lovers to hear the Norwegian violinist perform Classical repertoire on disc for the first time. The impetus for this album was a 2012 orchestral tour of Asia conducted by Jonathan Cohen in which Vilde performed Mozart’s Violin Concerto No. 5. The vibrancy of their musical collaboration was something both artists were keen to repeat and commit to disc. Jonathan Cohen’s chamber orchestra, Arcangelo, proved the ideal partner, joined by violist Maxim Rysanov in the Sinfonia Concertante.
Today we tend to think of Mozart as a keyboard virtuoso but he was also an accomplished violinist. Indeed, in 1769, aged 13, he was appointed honorary concertmaster of the Salzburg Court Orchestra. For many years, it was believed that Mozart composed all five of his violin concertos in 1775, but analysis of handwriting and of the manuscript paper suggests the actual date of the first concerto, K207, was 1773. Filled with brilliant passage work, it is generally characterised by high spirits and is filled with dazzling semiquaver and demisemiquaver passages reflecting the influence of such Baroque Italian virtuosi and composers as Pietro Nardini, Pietro Locatelli and Gaetano Pugnani.
Each of Mozart’s subsequent violin concertos, all composed in 1775, is longer and on a larger scale than the preceding one. By the fifth and last, he had created a work still clearly within the Classical concerto tradition yet, in terms of both length and technical demands, approaching the instrumental concertos of the century to come. The Concerto No. 5 K219 is often referred to as the “Turkish” because of its frenzied Allegro section in the middle of the final movement.
Mozart was experimenting with the cross-over form between symphony and concerto during a tour of Europe in 1779. The result was his Sinfonia Concertante for violin and viola, composed in Salzburg that same year and probably the greatest of his concertante works. The eminent musicologist Alfred Einstein called it Mozart’s “crowning achievement in the field of the violin concerto” and added that, “Every trace of galanterie has disappeared” to be replaced by the “revelation of the deepest feeling.”
“Frang is a brilliant arrival on the violin scene...Her extrovert personality shines through in the rarely heard Mozart first violin concerto... Jonathan Cohen’s direction makes the most of the breathtakingly original textures of [the K364] duo concerto.” (The Observer, UK)

ОтчётыДинамический диапазон

foobar2000 1.2.2 / Dynamic Range Meter 1.1.1
log date: 2015-02-22 15:33:10
--------------------------------------------------------------------------------
Analyzed: Vilde Frang, Arcangelo, Jonathan Cohen / Mozart: Violin Concertos Nos 1, 5 & Sinfonia concertante (1-6)
Vilde Frang, Maxim Rysanov, Arcangelo, Jonathan Cohen / Mozart: Violin Concertos Nos 1, 5 & Sinfonia concertante (7-9)
--------------------------------------------------------------------------------
DR Peak RMS Duration Track
--------------------------------------------------------------------------------
DR14 -2.91 dB -22.54 dB 6:37 ?-Violin Concerto No. 1 in B-Flat Major, K. 207 - I. Allegro moderato (Cadenzas: Jonathan Cohen)
DR13 -5.24 dB -23.85 dB 7:18 ?-Violin Concerto No. 1 in B-Flat Major, K. 207 - II. Adagio (Cadenzas: Jonathan Cohen)
DR14 -2.06 dB -22.65 dB 5:40 ?-Violin Concerto No. 1 in B-Flat Major, K. 207 - III. Presto (Cadenzas: Jonathan Cohen)
DR15 -2.34 dB -23.01 dB 9:44 ?-Violin Concerto No. 5 in A Major, K. 219 - I. Allegro aperto (Cadenzas: Jonathan Cohen)
DR14 -4.52 dB -24.05 dB 9:50 ?-Violin Concerto No. 5 in A Major, K. 219 - II. Adagio (Cadenzas: Jonathan Cohen)
DR15 -1.22 dB -21.79 dB 8:47 ?-Violin Concerto No. 5 in A Major, K. 219 - III. Rondeau: Tempo di menuetto (Cadenzas: Jonathan Cohen)
DR14 -1.19 dB -21.01 dB 12:47 ?-Sinfonia Concertante in E-Flat Major, K. 364 - I. Allegro maestoso (Cadenzas: Mozart)
DR14 -4.43 dB -25.01 dB 10:48 ?-Sinfonia Concertante in E-Flat Major, K. 364 - II. Andante (Cadenzas: Mozart)
DR16 -0.29 dB -22.21 dB 5:55 ?-Sinfonia Concertante in E-Flat Major, K. 364 - III. Presto (Cadenzas: Mozart)
--------------------------------------------------------------------------------
Number of tracks: 9
Official DR value: DR14
Samplerate: 44100 Hz
Channels: 2
Bits per sample: 24
Bitrate: 1310 kbps
Codec: FLAC
================================================================================

Скриншот спектра частот

Доп. информация

При скачивании, если необходимо, переименуйте папку, в которой будет находиться альбомБольшая просьба к скачавшим поддерживать раздачу! Помогайте другим, ведь вам тоже может понадобиться помощь!Не забываем говорить "Спасибо"!Комментарии приветствуются!
[teatrix.ru].t20430.torrent 
Торрент: Зарегистрирован [ 2016-03-19 20:36 ] · A09C4D17048B9E8F650DD765AFB37A9D072EF794

Скачать .torrent

Скачать

16 KB

Статус: проверено
Скачан: 1 раз
Размер: 721 MB
terms.php



Быстрый ответ

Имя:

      
Для отправки сообщений необходимо включить JavaScript
Показать сообщения:    

Текущее время: 09-Дек 10:48

Часовой пояс: UTC + 3


Вы можете начинать темы
Вы можете отвечать на сообщения
Вы не можете редактировать свои сообщения
Вы не можете удалять свои сообщения
Вы не можете голосовать в опросах
Вы не можете прикреплять файлы к сообщениям
Вы можете скачивать файлы