(classical crossover) Natasha Marsh - Natasha Marsh - 2008, FLAC (tracks+.cue) lossless


 

[Цитировать]

Natasha Marsh / Natasha Marsh
Жанр: classical crossover
Страна-производитель диска: United Kingdom
Год издания диска: 2008
Издатель (лейбл): Angel Music Group
Страна: Great Britain
Аудиокодек: FLAC
Тип рипа: tracks+.cue
Битрейт аудио: lossless
Продолжительность: 0:45:00
Источник: CD
Наличие сканов в содержимом раздачи: нет
Треклист:
01 Der Holle Rache (Queen of the Night)
02 O mio babbino caro
03 Prayer (with Gardar Cortes)
04 La Wally- ''Ebben Ne andro lontano''
05 Ai giochi addio
06 Les Filles de Cadiz
07 Autumn Leaves
08 Ombra mai fu
09 Brindisi (La traviata) (with Alfie Boe)
10 Quando me'n vo'
11 Bachianas Brasilieras no. 5- Aria
12 Mi mancherai
13 O Holy Night (with Blake)

Лог создания рипа

Exact Audio Copy V1.0 beta 3 from 29. August 2011
Отчёт EAC об извлечении, выполненном 22. февраля 2015, 16:07
Natasha Marsh / Natasha Marsh
Дисковод: HL-DT-STBDDVDRW GGC-H20L Adapter: 3 ID: 0
Режим чтения : Достоверность
Использование точного потока : Да
Отключение кэша аудио : Да
Использование указателей C2 : Нет
Коррекция смещения при чтении : 667
Способность читать области Lead-in и Lead-out : Нет
Заполнение пропущенных сэмплов тишиной : Да
Удаление блоков с тишиной в начале и конце : Нет
При вычислениях CRC использовались нулевые сэмплы : Да
Интерфейс : Встроенный Win32-интерфейс для Win NT/2000
Обработка зазоров : Добавлено к предыдущему треку
Выходной формат : Пользовательский кодировщик
Выбранный битрейт : 1024 kBit/s
Качество : Высокий
Добавление ID3-тега : Нет
Утилита сжатия : C:\Program Files (x86)\Exact Audio Copy\FLAC\FLAC.EXE
Дополнительные параметры : -V -8 -T "Date=%year%" -T "Genre=%genre%" %source%
TOC извлечённого CD
Трек | Старт | Длительность | Начальный сектор | Конечный сектор
---------------------------------------------------------------------
1 | 0:00.00 | 3:12.26 | 0 | 14425
2 | 3:12.26 | 2:22.40 | 14426 | 25115
3 | 5:34.66 | 4:31.72 | 25116 | 45512
4 | 10:06.63 | 3:45.43 | 45513 | 62430
5 | 13:52.31 | 3:25.74 | 62431 | 77879
6 | 17:18.30 | 3:28.03 | 77880 | 93482
7 | 20:46.33 | 3:47.72 | 93483 | 110579
8 | 24:34.30 | 2:56.74 | 110580 | 123853
9 | 27:31.29 | 3:04.01 | 123854 | 137654
10 | 30:35.30 | 2:30.00 | 137655 | 148904
11 | 33:05.30 | 4:08.09 | 148905 | 167513
12 | 37:13.39 | 4:13.35 | 167514 | 186523
13 | 41:26.74 | 3:33.19 | 186524 | 202517
Трек 1
Имя файла E:\DOWNLOAD\EAC+Temp\01 -Natasha Marsh - Der Hölle Rache (Queen of the Night).wav
Длина предзазора 0:00:02.00
Пиковый уровень 95.5 %
Скорость извлечения 4.5 X
Качество трека 100.0 %
CRC теста 17F29484
CRC копии 17F29484
Точное извлечение (достоверность 1) [1470B2E2] (AR v1)
Копирование... OK
Трек 2
Имя файла E:\DOWNLOAD\EAC+Temp\02 -Natasha Marsh - O mio babbino caro.wav
Длина предзазора 0:00:03.24
Пиковый уровень 90.6 %
Скорость извлечения 4.5 X
Качество трека 100.0 %
CRC теста 0A1166FE
CRC копии 0A1166FE
Точное извлечение (достоверность 1) [92238AB1] (AR v1)
Копирование... OK
Трек 3
Имя файла E:\DOWNLOAD\EAC+Temp\03 -Natasha Marsh with Gardar Cortes - Prayer.wav
Длина предзазора 0:00:02.67
Пиковый уровень 94.2 %
Скорость извлечения 5.4 X
Качество трека 100.0 %
CRC теста 94937749
CRC копии 94937749
Точное извлечение (достоверность 1) [2CE93E2A] (AR v1)
Копирование... OK
Трек 4
Имя файла E:\DOWNLOAD\EAC+Temp\04 -Natasha Marsh - La Wally- ''Ebben Ne andro lontano''.wav
Длина предзазора 0:00:03.08
Пиковый уровень 93.7 %
Скорость извлечения 5.7 X
Качество трека 100.0 %
CRC теста 03AB7CD8
CRC копии 03AB7CD8
Точное извлечение (достоверность 1) [4E8877B8] (AR v1)
Копирование... OK
Трек 5
Имя файла E:\DOWNLOAD\EAC+Temp\05 -Natasha Marsh - Ai giochi addio.wav
Длина предзазора 0:00:03.59
Пиковый уровень 93.7 %
Скорость извлечения 5.9 X
Качество трека 100.0 %
CRC теста 4936E397
CRC копии 4936E397
Точное извлечение (достоверность 1) [43E9C4EA] (AR v1)
Копирование... OK
Трек 6
Имя файла E:\DOWNLOAD\EAC+Temp\06 -Natasha Marsh - Les Filles de Cadiz.wav
Длина предзазора 0:00:03.47
Пиковый уровень 97.7 %
Скорость извлечения 6.0 X
Качество трека 100.0 %
CRC теста B50159EF
CRC копии B50159EF
Точное извлечение (достоверность 1) [26E10855] (AR v1)
Копирование... OK
Трек 7
Имя файла E:\DOWNLOAD\EAC+Temp\07 -Natasha Marsh - Autumn Leaves.wav
Длина предзазора 0:00:03.58
Пиковый уровень 66.9 %
Скорость извлечения 6.5 X
Качество трека 100.0 %
CRC теста 4EBDFF85
CRC копии 4EBDFF85
Точное извлечение (достоверность 1) [3962AEFC] (AR v1)
Копирование... OK
Трек 8
Имя файла E:\DOWNLOAD\EAC+Temp\08 -Natasha Marsh - Ombra mai fu.wav
Длина предзазора 0:00:03.53
Пиковый уровень 87.9 %
Скорость извлечения 6.5 X
Качество трека 100.0 %
CRC теста FEA6C291
CRC копии FEA6C291
Точное извлечение (достоверность 1) [9B7ACA6C] (AR v1)
Копирование... OK
Трек 9
Имя файла E:\DOWNLOAD\EAC+Temp\09 -Natasha Marsh with Alfie Boe - Brindisi (La traviata).wav
Длина предзазора 0:00:03.46
Пиковый уровень 93.7 %
Скорость извлечения 6.9 X
Качество трека 100.0 %
CRC теста 04EFB1E0
CRC копии 04EFB1E0
Точное извлечение (достоверность 1) [17D453C0] (AR v1)
Копирование... OK
Трек 10
Имя файла E:\DOWNLOAD\EAC+Temp\10 -Natasha Marsh - Quando me'n vo'.wav
Длина предзазора 0:00:04.22
Пиковый уровень 94.5 %
Скорость извлечения 6.5 X
Качество трека 100.0 %
CRC теста A14E293A
CRC копии A14E293A
Точное извлечение (достоверность 1) [CE897CD3] (AR v1)
Копирование... OK
Трек 11
Имя файла E:\DOWNLOAD\EAC+Temp\11 -Natasha Marsh - Bachianas Brasilieras no. 5- Ária.wav
Длина предзазора 0:00:03.57
Пиковый уровень 85.9 %
Скорость извлечения 7.7 X
Качество трека 100.0 %
CRC теста A4AD335B
CRC копии A4AD335B
Точное извлечение (достоверность 1) [4D0B425A] (AR v1)
Копирование... OK
Трек 12
Имя файла E:\DOWNLOAD\EAC+Temp\12 -Natasha Marsh - Mi mancherai.wav
Длина предзазора 0:00:03.40
Пиковый уровень 98.7 %
Скорость извлечения 7.9 X
Качество трека 100.0 %
CRC теста AF809317
CRC копии AF809317
Точное извлечение (достоверность 1) [98F5D343] (AR v1)
Копирование... OK
Трек 13
Имя файла E:\DOWNLOAD\EAC+Temp\13 -Natasha Marsh with Blake - O Holy Night.wav
Длина предзазора 0:00:03.53
Пиковый уровень 99.7 %
Скорость извлечения 7.9 X
Качество трека 100.0 %
CRC теста F1D44221
CRC копии F1D44221
Точное извлечение (достоверность 1) [03FBB528] (AR v1)
Копирование... OK
Все треки извлечены точно
Ошибок не произошло
Конец отчёта
==== Контрольная сумма отчёта 07801FF0F0E35CBAB58EF1FDFEDDBA3521C727F6B0C352B9F975ADD96A9D8BE1 ====

Содержание индексной карты (.CUE)

REM GENRE Crossover
REM DATE 2008
REM DISCID BC0A8C0D
REM COMMENT "ExactAudioCopy v1.0b3"
CATALOG 5099922779229
PERFORMER "Natasha Marsh"
TITLE "Natasha Marsh"
FILE "01 -Natasha Marsh - Der Holle Rache (Queen of the Night).wav" WAVE
TRACK 01 AUDIO
TITLE "Der Holle Rache (Queen of the Night)"
PERFORMER "Natasha Marsh"
ISRC GBAYE0800879
INDEX 01 00:00:00
TRACK 02 AUDIO
TITLE "O mio babbino caro"
PERFORMER "Natasha Marsh"
ISRC GBAYE0800880
INDEX 00 03:09:02
FILE "02 -Natasha Marsh - O mio babbino caro.wav" WAVE
INDEX 01 00:00:00
TRACK 03 AUDIO
TITLE "Prayer"
PERFORMER "Natasha Marsh with Gardar Cortes"
ISRC GBAYE0800881
INDEX 00 02:19:48
FILE "03 -Natasha Marsh with Gardar Cortes - Prayer.wav" WAVE
INDEX 01 00:00:00
TRACK 04 AUDIO
TITLE "La Wally: 'Ebben? Ne andro lontano'"
PERFORMER "Natasha Marsh"
ISRC GBAYE0601720
INDEX 00 04:28:64
FILE "04 -Natasha Marsh - La Wally- ''Ebben Ne andro lontano''.wav" WAVE
INDEX 01 00:00:00
TRACK 05 AUDIO
TITLE "Ai giochi addio"
PERFORMER "Natasha Marsh"
ISRC GBAYE0601721
INDEX 00 03:41:59
FILE "05 -Natasha Marsh - Ai giochi addio.wav" WAVE
INDEX 01 00:00:00
TRACK 06 AUDIO
TITLE "Les Filles de Cadiz"
PERFORMER "Natasha Marsh"
ISRC GBAYE0601298
INDEX 00 03:22:27
FILE "06 -Natasha Marsh - Les Filles de Cadiz.wav" WAVE
INDEX 01 00:00:00
TRACK 07 AUDIO
TITLE "Autumn Leaves"
PERFORMER "Natasha Marsh"
ISRC GBAYE0601707
INDEX 00 03:24:20
FILE "07 -Natasha Marsh - Autumn Leaves.wav" WAVE
INDEX 01 00:00:00
TRACK 08 AUDIO
TITLE "Ombra mai fu"
PERFORMER "Natasha Marsh"
ISRC GBAYE0800882
INDEX 00 03:44:19
FILE "08 -Natasha Marsh - Ombra mai fu.wav" WAVE
INDEX 01 00:00:00
TRACK 09 AUDIO
TITLE "Brindisi (La traviata)"
PERFORMER "Natasha Marsh with Alfie Boe"
ISRC GBAYE0601722
INDEX 00 02:53:28
FILE "09 -Natasha Marsh with Alfie Boe - Brindisi (La traviata).wav" WAVE
INDEX 01 00:00:00
TRACK 10 AUDIO
TITLE "Quando me'n vo'"
PERFORMER "Natasha Marsh"
ISRC GBAYE0800883
INDEX 00 02:59:54
FILE "10 -Natasha Marsh - Quando me'n vo'.wav" WAVE
INDEX 01 00:00:00
TRACK 11 AUDIO
TITLE "Bachianas Brasilieras no. 5: Aria"
PERFORMER "Natasha Marsh"
ISRC GBAYE0800884
INDEX 00 02:26:18
FILE "11 -Natasha Marsh - Bachianas Brasilieras no. 5- Aria.wav" WAVE
INDEX 01 00:00:00
TRACK 12 AUDIO
TITLE "Mi mancherai"
PERFORMER "Natasha Marsh"
ISRC GBAYE0800885
INDEX 00 04:04:44
FILE "12 -Natasha Marsh - Mi mancherai.wav" WAVE
INDEX 01 00:00:00
TRACK 13 AUDIO
TITLE "O Holy Night"
PERFORMER "Natasha Marsh with Blake"
ISRC GBAYE0800886
INDEX 00 04:09:57
FILE "13 -Natasha Marsh with Blake - O Holy Night.wav" WAVE
INDEX 01 00:00:00

Скриншот спектра частот




Показать сообщения:    

Текущее время: 03-Дек 09:48

Часовой пояс: UTC + 3


Вы не можете начинать темы
Вы не можете отвечать на сообщения
Вы не можете редактировать свои сообщения
Вы не можете удалять свои сообщения
Вы не можете голосовать в опросах
Вы не можете прикреплять файлы к сообщениям
Вы не можете скачивать файлы