(Opera) Catalani - Loreley (de Cavalieri, Neate, Gigli, Guelfi, Colella - Orchestra e Coro della RAI, Simonetto) • Bonus - Loreley (Muzio, Boninsegna, Del Monaco, Olivero) - 2004, APE (image+.cue) lossless


 

[Цитировать]

Alfredo Catalani - Loreley
Жанр: Opera
Страна-производитель диска: Portugal
Год издания диска: 2004
Издатель (лейбл): Gala
Номер по каталогу: GL 100.752
Дата записи: 1917-1963
Аудиокодек: APE
Тип рипа: image+.cue
Битрейт аудио: lossless
Продолжительность: 74'26+74'47
Источник: собственный рип
Наличие сканов в содержимом раздачи: да
Треклист:

CD1

1. Act 1. Buona preda!
2. Act 1. Da me Walter che brama?
3. Act 1. Nel verde maggio
4. Act 1. Che festi allor?
5. Act 1. Salvezza tu chiedi
6. Act 1. Da che tutta mi son data
7. Act 1. Lascia per or che libero
8. Act 1. Maledici l'istante, in cui è nato
9. Act 1. Io stesso dunque Anna ho perduta
10. Act 1. Se il vero le leggende
11. Act 1. Dai gioghi della Rezia
12. Act 1. Ove son?... Donde vengo?... E dove vado?...
13. Act 1. Ebbene! Ogni pietà spenta in me sia
14. Act 1. Salve, o fanciulla fatalmente
15. Act 2. Gorgheggiate, usignoli, a volo libero
16. Act 2. Amor celeste ebbrezza e pena
17. Act 2. Ah! I miei fanciulla!
18. Act 2. Ave, del mar o stella
19. Act 2. Anna, sofferma il piè
20. Act 2. Alteri ergete
21. Act 2. Non t'angosciar, se il riso
22. Act 2. Felice te, che al talamo dorato
23. Act 2. Qual fosforeo baglior!

CD2

1. Act 2. Vuoi tu provar gli spasimi
2. Act 3. Si va facendo al bosco
3. Act 3. Oggi è giorno di spettri e di paure!
4. Act 3. E' morto un astro in cielo
5. Act 3. Ove sono? Che fu? Questo che sorge
6. Act 3. Danza delle Ondine
7. Act 3. Vieni al mio seno!
8. Act 3. Infranto ogni altro vincolo

Bonus:

CD2
9. Act 1. Ove son?... Donde vengo?... (Claudia Muzio)
10. Act 1. Lascia per or che libero (Celestina Boninsegna)
11. Act 3. Vieni! Deh vien... Deh! Ti rammenta (Francesco Merli - Bianca Scacciati)
12. Act 1. Nel verde Maggio (Beniamino Gigli)
13. Act 1. Nel verde Maggio (Mario Del Monaco)
14. Act 2. Amor celeste ebbrezza (Magda Olivero)
15. Act 1. Ove son?... Donde vengo? (Gigliola Frazzoni)
Исполнители:
Alfredo Catalani - Loreley
Romantic Opera in 3 Acts
Libretto: D'Ormeville & Zanardini
Loreley - Anna de Cavalieri, soprano
Walter - Ken Neate, tenor
Anna di Rehberg - Rina Gigli, soprano
Hermann - Piero Guelfi, baritone
Rodolfo - Alfredo Colella, bass
Orchestra e Coro della RAI
Alfredo Simonetto

Лог создания рипа

CD1

Exact Audio Copy V1.0 beta 3 from 29. August 2011
EAC extraction logfile from 21. February 2015, 14:23
Catalani / Loreley, Simonetto CD1
Used drive : TSSTcorpCDDVDW SE-208AB Adapter: 1 ID: 0
Read mode : Secure
Utilize accurate stream : Yes
Defeat audio cache : Yes
Make use of C2 pointers : No
Read offset correction : 6
Overread into Lead-In and Lead-Out : No
Fill up missing offset samples with silence : Yes
Delete leading and trailing silent blocks : No
Null samples used in CRC calculations : Yes
Used interface : Native Win32 interface for Win NT & 2000
Used output format : Monkey's Audio Lossless Encoder
Selected bitrate : High Lossless Compression
Quality : High
Add ID3 tag : Yes
Command line compressor : C:\Program Files (x86)\Exact Audio Copy\MAC\MAC.exe
TOC of the extracted CD
Track | Start | Length | Start sector | End sector
---------------------------------------------------------
1 | 0:00.00 | 4:36.56 | 0 | 20755
2 | 4:36.56 | 2:42.06 | 20756 | 32911
3 | 7:18.62 | 1:51.04 | 32912 | 41240
4 | 9:09.66 | 1:04.36 | 41241 | 46076
5 | 10:14.27 | 2:43.72 | 46077 | 58373
6 | 12:58.24 | 4:17.73 | 58374 | 77721
7 | 17:16.22 | 5:09.60 | 77722 | 100956
8 | 22:26.07 | 1:46.36 | 100957 | 108942
9 | 24:12.43 | 1:36.10 | 108943 | 116152
10 | 25:48.53 | 1:52.54 | 116153 | 124606
11 | 27:41.32 | 4:14.23 | 124607 | 143679
12 | 31:55.55 | 3:43.71 | 143680 | 160475
13 | 35:39.51 | 3:32.29 | 160476 | 176404
14 | 39:12.05 | 2:05.66 | 176405 | 185845
15 | 41:17.71 | 4:50.39 | 185846 | 207634
16 | 46:08.35 | 2:53.25 | 207635 | 220634
17 | 49:01.60 | 2:34.54 | 220635 | 232238
18 | 51:36.39 | 3:32.14 | 232239 | 248152
19 | 55:08.53 | 2:26.16 | 248153 | 259118
20 | 57:34.69 | 8:34.57 | 259119 | 297725
21 | 66:09.51 | 2:37.62 | 297726 | 309562
22 | 68:47.38 | 4:04.63 | 309563 | 327925
23 | 72:52.26 | 1:25.74 | 327926 | 334374
Range status and errors
Selected range
Filename D:\EAC\Catalani - Loreley, Simonetto CD1.wav
Peak level 96.9 %
Extraction speed 5.2 X
Range quality 100.0 %
Test CRC BDEEE4C6
Copy CRC BDEEE4C6
Copy OK
No errors occurred
AccurateRip summary
Track 1 accurately ripped (confidence 1) [2B02F8FA] (AR v2)
Track 2 accurately ripped (confidence 1) [061F71FA] (AR v2)
Track 3 accurately ripped (confidence 1) [84AB2407] (AR v2)
Track 4 accurately ripped (confidence 1) [092C5711] (AR v2)
Track 5 accurately ripped (confidence 1) [4D6B1A52] (AR v2)
Track 6 accurately ripped (confidence 1) [49A46403] (AR v2)
Track 7 accurately ripped (confidence 1) [2AEBC5F8] (AR v2)
Track 8 accurately ripped (confidence 1) [A997D217] (AR v2)
Track 9 accurately ripped (confidence 1) [F33C9895] (AR v2)
Track 10 accurately ripped (confidence 1) [D105DF7D] (AR v2)
Track 11 accurately ripped (confidence 1) [A68CF9DC] (AR v2)
Track 12 accurately ripped (confidence 1) [836A16C9] (AR v2)
Track 13 accurately ripped (confidence 1) [3465B146] (AR v2)
Track 14 accurately ripped (confidence 1) [ED0FDFF3] (AR v2)
Track 15 accurately ripped (confidence 1) [31606557] (AR v2)
Track 16 accurately ripped (confidence 1) [3047D322] (AR v2)
Track 17 accurately ripped (confidence 1) [EC03D7FC] (AR v2)
Track 18 accurately ripped (confidence 1) [2892B35C] (AR v2)
Track 19 accurately ripped (confidence 1) [F76CBD92] (AR v2)
Track 20 accurately ripped (confidence 1) [B13711D5] (AR v2)
Track 21 accurately ripped (confidence 1) [D5CBB71D] (AR v2)
Track 22 accurately ripped (confidence 1) [7837F9B5] (AR v2)
Track 23 accurately ripped (confidence 1) [986585B0] (AR v2)
All tracks accurately ripped
End of status report
---- CUETools DB Plugin V2.1.3
[CTDB TOCID: yHBx9xKFsyXAQY1mFvMC66pW1ZA-] found, Submit result: yHBx9xKFsyXAQY1mFvMC66pW1ZA- has been confirmed
[2b8646c9] (1/1) Accurately ripped
==== Log checksum 5E521871FFAD298E7951EA1391EB603109C6B488CDADBB7AFB9DCA5C05F618A6 ====

CD2

Exact Audio Copy V1.0 beta 3 from 29. August 2011
EAC extraction logfile from 21. February 2015, 14:32
Catalani / Loreley, Simonetto CD2
Used drive : TS8XDVDSTRANSCEND Adapter: 1 ID: 1
Read mode : Secure
Utilize accurate stream : Yes
Defeat audio cache : Yes
Make use of C2 pointers : No
Read offset correction : 6
Overread into Lead-In and Lead-Out : No
Fill up missing offset samples with silence : Yes
Delete leading and trailing silent blocks : No
Null samples used in CRC calculations : Yes
Used interface : Native Win32 interface for Win NT & 2000
Used output format : Monkey's Audio Lossless Encoder
Selected bitrate : High Lossless Compression
Quality : High
Add ID3 tag : Yes
Command line compressor : C:\Program Files (x86)\Exact Audio Copy\MAC\MAC.exe
TOC of the extracted CD
Track | Start | Length | Start sector | End sector
---------------------------------------------------------
1 | 0:00.00 | 6:54.51 | 0 | 31100
2 | 6:54.51 | 3:29.74 | 31101 | 46849
3 | 10:24.50 | 3:08.03 | 46850 | 60952
4 | 13:32.53 | 4:42.44 | 60953 | 82146
5 | 18:15.22 | 5:09.41 | 82147 | 105362
6 | 23:24.63 | 6:23.33 | 105363 | 134120
7 | 29:48.21 | 1:59.15 | 134121 | 143060
8 | 31:47.36 | 9:50.54 | 143061 | 187364
9 | 41:38.15 | 4:18.65 | 187365 | 206779
10 | 45:57.05 | 3:40.41 | 206780 | 223320
11 | 49:37.46 | 7:23.74 | 223321 | 256619
12 | 57:01.45 | 2:26.41 | 256620 | 267610
13 | 59:28.11 | 2:27.05 | 267611 | 278640
14 | 61:55.16 | 2:54.03 | 278641 | 291693
15 | 64:49.19 | 9:55.20 | 291694 | 336338
Range status and errors
Selected range
Filename D:\EAC\Catalani - Loreley, Simonetto CD2.wav
Peak level 99.4 %
Extraction speed 3.5 X
Range quality 100.0 %
Test CRC BE71212E
Copy CRC BE71212E
Copy OK
No errors occurred
AccurateRip summary
Track 1 accurately ripped (confidence 1) [0DCD70BD] (AR v2)
Track 2 accurately ripped (confidence 1) [C2EF0D10] (AR v2)
Track 3 accurately ripped (confidence 1) [F369A49A] (AR v2)
Track 4 accurately ripped (confidence 1) [3A2B086E] (AR v2)
Track 5 accurately ripped (confidence 1) [2946DA19] (AR v2)
Track 6 accurately ripped (confidence 1) [D46A8D3B] (AR v2)
Track 7 accurately ripped (confidence 1) [BF6C9D95] (AR v2)
Track 8 accurately ripped (confidence 1) [B9072122] (AR v2)
Track 9 accurately ripped (confidence 1) [5F95AC6D] (AR v2)
Track 10 accurately ripped (confidence 1) [B1BFC15E] (AR v2)
Track 11 accurately ripped (confidence 1) [A57BDD72] (AR v2)
Track 12 accurately ripped (confidence 1) [9AE9ACD0] (AR v2)
Track 13 accurately ripped (confidence 1) [6835E4B2] (AR v2)
Track 14 accurately ripped (confidence 1) [3CF85B9F] (AR v2)
Track 15 accurately ripped (confidence 1) [0E3800D3] (AR v2)
All tracks accurately ripped
End of status report
---- CUETools DB Plugin V2.1.3
[CTDB TOCID: 11Y_JHLknVKfXSx4rao.Vn.JrwA-] found, Submit result: unrecognized or virtual drive
[af57e8f8] (1/1) Accurately ripped
==== Log checksum 8447079854779F80915A8856526DF36BDA54E399A2FEEF237FA27DC1DB107095 ====

Содержание индексной карты (.CUE)

CD1

REM GENRE Opera
REM DATE 1953
REM DISCID 4B116A17
REM COMMENT "ExactAudioCopy v1.0b3"
PERFORMER "Catalani"
TITLE "Loreley, Simonetto CD1"
FILE "Catalani - Loreley, Simonetto CD1.ape" WAVE
TRACK 01 AUDIO
TITLE "Act 1. Buona preda!"
PERFORMER "Catalani"
INDEX 01 00:00:00
TRACK 02 AUDIO
TITLE "Act 1. Da me Walter che brama?"
PERFORMER "Catalani"
INDEX 01 04:36:56
TRACK 03 AUDIO
TITLE "Act 1. Nel verde maggio"
PERFORMER "Catalani"
INDEX 01 07:18:62
TRACK 04 AUDIO
TITLE "Act 1. Che festi allor?"
PERFORMER "Catalani"
INDEX 01 09:09:66
TRACK 05 AUDIO
TITLE "Act 1. Salvezza tu chiedi"
PERFORMER "Catalani"
INDEX 01 10:14:27
TRACK 06 AUDIO
TITLE "Act 1. Da che tutta mi son data"
PERFORMER "Catalani"
INDEX 01 12:58:24
TRACK 07 AUDIO
TITLE "Act 1. Lascia per or che libero"
PERFORMER "Catalani"
INDEX 01 17:16:22
TRACK 08 AUDIO
TITLE "Act 1. Maledici l'istante, in cui è nato"
PERFORMER "Catalani"
INDEX 01 22:26:07
TRACK 09 AUDIO
TITLE "Act 1. Io stesso dunque Anna ho perduta"
PERFORMER "Catalani"
INDEX 01 24:12:43
TRACK 10 AUDIO
TITLE "Act 1. Se il vero le leggende"
PERFORMER "Catalani"
INDEX 01 25:48:53
TRACK 11 AUDIO
TITLE "Act 1. Dai gioghi della Rezia"
PERFORMER "Catalani"
INDEX 01 27:41:32
TRACK 12 AUDIO
TITLE "Act 1. Ove son?... Donde vengo?... E dove vado?..."
PERFORMER "Catalani"
INDEX 01 31:55:55
TRACK 13 AUDIO
TITLE "Act 1. Ebbene! Ogni pietà spenta in me sia"
PERFORMER "Catalani"
INDEX 01 35:39:51
TRACK 14 AUDIO
TITLE "Act 1. Salve, o fanciulla fatalmente"
PERFORMER "Catalani"
INDEX 01 39:12:05
TRACK 15 AUDIO
TITLE "Act 2. Gorgheggiate, usignoli, a volo libero"
PERFORMER "Catalani"
INDEX 00 41:14:71
INDEX 01 41:17:71
TRACK 16 AUDIO
TITLE "Act 2. Amor celeste ebbrezza e pena"
PERFORMER "Catalani"
INDEX 01 46:08:35
TRACK 17 AUDIO
TITLE "Act 2. Ah! I miei fanciulla!"
PERFORMER "Catalani"
INDEX 01 49:01:60
TRACK 18 AUDIO
TITLE "Act 2. Ave, del mar o stella"
PERFORMER "Catalani"
INDEX 01 51:36:39
TRACK 19 AUDIO
TITLE "Act 2. Anna, sofferma il piè"
PERFORMER "Catalani"
INDEX 01 55:08:53
TRACK 20 AUDIO
TITLE "Act 2. Alteri ergete"
PERFORMER "Catalani"
INDEX 01 57:34:69
TRACK 21 AUDIO
TITLE "Act 2. Non t'angosciar, se il riso"
PERFORMER "Catalani"
INDEX 01 66:09:51
TRACK 22 AUDIO
TITLE "Act 2. Felice te, che al talamo dorato"
PERFORMER "Catalani"
INDEX 01 68:47:38
TRACK 23 AUDIO
TITLE "Act 2. Qual fosforeo baglior!"
PERFORMER "Catalani"
INDEX 01 72:52:26

CD2

REM GENRE Opera
REM DATE 1953
REM DISCID E311840F
REM COMMENT "ExactAudioCopy v1.0b3"
PERFORMER "Catalani"
TITLE "Loreley, Simonetto CD2"
FILE "Catalani - Loreley, Simonetto CD2.ape" WAVE
TRACK 01 AUDIO
TITLE "Act 2. Vuoi tu provar gli spasimi"
PERFORMER "Catalani"
INDEX 01 00:00:00
TRACK 02 AUDIO
TITLE "Act 3. Si va facendo al bosco"
PERFORMER "Catalani"
INDEX 00 06:48:51
INDEX 01 06:54:51
TRACK 03 AUDIO
TITLE "Act 3. Oggi è giorno di spettri e di paure!"
PERFORMER "Catalani"
INDEX 01 10:24:50
TRACK 04 AUDIO
TITLE "Act 3. E' morto un astro in cielo"
PERFORMER "Catalani"
INDEX 01 13:32:53
TRACK 05 AUDIO
TITLE "Act 3. Ove sono? Che fu? Questo che sorge"
PERFORMER "Catalani"
INDEX 01 18:15:22
TRACK 06 AUDIO
TITLE "Act 3. Danza delle Ondine"
PERFORMER "Catalani"
INDEX 01 23:24:63
TRACK 07 AUDIO
TITLE "Act 3. Vieni al mio seno!"
PERFORMER "Catalani"
INDEX 01 29:48:21
TRACK 08 AUDIO
TITLE "Act 3. Infranto ogni altro vincolo"
PERFORMER "Catalani"
INDEX 01 31:47:36
TRACK 09 AUDIO
TITLE "Bonus, Act 1. Ove son?... Donde vengo?... (Claudia Muzio)"
PERFORMER "Catalani"
INDEX 00 41:30:39
INDEX 01 41:38:15
TRACK 10 AUDIO
TITLE "Act 1. Lascia per or che libero (Celestina Boninsegna)"
PERFORMER "Catalani"
INDEX 00 45:53:06
INDEX 01 45:57:05
TRACK 11 AUDIO
TITLE "Act 3. Vieni! Deh vien... Deh! Ti rammenta (Francesco Merli - Bianca Scacciati)"
PERFORMER "Catalani"
INDEX 00 49:34:47
INDEX 01 49:37:46
TRACK 12 AUDIO
TITLE "Act 1. Nel verde Maggio (Beniamino Gigli)"
PERFORMER "Catalani"
INDEX 00 56:56:46
INDEX 01 57:01:45
TRACK 13 AUDIO
TITLE "Act 1. Nel verde Maggio (Mario Del Monaco)"
PERFORMER "Catalani"
INDEX 00 59:25:12
INDEX 01 59:28:11
TRACK 14 AUDIO
TITLE "Act 2. Amor celeste ebbrezza (Magda Olivero)"
PERFORMER "Catalani"
INDEX 00 61:50:17
INDEX 01 61:55:16
TRACK 15 AUDIO
TITLE "Act 1. Ove son?... Donde vengo? (Gigliola Frazzoni)"
PERFORMER "Catalani"
INDEX 00 64:45:20
INDEX 01 64:49:19
Доп. информация:
Alfredo Catalani was born in Lucca and trained at the Milan Conservatory under Antonio Bazzini.
Despite the growing influence of the verismo style of opera during the 1880s Catalani chose to compose in a more traditional manner.
As a result his operas have largely lost their place in the modern repertoire, even compared to those of Massenet and Puccini, whose style his works most closely resemble.
At the time, the 21-year old Catalani knew the earlier operas of Wagner and had heard some of the effects the older Massenet used.
He composed mainly for the opera theatre, pruducing five works.
His first opera La Falce ( https://78.24.219.58:1500/viewtopic.php?t=4317398 ) was in effect a test-opera.
Catalani’s use of the orchestra is refined and far from the big guitar of some of his contemporaries.
He is best remembered for his operas Loreley (1890) and La Wally (1892).
La Wally ( https://78.24.219.58:1500/viewtopic.php?t=4388500 ) was composed to a libretto by Luigi Illica, and features Catalani's most famous aria "Ebben? Ne andrò lontana."
Catalani's other operas were less successful, partly hampered by inferior libretti.
The influence of Amilcare Ponchielli can also be recognized in Catalani's work.
Like Ponchielli, Catalani's reputation now rests almost entirely on one work.
However, while La Wally enjoys occasional revivals, Ponchielli's La Gioconda ( https://78.24.219.58:1500/viewtopic.php?t=4827088 ) has always been the more popular opera.
Loreley was first performed at the Teatro Regio in Turin on 16 February 1890 under Edoardo Mascheroni.
It was subsequently given at Covent Garden in London on 12 July 1907.
The first American performance was presented by the Chicago Opera Association at the Auditorium Building in Chicago on 17 January 1919 with Anna Fitziu in the title role.
Synopsis
The action takes place on the banks of the Rhine in 1500.
Act I. Feast in the castle of Count Walter on the banks of the Rhine in honor of his engagement with his niece Anna Margrave Rudolf von Rehberg. A friend, Walter, – Baron Hermann, secretly in love with Anna. He knows about the passion of Walter Lorelei – a poor orphan, in which Walter swore allegiance on the banks of the Rhine. Having learned from the engagement Herman Walter, Loreley catches the Rhine and into a nymph.
Act II. Hermann tries to convince Anna not to marry Walter. Anna rejects his arguments. During the wedding appears Lorelei. Blinded by her charms Walter leaves Anna, who can not withstand shock and dies.
Act III. On the banks of the Rhine, Walter realizes his action. You hear a song witch Lorelei. Walter throws himself into the Rhine.



Показать сообщения:    

Текущее время: 11-Дек 14:57

Часовой пояс: UTC + 3


Вы не можете начинать темы
Вы не можете отвечать на сообщения
Вы не можете редактировать свои сообщения
Вы не можете удалять свои сообщения
Вы не можете голосовать в опросах
Вы не можете прикреплять файлы к сообщениям
Вы не можете скачивать файлы