(Opera) Catalani - La Wally (Tebaldi, del Monaco, Cappuccilli, Malagu, Diaz - Orchestre National de Opera de Monte-Carlo, Cleva) - 1999, APE (image+.cue) lossless


 

[Цитировать]

Alfredo Catalani - La Wally
Жанр: Opera
Страна-производитель диска: Germany
Год издания диска: 1999
Издатель (лейбл): Decca
Номер по каталогу: 460 744-2
Дата записи: 1969
Аудиокодек: APE
Тип рипа: image+.cue
Битрейт аудио: lossless
Продолжительность: 71'13+53'17
Источник: собственный рип
Наличие сканов в содержимом раздачи: да
Треклист:

CD1

Atto I
1. Preludio
2. Un di, verso il Murzoll
3. Non c'è che dir!
4. Su per l'erto sentier
5. Ma si direbbe
6. Chi osò levar sul padre
7. L'Hagenbach? L'aborro!
8. Sei tu che domandata hai la mia man?
9. Ebben?...Ne andrò lontana
10. Ad ora cosi tarda
Atto II
11. Entro la folla che intorno s'aggira
12. No!...Coll'amor tu non dèi scherzar
13. La bella creatura!
14. Finor non m'han baciata
15. Sei tu?
16. Che brami, Wally?
17. Già il canto fervido

CD2

Atto III
1. Interludio
2. Fa cor, Wally!
3. Ebben...dunque?
4. Hagenbach qui?
5. Né mai dunque avrò pace?
6. Buio è il sentier
7. Dio! Vive ancor!
Atto IV
8. Introduzione
9. Luogo sicuro questo non è più!
10. Prendi, fanciul, e serbala!
11. Eterne a me d'intorno
12. M'hai salvato
13. Quando a Sölden
Исполнители:
Alfredo Catalani - La Wally
Opera in 4 Acts
libretto: Luigi Illica, based on a roman by Wilhelmine von Hillern "Die Geyer-Wally"
Wally - Renata Tebaldi
Stromminger - Justino Diaz
Walter - Lydia Marimpietri
Giuseppe Hagenbach - Mario del Monaco
Vincenzo Gellner- Piero Cappuccilli
Afra - Stefania Malagu
Coro Lirico di Torino
Orchestre National de l'Opera de Monte-Carlo
Fausto Cleva

Лог создания рипа

CD1

Exact Audio Copy V1.0 beta 3 from 29. August 2011
EAC extraction logfile from 21. February 2015, 16:04
Catalani / La Wally, Cleva CD1
Used drive : TSSTcorpCDDVDW SE-208AB Adapter: 1 ID: 0
Read mode : Secure
Utilize accurate stream : Yes
Defeat audio cache : Yes
Make use of C2 pointers : No
Read offset correction : 6
Overread into Lead-In and Lead-Out : No
Fill up missing offset samples with silence : Yes
Delete leading and trailing silent blocks : No
Null samples used in CRC calculations : Yes
Used interface : Native Win32 interface for Win NT & 2000
Used output format : Monkey's Audio Lossless Encoder
Selected bitrate : High Lossless Compression
Quality : High
Add ID3 tag : Yes
Command line compressor : C:\Program Files (x86)\Exact Audio Copy\MAC\MAC.exe
TOC of the extracted CD
Track | Start | Length | Start sector | End sector
---------------------------------------------------------
1 | 0:00.32 | 4:00.65 | 32 | 18096
2 | 4:01.22 | 4:06.40 | 18097 | 36586
3 | 8:07.62 | 4:03.18 | 36587 | 54829
4 | 12:11.05 | 1:40.52 | 54830 | 62381
5 | 13:51.57 | 1:37.65 | 62382 | 69721
6 | 15:29.47 | 3:40.00 | 69722 | 86221
7 | 19:09.47 | 3:19.45 | 86222 | 101191
8 | 22:29.17 | 5:35.65 | 101192 | 126381
9 | 28:05.07 | 4:55.38 | 126382 | 148544
10 | 33:00.45 | 3:45.10 | 148545 | 165429
11 | 36:45.55 | 4:26.17 | 165430 | 185396
12 | 41:11.72 | 3:33.18 | 185397 | 201389
13 | 44:45.15 | 2:13.30 | 201390 | 211394
14 | 46:58.45 | 4:21.12 | 211395 | 230981
15 | 51:19.57 | 6:54.33 | 230982 | 262064
16 | 58:14.15 | 2:44.55 | 262065 | 274419
17 | 60:58.70 | 10:14.50 | 274420 | 320519
Range status and errors
Selected range
Filename D:\EAC\Catalani - La Wally, Cleva CD1.wav
Peak level 91.3 %
Extraction speed 4.9 X
Range quality 100.0 %
Test CRC 2EB9FDE0
Copy CRC 2EB9FDE0
Copy OK
No errors occurred
AccurateRip summary
Track 1 accurately ripped (confidence 5) [B89B7A38] (AR v2)
Track 2 accurately ripped (confidence 5) [4F05B83B] (AR v2)
Track 3 accurately ripped (confidence 5) [030CA763] (AR v2)
Track 4 accurately ripped (confidence 5) [C0899FDA] (AR v2)
Track 5 accurately ripped (confidence 5) [73051D83] (AR v2)
Track 6 accurately ripped (confidence 5) [01FA9044] (AR v2)
Track 7 accurately ripped (confidence 5) [8427E452] (AR v2)
Track 8 accurately ripped (confidence 5) [934188F5] (AR v2)
Track 9 accurately ripped (confidence 5) [1AEC4841] (AR v2)
Track 10 accurately ripped (confidence 5) [1596A32C] (AR v2)
Track 11 accurately ripped (confidence 5) [E44A6FF7] (AR v2)
Track 12 accurately ripped (confidence 5) [F96236E7] (AR v2)
Track 13 accurately ripped (confidence 5) [6A08216B] (AR v2)
Track 14 accurately ripped (confidence 5) [DBF84847] (AR v2)
Track 15 accurately ripped (confidence 5) [FF84448C] (AR v2)
Track 16 accurately ripped (confidence 5) [16377A55] (AR v2)
Track 17 accurately ripped (confidence 5) [AFCCC882] (AR v2)
All tracks accurately ripped
End of status report
---- CUETools DB Plugin V2.1.3
[CTDB TOCID: qiOkY5I8cMMetPxL8LCDXi8KzMo-] found, Submit result: discs with pregaps not supported in this protocol version
[a93e30c3] (25/25) Differs in 0 samples @
You can use CUETools to repair this rip.
==== Log checksum 73B8FAE099921C9C02C2A74B9FED0EAF16C3A7C44DADD49F04C009D85F3092BA ====

CD2

Exact Audio Copy V1.0 beta 3 from 29. August 2011
EAC extraction logfile from 21. February 2015, 16:12
Catalani / La Wally, Cleva CD2
Used drive : TS8XDVDSTRANSCEND Adapter: 1 ID: 1
Read mode : Secure
Utilize accurate stream : Yes
Defeat audio cache : Yes
Make use of C2 pointers : No
Read offset correction : 6
Overread into Lead-In and Lead-Out : No
Fill up missing offset samples with silence : Yes
Delete leading and trailing silent blocks : No
Null samples used in CRC calculations : Yes
Used interface : Native Win32 interface for Win NT & 2000
Used output format : Monkey's Audio Lossless Encoder
Selected bitrate : High Lossless Compression
Quality : High
Add ID3 tag : Yes
Command line compressor : C:\Program Files (x86)\Exact Audio Copy\MAC\MAC.exe
TOC of the extracted CD
Track | Start | Length | Start sector | End sector
---------------------------------------------------------
1 | 0:00.32 | 4:15.35 | 32 | 19191
2 | 4:15.67 | 2:50.63 | 19192 | 32004
3 | 7:06.55 | 2:00.55 | 32005 | 41059
4 | 9:07.35 | 1:38.72 | 41060 | 48481
5 | 10:46.32 | 3:52.65 | 48482 | 65946
6 | 14:39.22 | 2:33.28 | 65947 | 77449
7 | 17:12.50 | 6:56.47 | 77450 | 108696
8 | 24:09.22 | 6:58.53 | 108697 | 140099
9 | 31:08.00 | 2:00.45 | 140100 | 149144
10 | 33:08.45 | 4:12.12 | 149145 | 168056
11 | 37:20.57 | 4:16.48 | 168057 | 187304
12 | 41:37.30 | 1:37.25 | 187305 | 194604
13 | 43:14.55 | 3:51.57 | 194605 | 211986
14 | 47:06.37 | 6:10.63 | 211987 | 239799
Range status and errors
Selected range
Filename D:\EAC\Catalani - La Wally, Cleva CD2.wav
Peak level 95.9 %
Extraction speed 2.9 X
Range quality 100.0 %
Test CRC A1A80759
Copy CRC A1A80759
Copy OK
No errors occurred
AccurateRip summary
Track 1 accurately ripped (confidence 19) [62CE5AA5] (AR v2)
Track 2 accurately ripped (confidence 19) [F3F4D832] (AR v2)
Track 3 accurately ripped (confidence 19) [A8D7AA0A] (AR v2)
Track 4 accurately ripped (confidence 19) [40D6AB93] (AR v2)
Track 5 accurately ripped (confidence 18) [96F24B03] (AR v2)
Track 6 accurately ripped (confidence 19) [8D42176F] (AR v2)
Track 7 accurately ripped (confidence 19) [87A0938D] (AR v2)
Track 8 accurately ripped (confidence 19) [69F58F8A] (AR v2)
Track 9 accurately ripped (confidence 19) [380EE062] (AR v2)
Track 10 accurately ripped (confidence 18) [3EAA40E4] (AR v2)
Track 11 accurately ripped (confidence 18) [C98F1456] (AR v2)
Track 12 accurately ripped (confidence 19) [7F00F530] (AR v2)
Track 13 accurately ripped (confidence 18) [930A0108] (AR v2)
Track 14 accurately ripped (confidence 18) [541D2EE6] (AR v2)
All tracks accurately ripped
End of status report
---- CUETools DB Plugin V2.1.3
[CTDB TOCID: _zWThURBMzroKt.vCi_GpIFDKkA-] found, Submit result: discs with pregaps not supported in this protocol version
[ba1fc6be] (21/21) Differs in 0 samples @
You can use CUETools to repair this rip.
==== Log checksum 0F53ED6BBCF92C3CC75146B92E4BBA62640B357EC370BF24E16913EC51E890C7 ====

Содержание индексной карты (.CUE)

CD1

REM GENRE Opera
REM DATE 1968
REM DISCID F310B111
REM COMMENT "ExactAudioCopy v1.0b3"
CATALOG 0028942541825
PERFORMER "Catalani"
TITLE "La Wally, Cleva CD1"
FILE "Catalani - La Wally, Cleva CD1.ape" WAVE
TRACK 01 AUDIO
TITLE "Atto I: Preludio"
PERFORMER "Catalani"
ISRC GBFO76840701
INDEX 00 00:00:00
INDEX 01 00:00:32
TRACK 02 AUDIO
TITLE "Atto I: Un dì, verso il Murzoll"
PERFORMER "Catalani"
ISRC GBFO76840702
INDEX 01 04:01:22
TRACK 03 AUDIO
TITLE "Atto I: Non c'è che dir!"
PERFORMER "Catalani"
ISRC GBFO76840703
INDEX 01 08:07:62
TRACK 04 AUDIO
TITLE "Atto I: Su per l'erto sentier"
PERFORMER "Catalani"
ISRC GBFO76840704
INDEX 01 12:11:05
TRACK 05 AUDIO
TITLE "Atto I: Ma si direbbe"
PERFORMER "Catalani"
ISRC GBFO76840705
INDEX 01 13:51:57
TRACK 06 AUDIO
TITLE "Atto I: Chi osò levar sul padre"
PERFORMER "Catalani"
ISRC GBFO76840706
INDEX 01 15:29:47
TRACK 07 AUDIO
TITLE "Atto I: L'Hagenbach? L'aborro!"
PERFORMER "Catalani"
ISRC GBFO76840707
INDEX 01 19:09:47
TRACK 08 AUDIO
TITLE "Atto I: Sei tu che domandata hai la mia man?"
PERFORMER "Catalani"
ISRC GBFO76840708
INDEX 01 22:29:17
TRACK 09 AUDIO
TITLE "Atto I: Ebben?... Ne andrò lontana"
PERFORMER "Catalani"
ISRC GBFO76840709
INDEX 01 28:05:07
TRACK 10 AUDIO
TITLE "Atto II: Ad ora cosi tarda"
PERFORMER "Catalani"
ISRC GBFO76840710
INDEX 01 33:00:45
TRACK 11 AUDIO
TITLE "Atto II: Entro la folla che intorno s'aggira"
PERFORMER "Catalani"
ISRC GBFO76840711
INDEX 00 36:38:67
INDEX 01 36:45:55
TRACK 12 AUDIO
TITLE "Atto II: No!... Coll'amor tu non dêi scherzar"
PERFORMER "Catalani"
ISRC GBFO76840712
INDEX 01 41:11:72
TRACK 13 AUDIO
TITLE "Atto II: La bella creatura!"
PERFORMER "Catalani"
ISRC GBFO76840713
INDEX 01 44:45:15
TRACK 14 AUDIO
TITLE "Atto II: Finor non m'han baciata"
PERFORMER "Catalani"
ISRC GBFO76840714
INDEX 01 46:58:45
TRACK 15 AUDIO
TITLE "Atto II: Sei tu?"
PERFORMER "Catalani"
ISRC GBFO76840715
INDEX 01 51:19:57
TRACK 16 AUDIO
TITLE "Atto II: Che brami, Wally?"
PERFORMER "Catalani"
ISRC GBFO76840716
INDEX 01 58:14:15
TRACK 17 AUDIO
TITLE "Atto II: Già il canto fervido"
PERFORMER "Catalani"
ISRC GBFO76840717
INDEX 01 60:58:70

CD2

REM GENRE Opera
REM DATE 1968
REM DISCID D50C7D0E
REM COMMENT "ExactAudioCopy v1.0b3"
CATALOG 0028942541924
PERFORMER "Catalani"
TITLE "La Wally, Cleva CD2"
FILE "Catalani - La Wally, Cleva CD2.ape" WAVE
TRACK 01 AUDIO
TITLE "Act III - Orchestral interlude"
PERFORMER "Catalani"
ISRC GBFO76840718
INDEX 00 00:00:00
INDEX 01 00:00:32
TRACK 02 AUDIO
TITLE "Act III - Fa cor, Wally!"
PERFORMER "Catalani"
ISRC GBFO76840719
INDEX 01 04:15:67
TRACK 03 AUDIO
TITLE "Act III - Ebben..dunque?"
PERFORMER "Catalani"
ISRC GBFO76840720
INDEX 01 07:06:55
TRACK 04 AUDIO
TITLE "Act III - Hagenbach qui?"
PERFORMER "Catalani"
ISRC GBFO76840721
INDEX 01 09:07:35
TRACK 05 AUDIO
TITLE "Act III - Né mai dunque avrò pace?"
PERFORMER "Catalani"
ISRC GBFO76840722
INDEX 01 10:46:32
TRACK 06 AUDIO
TITLE "Act III - Buio è il sentier"
PERFORMER "Catalani"
ISRC GBFO76840723
INDEX 01 14:39:22
TRACK 07 AUDIO
TITLE "Act III - Dio! Vive ancor!"
PERFORMER "Catalani"
ISRC GBFO76840724
INDEX 01 17:12:50
TRACK 08 AUDIO
TITLE "Act IV - Introduzione"
PERFORMER "Catalani"
ISRC GBFO76840725
INDEX 00 24:01:42
INDEX 01 24:09:22
TRACK 09 AUDIO
TITLE "Act IV - Luogo sicuro questo non è più!"
PERFORMER "Catalani"
ISRC GBFO76840726
INDEX 01 31:08:00
TRACK 10 AUDIO
TITLE "Act IV - Prendi, fanciul"
PERFORMER "Catalani"
ISRC GBFO76840727
INDEX 01 33:08:45
TRACK 11 AUDIO
TITLE "Act IV - Eterne a me d'intorno"
PERFORMER "Catalani"
ISRC GBFO76840728
INDEX 01 37:20:57
TRACK 12 AUDIO
TITLE "Act IV - Wally! Wally!"
PERFORMER "Catalani"
ISRC GBFO76840729
INDEX 01 41:37:30
TRACK 13 AUDIO
TITLE "Act IV - M'hai salvato"
PERFORMER "Catalani"
ISRC GBFO76840730
INDEX 01 43:14:55
TRACK 14 AUDIO
TITLE "Act IV - Quando a Solden"
PERFORMER "Catalani"
ISRC GBFO76840731
INDEX 01 47:06:37
Доп. информация:
Alfredo Catalani was an Italian operatic composer.
Catalani was born in Lucca and trained at the Milan Conservatory under Antonio Bazzini.
Despite the growing influence of the verismo style of opera during the 1880s Catalani chose to compose in a more traditional manner.
As a result his operas have largely lost their place in the modern repertoire, even compared to those of Massenet and Puccini, whose style his works most closely resemble.
At the time, the 21-year old Catalani knew the earlier operas of Wagner and had heard some of the effects the older Massenet used, He composed mainly for the opera theatre, pruducing five works.
His first opera La Falce ( https://78.24.219.58:1500/viewtopic.php?t=4317398 ) was in effect a test-opera.
Catalani’s use of the orchestra is refined and far from the big guitar of some of his contemporaries.
He is best remembered for his operas Loreley https://78.24.219.58:1500/viewtopic.php?t=4946349 (1890) and La Wally (1892), see also ( https://78.24.219.58:1500/viewtopic.php?t=4388500 )
Catalani's other operas were less successful, partly hampered by inferior libretti.
The influence of Amilcare Ponchielli can also be recognized in Catalani's work.
Like Ponchielli, Catalani's reputation now rests almost entirely on one work.
However, while La Wally enjoys occasional revivals, Ponchielli's La Gioconda ( https://78.24.219.58:1500/viewtopic.php?t=4813058 ) has always been the more popular opera.
La Wally is an opera in four acts composed on a libretto by Luigi Illica, first performed at La Scala in Milan on 20 January 1892.
The libretto is based on a hugely successful Heimatroman by Wilhelmine von Hillern (1836–1916) "Die Geyer-Wally", Eine Geschichte aus den Tyroler Alpen (literally: "The Vulture-Wally: A Story from the Tyrolean Alps").
The Geyer-Wally is a girl with some heroic attributes.
Wally is short for the name Wallburga. (There may have been an actual young woman Wallburga Stromminger on whom the legend is based.)
She gets her 'geyer' or 'vulture' epithet from once stealing a vulture's hatchling from her nest.
Von Hillern's piece was originally serialized in Deutsche Rundschau, and was reproduced in English in "A German Peasant Romance" in The Cornhill Magazine, July 1875.
The opera is best known for its aria "Ebben? Ne andrò lontana" ("Well, then? I'll go far away," act 1, sung when Wally decides to leave her home forever).
The American soprano Wilhelmenia Fernandez sang this aria in Jean-Jacques Beineix's 1981 movie Diva – a performance at the heart of the thriller.
Catalani had composed this aria independently as Chanson Groënlandaise in 1878 and later incorporated it into his opera.
The opera features a memorable operatic death in which the heroine throws herself into an avalanche.
It is seldom performed, partly because of the difficulty of staging this scene, but Wally's principal aria is still sung frequently.



Показать сообщения:    

Текущее время: 10-Дек 00:16

Часовой пояс: UTC + 3


Вы не можете начинать темы
Вы не можете отвечать на сообщения
Вы не можете редактировать свои сообщения
Вы не можете удалять свои сообщения
Вы не можете голосовать в опросах
Вы не можете прикреплять файлы к сообщениям
Вы не можете скачивать файлы