[TR24][SM][OF] Polyphonies oubliees · Faux-bourdons XVI – XIX / Maitrise de Toulouse, Dominique Vellard & Ensemble Gilles Binchois - 2014 (Classical)


Статистика раздачи [Обновить пиров]
Размер:  1.03 GB   |    Зарегистрирован:  8 месяцев 14 дней   |    Скачан:  0 раз

Полного источника не было: Никогда

 
   
 
 
 

[Цитировать]

Polyphonies oubliées
Faux-bourdons XVIe – XIXe
·Жанр: Choral
Носитель: Official Digital Download
Год издания диска: 2014
Издатель(лейбл): Aparté · Little Tribeca
Номер по каталогу: AP097
Продолжительность: 01:47:16
Наличие сканов в содержимом раздачи: cover & booklet
Контейнер: FLAC (*.flac)
Разрядность: 24/44,1
Количество каналов: 2.0
Формат: tracks
Источник: qobuz.com
Pелизер: WEB (thanks to the original customer)
Ensemble Gilles Binchois
Dominique Vellard
Maîtrise de Toulouse
http://www.qobuz.com/gb-en/album/polyphonies-oubliees-faux-bourdons-ensemble-gill...d/3149028051025#

XVIe > XVIIe

01. Ave consurgens aurora (versus)02. Lumen ad revelationem (antienne) & Nunc dimittis (cantique de Siméon)
03. Credo in unum Deum
04. Mater regis angelorum (versus)
05. Nunc dimittis / Ayn apolis / Magnum nomen Domini (cantique de Siméon)
06. Litaniae B. Mariae Virginis (Litanies)
07. Miserere (psaume 50)
08. Creator omnium (versus)
09. Claudin de Sermisy (1490-1562) Magnificat du 6e ton
10. Laudate pueri (psaume 112)
11. Jean de Bournonville (1585-1632) Ave regina cœlorum (antienne)
12. In exitu Israel (psaume 113)
13. Laudate Dominum du 3e ton (psaume 116)
14. Marc-Antoine Charpentier (1643-1704) De profundis (psaume 129)

-

Dynamic Range Meter

foobar2000 1.2.6 / Dynamic Range Meter 1.1.1
log date: 2015-02-22 23:24:02
--------------------------------------------------------------------------------
Analyzed: Ensemble Gilles Binchois, Dominique Vellard, Maîtrise de Toulouse / Polyphonies oubliées: Faux-bourdons XVIe – XIXe
--------------------------------------------------------------------------------
DR Peak RMS Duration Track
--------------------------------------------------------------------------------
DR12 -1.61 dB -18.19 dB 2:29 01-Ave consurgens aurora (versus)
DR12 -2.87 dB -19.15 dB 4:28 02-Lumen ad revelationem (antienne) & Nunc dimittis (cantique de Siméon)
DR13 -0.02 dB -19.37 dB 7:49 03-Credo in unum deum
DR12 -4.30 dB -20.77 dB 1:17 04-Mater regis angelorum (versus)
DR13 -3.29 dB -20.23 dB 5:19 05-Nunc dimittis / Ayn apolis / Magnum nomen Domini (cantique de Siméon)
DR13 -0.08 dB -16.90 dB 2:29 06-Litaniæ b. mariae virginis (litanies)
DR12 -6.74 dB -22.70 dB 3:14 07-Miserere, psaume 50
DR12 -4.10 dB -20.82 dB 3:02 08-Creator omnium (versus)
DR13 -4.16 dB -21.00 dB 7:21 09-Magnificat du 6e ton
DR13 -4.39 dB -20.72 dB 3:56 10-Laudate pueri (psaume 112)
DR12 -0.17 dB -17.27 dB 2:04 11-Ave regina cœlorum (antienne)
DR13 -4.60 dB -21.75 dB 5:19 12-In exitu Israël (psaume 113)
DR12 -0.18 dB -17.94 dB 2:05 13-Laudate dominum du 3e ton (psaume 116)
DR13 -0.25 dB -19.20 dB 4:24 14-De profundis (psaume 129)
--------------------------------------------------------------------------------
Number of tracks: 14
Official DR value: DR13
Samplerate: 44100 Hz
Channels: 2
Bits per sample: 24
Bitrate: 1315 kbps
Codec: FLAC
================================================================================

XVIIIe > XIXe

01. Pange lingua (hymne)02. Dixit Dominus (psaume 109)
03. Ave maris stella (hymne)
04. Alleluia, O filii et filiæ
05. Ave maris stella (hymne)
06. Kyrie de la Messe des morts
07. Dies iræ (séquence)
08. Omne quod dat mihi (antienne) & Magnificat du 7e ton
09. François-Louis Perne (1772-1832) Kyrie de la messe des solennels mineurs
10. Ave verum corpus (séquence)
11. Ut queant laxis (hymne)
12. Inviolata (séquence)
13. Aloys Kunc (1832-1895) Adoremus in æternum (antienne)

-

Dynamic Range Meter

foobar2000 1.2.6 / Dynamic Range Meter 1.1.1
log date: 2015-02-22 23:24:47
--------------------------------------------------------------------------------
Analyzed: Ensemble Gilles Binchois, Dominique Vellard, Maîtrise de Toulouse / Polyphonies oubliées: Faux-bourdons XVIe – XIXe
--------------------------------------------------------------------------------
DR Peak RMS Duration Track
--------------------------------------------------------------------------------
DR13 -4.35 dB -22.50 dB 3:47 01-Pange lingua (hymne)
DR13 -1.61 dB -19.12 dB 3:43 02-Dixit dominus (psaume 109)
DR12 -2.63 dB -19.81 dB 2:24 03-Ave maris stella (hymne)
DR12 -0.65 dB -16.19 dB 3:41 04-Alleluia, o filii et filiæ
DR12 -1.92 dB -16.95 dB 2:22 05-Ave maris stella (hymne)
DR12 -1.23 dB -17.14 dB 3:14 06-Kyrie de la messe des morts
DR15 0.00 dB -19.31 dB 8:56 07-Dies iræ (séquence)
DR13 -1.65 dB -20.65 dB 5:25 08-Omne quod dat mihi (antienne) & Magnificat du 7e ton
DR14 -3.63 dB -22.24 dB 3:56 09-Kyrie de la messe des solennels mineurs
DR12 -2.61 dB -19.07 dB 2:32 10-Ave verum corpus (séquence)
DR13 -2.43 dB -20.58 dB 3:50 11-Ut queant laxis (hymne)
DR13 -4.43 dB -22.15 dB 2:23 12-Inviolata (séquence)
DR14 -0.67 dB -18.73 dB 6:02 13-Adoremus in æternum (antienne)
--------------------------------------------------------------------------------
Number of tracks: 13
Official DR value: DR13
Samplerate: 44100 Hz
Channels: 2
Bits per sample: 24
Bitrate: 1357 kbps
Codec: FLAC
================================================================================

Исполнители

Ensemble Gilles Binchois · direction Dominique Vellard
David Sagastume contreténor
François Roche ténor
Dominique Vellard ténor
Cyprien Sadek baryton
Joel Frederiksen basse
Saori Sato orgue
Bernard Fourtet serpent
Maîtrise de Toulouse · direction Mark Opstad
[teatrix.ru].t20437.torrent 
Торрент: Зарегистрирован [ 2016-03-19 20:36 ] · CC3A721D772445076A19596CCF8026DFFF4E7468

Скачать .torrent

Скачать

13 KB

Статус: проверено
Скачан: 0 раз
Размер: 1.03 GB
terms.php



Быстрый ответ

Имя:

      
Для отправки сообщений необходимо включить JavaScript
Показать сообщения:    

Текущее время: 03-Дек 01:22

Часовой пояс: UTC + 3


Вы можете начинать темы
Вы можете отвечать на сообщения
Вы не можете редактировать свои сообщения
Вы не можете удалять свои сообщения
Вы не можете голосовать в опросах
Вы не можете прикреплять файлы к сообщениям
Вы можете скачивать файлы