Выкрутасы Гарри Бардина (4 серии из 4-х) (Ирина Васильева) [2015, Биографический, SATRip]


Статистика раздачи [Обновить пиров]
Размер:  1.23 GB   |    Зарегистрирован:  8 месяцев 14 дней   |    Скачан:  0 раз

Полного источника не было: Никогда

 
   
 
 
 

[Цитировать]

Выкрутасы Гарри Бардина (4 серии)
Дата/Год выпуска: 2015
Страна: Россия
Жанр: Биографический
Продолжительность: 00:26:00 х 4
Перевод: Не требуется
Русские субтитры: нет
Арт-директор : Ирина Васильева
Телеканал: Культура
Описание: Как научиться делать мультфильмы? Как суметь всю большую жизнь заниматься любимым делом – кропотливым созданием чуда, увидев которое смеются дети и грустят взрослые? Гарри Бардин, популярный российский аниматор, за четыре вечера попробует рассказать о своей жизни и судьбе.
качество: SATRip
формат: AVI
Видео: 704x400 (1.85:1), 25 fps, XviD build 64 ~1500 kbps avg, 0.21 bit/pixel
Аудио: 48 kHz, MPEG Layer 3, 2 ch, ~192.00 kbps avg

Список выпусков/серий

1 ...заявка на жизнь
Кто бы мог себе представить, что паренек из голодного военного детства станет мировой известностью в мире мультипликации. Гарри Бардин помнит, как все тогда начиналось. Запахи, мелодии, фасоны и привычки послевоенного времени.
2 ...кризис жанра
Молодой Гарри Бардин решил стать актером и даже играл в театре. Но мир искусства оказался гораздо шире, и пришлось осваивать новые профессии. Сейчас Бардин с улыбкой вспоминает "АБВГДейку", которую он сочинял как сценарист, потом работу в театре кукол Образцова.
3 ...ни дня без кадра
15 лет проработал Гарри Бардин на "Союзмультфильме". Это были лучшие годы жизни, потому что за это время были сделаны мультики, которые мы пересматриваем всю жизнь.
4 ...своя дистанция
Казалось бы, у Гарри Бардина все есть. Призы, любимая работа, друзья навсегда. Что еще надо этому неугомонному мастеру? В 1991 году Бардин создает свою собственную студию и делает, по-прежнему, что хочет. Правда, денег стало маловато, но зато есть много пластилина, а это – будущие фильмы.

MediaInfo

Полное имя                               : H:\01 РАЗДАЧИ ДОКУМЕНТ\Выкрутасы Гарри Бардина 00\Выкрутасы Гарри Бардина\1 ...заявка на жизнь.avi
Формат : AVI
Формат/Информация : Audio Video Interleave
Размер файла : 315 Мбайт
Продолжительность : 25 м.
Общий поток : 1705 Кбит/сек
Программа кодирования : Lavf54.63.100
Видео
Идентификатор : 0
Формат : MPEG-4 Visual
Профиль формата : Simple@L3
Параметр BVOP формата : Нет
Параметр QPel формата : Нет
Параметр GMC формата : Без точки перехода
Параметр матрицы формата : Default (H.263)
Идентификатор кодека : XVID
Идентификатор кодека/Подсказка : XviD
Продолжительность : 25 м.
Битрейт : 1500 Кбит/сек
Ширина : 704 пикселя
Высота : 400 пикселей
Соотношение сторон : 1,85:1
Частота кадров : 25,000 кадров/сек
Цветовое пространство : YUV
Субдискретизация насыщенности : 4:2:0
Битовая глубина : 8 бит
Тип развёртки : Прогрессивная
Метод сжатия : С потерями
Бит/(Пиксели*Кадры) : 0.213
Размер потока : 277 Мбайт (88%)
Библиотека кодирования : XviD 64
Аудио
Идентификатор : 1
Формат : MPEG Audio
Версия формата : Version 1
Профиль формата : Layer 3
Идентификатор кодека : 55
Идентификатор кодека/Подсказка : MP3
Продолжительность : 25 м.
Вид битрейта : Постоянный
Битрейт : 192 Кбит/сек
Каналы : 2 канала
Частота : 48,0 КГц
Метод сжатия : С потерями
Размер потока : 35,5 Мбайт (11%)
Выравнивание : Соединение по промежуткам
Продолжительность промежутка : 24 мс. (0,60 видеокадр)
Время предзагрузки промежутка : 24 мс.
Библиотека кодирования : LAME3.99.5ЄЄЄЄЄЄЄЄЄЄ

Скриншоты

[teatrix.ru].t20441.torrent 
Торрент: Зарегистрирован [ 2016-03-19 20:36 ] · C304A62952BBF954532E8A8A76932B600F08385E

Скачать .torrent

Скачать

13 KB

Статус: проверено
Скачан: 0 раз
Размер: 1.23 GB
terms.php



Быстрый ответ

Имя:

      
Для отправки сообщений необходимо включить JavaScript
Показать сообщения:    

Текущее время: 03-Дек 14:38

Часовой пояс: UTC + 3


Вы можете начинать темы
Вы можете отвечать на сообщения
Вы не можете редактировать свои сообщения
Вы не можете удалять свои сообщения
Вы не можете голосовать в опросах
Вы не можете прикреплять файлы к сообщениям
Вы можете скачивать файлы