[TR24][OF] Robert Schumann - Kinderszenen, Op. 15; Klavierkonzert a-Moll, Op. 54 (Martin Stadtfeld, Halle Orchestra Manchester, Mark Elder) - 2015 (Classical, Piano)


Статистика раздачи [Обновить пиров]
Размер:  521 MB   |    Зарегистрирован:  8 месяцев 20 дней   |    Скачан:  0 раз

Полного источника не было: Никогда

 
   
 
 
 

[Цитировать]

Robert Schumann
Kinderszenen · Klavierkonzert
Martin Stadtfeld
Hallé Orchestra Manchester & Mark Elder
- Год издания: 2015
Жанр: Classical, Piano
Издатель (лейбл): Sony Classical
Продолжительность: 00:56:34
Наличие сканов: Sleeve, Digital Booklet
- -
Robert Schumann (1810-1856)
Kinderszenen, Op. 15
01. I. Von fremden Landern und Menschen (1:10)
02. II. Kuriose Geschichte (1:39)
03. III. Haschemann (0:25)
04. IV. Bittendes Kind (1:14)
05. V. Glückes genug (2:04)
06. VI. Wichtige Begebenheit (1:22)
07. VII. Träumerei (1:59)
08. VIII. Am Kamin (1:09)
09. IX. Ritter vom Steckenpferd (0:52)
10. X. Fast zu ernst (3:40)
11. XI. Fürchten machen (3:47)
12. XII. Kind im Einschlummern (2:59)
13. XIII. Der Dichter spricht (2:47)
Klavierkonzert a-Moll, Op. 54*
14. I. Allegro affettuoso (15:22)
15. II. Intermezzo (4:35)
16. III. Allegro vivace (11:30)
-Martin Stadtfeld (piano)
*Hallé Orchestra Manchester
Mark Elder (conductor)
Recorded: January 9-10 2015, Hallé St. Peter's, Manchester
-Контейнер: FLAC (*.flac)
Тип рипа: tracks
Разрядность: 24bit / 48kHz
Количество каналов: 2.0

ОтчётыДинамический диапазон

foobar2000 1.2.2 / Dynamic Range Meter 1.1.1
log date: 2015-02-23 16:56:19
--------------------------------------------------------------------------------
Analyzed: Martin Stadtfeld, Hallé Orchestra Manchester, Mark Elder / Schumann: Kinderszenen, Klavierkonzert (1-3)
Martin Stadtfeld / Schumann: Kinderszenen, Klavierkonzert (4-16)
--------------------------------------------------------------------------------
DR Peak RMS Duration Track
--------------------------------------------------------------------------------
DR15 -0.10 dB -20.14 dB 15:22 ?-Klavierkonzert a-Moll, Op. 54: I. Allegro affettuoso
DR13 -6.00 dB -23.97 dB 4:35 ?-Klavierkonzert a-Moll, Op. 54: II. Intermezzo
DR14 -0.10 dB -18.00 dB 11:30 ?-Klavierkonzert a-Moll, Op. 54: III. Allegro vivace
DR11 -13.22 dB -26.91 dB 1:10 ?-Kinderszenen, Op. 15: I. Von fremden Landern und Menschen
DR12 -2.12 dB -20.62 dB 1:39 ?-Kinderszenen, Op. 15: II. Kuriose Geschichte
DR9 -3.47 dB -17.45 dB 0:25 ?-Kinderszenen, Op. 15: III. Haschemann
DR11 -10.35 dB -27.62 dB 1:14 ?-Kinderszenen, Op. 15: IV. Bittendes Kind
DR11 -8.19 dB -24.28 dB 2:04 ?-Kinderszenen, Op. 15: V. Glückes genug
DR13 -0.31 dB -16.04 dB 1:22 ?-Kinderszenen, Op. 15: VI. Wichtige Begebenheit
DR12 -10.84 dB -28.18 dB 1:59 ?-Kinderszenen, Op. 15: VII. Träumerei
DR11 -8.55 dB -23.69 dB 1:09 ?-Kinderszenen, Op. 15: VIII. Am Kamin
DR10 -0.57 dB -14.78 dB 0:52 ?-Kinderszenen, Op. 15: IX. Ritter vom Steckenpferd
DR15 -8.27 dB -29.41 dB 3:40 ?-Kinderszenen, Op. 15: X. Fast zu ernst
DR17 -2.53 dB -27.13 dB 3:47 ?-Kinderszenen, Op. 15: XI. Fürchten machen
DR14 -12.45 dB -31.44 dB 2:59 ?-Kinderszenen, Op. 15: XII. Kind im Einschlummern
DR14 -7.40 dB -29.14 dB 2:47 ?-Kinderszenen, Op. 15: XIII. Der Dichter spricht
--------------------------------------------------------------------------------
Number of tracks: 16
Official DR value: DR13
Samplerate: 48000 Hz
Channels: 2
Bits per sample: 24
Bitrate: 1176 kbps
Codec: FLAC
================================================================================

Скриншот спектра частот

Доп. информация

При скачивании, если необходимо, переименуйте папку, в которой будет находиться альбомБольшая просьба к скачавшим поддерживать раздачу! Помогайте другим, ведь вам тоже может понадобиться помощь!Не забываем говорить "Спасибо"!Комментарии приветствуются!
[teatrix.ru].t20442.torrent 
Торрент: Зарегистрирован [ 2016-03-19 20:36 ] · 3F2279A0E03FDE51FF96EC7444800DBB87B0192E

Скачать .torrent

Скачать

12 KB

Статус: проверено
Скачан: 0 раз
Размер: 521 MB
terms.php



Быстрый ответ

Имя:

      
Для отправки сообщений необходимо включить JavaScript
Показать сообщения:    

Текущее время: 09-Дек 20:23

Часовой пояс: UTC + 3


Вы можете начинать темы
Вы можете отвечать на сообщения
Вы не можете редактировать свои сообщения
Вы не можете удалять свои сообщения
Вы не можете голосовать в опросах
Вы не можете прикреплять файлы к сообщениям
Вы можете скачивать файлы