Лермонтов (Максим Беспалый) [2014 г., Историко-биографический, HDTVRip]


Статистика раздачи [Обновить пиров]
Размер:  745 MB   |    Зарегистрирован:  8 месяцев 19 дней   |    Скачан:  0 раз

Полного источника не было: Никогда

 
   
 
 
 

[Цитировать]

Лермонтов
Год выпуска: 2014
Страна: Россия
Жанр: Историко-биографический
Продолжительность: 01:29:50
Перевод: Не требуется
Русские субтитры: нет
Оригинальная аудиодорожка: русский
Режиссер: М. Беспалый
Телеканал: Первый HD
В ролях: Владимир Аблогин, Анна Леванова, Илья Ловкий, Семён Сердин, Василий Цыганцов, Александр Лимин, Павел Рассомахин, Сесиль Свердлова, Людмила Гамуряк, Данила Колбасеев
Описание: Михаил Лермонтов (1814-1841), величайший русский поэт и писатель. Его роман «Герой нашего времени» признан одной из самых читаемых книг в России. Его произведения во все времена были особенно актуальны и популярны среди молодых людей. Стихи и проза Лермонтова переведены на множество языков и по праву принадлежат к классике мировой литературы. Лермонтов погиб на дуэли при странных обстоятельствах в 27 лет. Он вырос без родителей, дважды был всерьез влюблен, был окружен множеством друзей, прошел войну, но всю жизнь оставался крайне одиноким. Фильм расскажет о том, как события жизни Лермонтова тесно переплетены с сюжетами его произведений. Реальная жизнь поэта незримо переходит в его вымышленный мир, а герои и события его произведений дают ответы на биографические загадки в судьбе Лермонтова. Фильм приурочен к 200-летию со дня рождения Михаила Лермонтова.
Серия 1.
Судьба Михаила Лермонтова с детства была отмечена тревожными предсказаниями и трагическими событиями. Акушерка, принимавшая роды, заявила – "Много я детей перевидала, а этот своей смертью не умрет". Когда мальчику исполнилось три года, от чахотки скоропостижно скончалась его мать. Детство Лермонтова прошло в пензенском имении бабушки в комфортной обстановке, но без семейного уюта. Мальчик часто болел, постельный режим не оставлял выбора: в своем воображении Лермонтов рисовал несуществующие миры. Капризный барчонок превратился во впечатлительного и импульсивного подростка, внутри которого клокотал мир страстей. Казалось бы, впереди блестящее будущее московского бонвивана, но снова трагедия – смерть отца. А за ней – ошеломительное решение о перемене судьбы.
Серия 2.
20-летний Лермонтов, красавец-корнет, недавно окончил военное училище. По Петербургу ходят слухи о том, что он сводит женщин с ума, а потом оставляет их – "потому что романы теперь надо не делать, а писать!". Как гром среди ясного неба звучит выстрел Дантеса в Пушкина - кумира Михаила. Эхом по Петербургу проносятся копии стихотворения Лермонтова "На смерть поэта". Дело принимает неожиданный оборот, и молодой поэт оказывается в ссылке на Кавказе. Следующие пять лет проходят в скитаниях по Петербургу и Кавказу, от ссылки к ссылке. Пять лет, давшие литературному миру шедевры прозы и поэзии. Пять лет кипучей жизни и войны с собой и всем миром. Пять лет до рокового выстрела, загадку которого литературоведы и биографы пытаются разгадать до сих пор…
Доп. информация: Рип сделан пользователем кинозала ivandubskoj с этого исходника: https://78.24.219.58:1500/viewtopic.php?t=4947235
Сэмпл: https://www.sendspace.com/file/ff5782
Качество: HDTVRip
Формат: AVI
Видео: 1022 Кбит/сек, 656*368 (16:9), 25,000 кадров/сек, XviD
Аудио: Русский, 128 Кбит/сек, 48,0 КГц, 2 канала, MP3

MediaInfo

Общее
Полное имя : F:\MONAR.RU\Видео\История России и мира\Лермонтов.avi
Формат : AVI
Формат/Информация : Audio Video Interleave
Размер файла : 745 Мбайт
Продолжительность : 1 ч. 29 м.
Общий поток : 1160 Кбит/сек
Программа кодирования : VirtualDubMod 1.5.10.3 (build 2550/release)
Библиотека кодирования : VirtualDubMod build 2550/release
Правообладатель : rip by ivanduskoj
Видео
Идентификатор : 0
Формат : MPEG-4 Visual
Профиль формата : Advanced Simple@L5
Параметр BVOP формата : 2
Параметр QPel формата : Нет
Параметр GMC формата : Без точки перехода
Параметр матрицы формата : Выборочная
Идентификатор кодека : XVID
Идентификатор кодека/Подсказка : XviD
Продолжительность : 1 ч. 29 м.
Битрейт : 1022 Кбит/сек
Ширина : 656 пикселей
Высота : 368 пикселей
Соотношение сторон : 16:9
Частота кадров : 25,000 кадров/сек
Цветовое пространство : YUV
Субдискретизация насыщенности : 4:2:0
Битовая глубина : 8 бит
Тип развёртки : Прогрессивная
Метод сжатия : С потерями
Бит/(Пиксели*Кадры) : 0.169
Размер потока : 657 Мбайт (88%)
Библиотека кодирования : XviD 73
Аудио
Идентификатор : 1
Формат : MPEG Audio
Версия формата : Version 1
Профиль формата : Layer 3
Идентификатор кодека : 55
Идентификатор кодека/Подсказка : MP3
Продолжительность : 1 ч. 29 м.
Вид битрейта : Постоянный
Битрейт : 128 Кбит/сек
Каналы : 2 канала
Частота : 48,0 КГц
Метод сжатия : С потерями
Размер потока : 82,2 Мбайт (11%)
Выравнивание : Соединение по промежуткам
Продолжительность промежутка : 40 мс. (1,00 видеокадр)
Время предзагрузки промежутка : 504 мс.
Библиотека кодирования : LAME3.99r
Настройки программы : -m s -V 4 -q 0 -lowpass 17 -b 128

Скриншоты

[teatrix.ru].t20444.torrent 
Торрент: Зарегистрирован [ 2016-03-19 20:36 ] · 664C71CBB0478CE7516F19D67FA35B055D47241F

Скачать .torrent

Скачать

15 KB

Статус: проверено
Скачан: 0 раз
Размер: 745 MB
terms.php



Быстрый ответ

Имя:

      
Для отправки сообщений необходимо включить JavaScript
Показать сообщения:    

Текущее время: 08-Дек 12:55

Часовой пояс: UTC + 3


Вы можете начинать темы
Вы можете отвечать на сообщения
Вы не можете редактировать свои сообщения
Вы не можете удалять свои сообщения
Вы не можете голосовать в опросах
Вы не можете прикреплять файлы к сообщениям
Вы можете скачивать файлы