Вальпургиева ночь (Валерий Белякович) [2014 г., Трагикомедия, SATRip] Московский театр на Юго-Западе


 

[Цитировать]

Вальпургиева ночь Название театра: Московский театр на Юго-Западе.
Год выпуска: 2014.
Жанр: Трагикомедия в 1-м действии.
Продолжительность: 02:04:03.
Режиссеры: народный артист России Валерий Белякович, Александр Сычев.
Действующие лица и исполнители:
Старший врач больницы - заслуженная артистка России Галина Галкина,
Боренька, медбрат по кличке Мордоворот - Михаил Белякович,
Натали, медсестра - Любовь Ярлыкова,
Тамарочка, медсестра - Жанна Чирва,
Гуревич - Фарид Тагиев,
Прохоров, староста 3-й палаты - Денис Нагретдинов,
Алеха по кличке Диссидент - Максим Лакомкин,
Вова, старичок из деревни - Валерий Черняк,
Сережа Клейнмихель - Олег Заадорин,
Витенька-обжора - Константин Курочкин,
Стасик-цветовод - заслуженный артист России Александр Задохин,
Коля-эстонец - Андрей Санников,
Комсорг 3-й палаты Пашка Еремин - Михаил Грищенко,
Контр-адмирал Михалыч - Антон Белов,
Хохуля - Александр Шатохин.
Описание:
О своем произведении " Вальпургиева ночь, или Шаги Командора" Венедикт Ерофеев сказал – "решил сделать очень смешно и в финале героев ухайдокать, а подонков оставить – это понятно нашему человеку".
Действие происходит в 80-е годы, период застоя характерен борьбой с неугодными личностями. Вперемежку с настоящими душевнобольными жизнь в застенках психбольниц проводили диссиденты.
В палату приводят Гуревича, и в жизни ее обитателей наступает перелом. Совершенно не желающий покоряться силе зла, действующим законам, мыслящий, протестующий человек как будто появился из другого мира. Он – как луч света в сонном царстве обреченных людей...

Дополнительная информация:
Страна: Россия .
Выпущено: © Кинокомпания "ЛОНГ-Фильм", © по заказу Правительства Москвы.
Постановка и сценография: народный артист России Валерий Белякович.
Автор: Венедикт Ерофеев.
Звуковое оформление: заслуженный работник культуры России Михаил Коротков.
Художник по свету: заслуженный работник культуры России Вячеслав Климов.
Художник по костюмам: заслуженная артистка России Ирина Бочоришвили.
Основатель и руководитель театра: народный артист России Валерий Белякович.
Премьера спектакля состоялась: 22 июля 1989 года.
Режиссер телеоверсии: Александр Сычев.
Оператор-постановщик: Олег Пикалев.
Видеоверсия создана: 2 июня 2009 года.

О спектакле.
Релиз

Качество видео: SATRip
Формат: AVI
Видео:..720x400 (1.80:1), 25 fps, XviD MPEG-4 ~1546 kbps avg, 0.21 bit/pixel
Аудио:..44.100 kHz, MPEG Layer 3, 2 ch, ~128.00 kbps avg

Отчет MediaInfo

Общее
Полное имя : Valpurgieva.noch_Moskovskij.teatr.na.Yugo-Zapade.2014.XviD,SATRip.fenixclub.avi
Формат : AVI
Формат/Информация : Audio Video Interleave
Размер файла : 1,46 Гбайт
Продолжительность : 2 ч. 4 м.
Общий поток : 1685 Кбит/сек
Программа кодирования : VirtualDubModRus 1.5.10.2 (build 2542/release)
Библиотека кодирования : VirtualDub build 32842/release
Видео
Идентификатор : 0
Формат : MPEG-4 Visual
Профиль формата : Advanced Simple@L5
Параметр BVOP формата : 2
Параметр QPel формата : Нет
Параметр GMC формата : Без точки перехода
Параметр матрицы формата : Default (H.263)
Режим смешивания : Сжатый битовый поток
Идентификатор кодека : XVID
Идентификатор кодека/Подсказка : XviD
Продолжительность : 2 ч. 4 м.
Битрейт : 1547 Кбит/сек
Ширина : 720 пикселей
Высота : 400 пикселей
Соотношение сторон : 16:9
Частота кадров : 25,000 кадров/сек
Цветовое пространство : YUV
Субдискретизация насыщенности : 4:2:0
Битовая глубина : 8 бит
Тип развёртки : Прогрессивная
Метод сжатия : С потерями
Бит/(Пиксели*Кадры) : 0.215
Размер потока : 1,34 Гбайт (92%)
Библиотека кодирования : XviD 73
Аудио
Идентификатор : 1
Формат : MPEG Audio
Версия формата : Version 1
Профиль формата : Layer 3
Режим : Joint stereo
Расширение режима : MS Stereo
Идентификатор кодека : 55
Идентификатор кодека/Подсказка : MP3
Продолжительность : 2 ч. 4 м.
Вид битрейта : Постоянный
Битрейт : 128 Кбит/сек
Каналы : 2 канала
Частота : 44,1 КГц
Метод сжатия : С потерями
Размер потока : 114 Мбайт (8%)
Выравнивание : Разделение по промежуткам
Продолжительность промежутка : 40 мс. (1,00 видеокадр)
Время предзагрузки промежутка : 500 мс.
Библиотека кодирования : LAME3.98.2

Скриншот с названием постановки

Скриншоты


Альтернативный хост





Показать сообщения:    

Текущее время: 04-Дек 13:15

Часовой пояс: UTC + 3


Вы не можете начинать темы
Вы не можете отвечать на сообщения
Вы не можете редактировать свои сообщения
Вы не можете удалять свои сообщения
Вы не можете голосовать в опросах
Вы не можете прикреплять файлы к сообщениям
Вы не можете скачивать файлы