(Classical, minimalism) Vladimir Martynov (Владимир Мартынов) ‎– Passionslieder (Opus Posth) - 2004, APE (image+.cue) lossless


 

[Цитировать]

Vladimir Martynov (Владимир Мартынов) ‎– Passionslieder (Opus Posth)
Жанр: Classical, minimalism
Страна-производитель диска: Russia
Год издания диска: 2004
Издатель (лейбл): Long Arms Records
Номер по каталогу: CDLA 04022
Дата записи: 2004
Аудиокодек: APE
Тип рипа: image+.cue
Битрейт аудио: lossless
Продолжительность: 00:40:00
Источник: собственный рип
Наличие сканов в содержимом раздачи: да
Треклист:
Erster Teil - Liederbuch
1. Leid 1
2. Leid 2
3. Leid 3
4. Leid 4
Zweiter Teil - Instrumentalmusik
5. Symphonie I "Erstes Kreuz"
6. Symphonie II "Zweites Kreuz"
7. Symphonie III "Drittes Kreuz"
Dritter Teil - Gesangbuch
8. Gesänge
9. Kommuniongesänge
Исполнители:
Opus Posth - Ensemble
Galina Muradova, Tatiana Grindenko - Perfomer

Лог создания рипа

Exact Audio Copy V1.0 beta 4 from 7. December 2014
Отчёт EAC об извлечении, выполненном 23. февраля 2015, 12:03
Vladimir Martynov / Passionslieder
Дисковод: HL-DT-STDVDRAM GH22NS40 Adapter: 1 ID: 0
Режим чтения : Достоверность
Использование точного потока : Да
Отключение кэша аудио : Да
Использование указателей C2 : Нет
Коррекция смещения при чтении : 667
Способность читать области Lead-in и Lead-out : Нет
Заполнение пропущенных сэмплов тишиной : Да
Удаление блоков с тишиной в начале и конце : Нет
При вычислениях CRC использовались нулевые сэмплы : Да
Интерфейс : Встроенный Win32-интерфейс для Win NT/2000
Выходной формат : Пользовательский кодировщик
Выбранный битрейт : 128 kBit/s
Качество : Высокий
Добавление ID3-тега : Нет
Утилита сжатия : C:\Users\Alex\Desktop\MAC_414.exe
Дополнительные параметры : %source% %dest% -c3000
TOC извлечённого CD
Трек | Старт | Длительность | Начальный сектор | Конечный сектор
---------------------------------------------------------------------
1 | 0:00.00 | 3:22.65 | 0 | 15214
2 | 3:22.65 | 2:45.72 | 15215 | 27661
3 | 6:08.62 | 2:59.71 | 27662 | 41157
4 | 9:08.58 | 3:25.03 | 41158 | 56535
5 | 12:33.61 | 1:34.52 | 56536 | 63637
6 | 14:08.38 | 1:34.31 | 63638 | 70718
7 | 15:42.69 | 1:37.00 | 70719 | 77993
8 | 17:19.69 | 18:34.58 | 77994 | 161601
9 | 35:54.52 | 3:39.30 | 161602 | 178056
Характеристики диапазона извлечения и сообщения об ошибках
Выбранный диапазон
Имя файла C:\Users\Alex\Desktop\V. Martynov\Vladimir Martynov - Passionslieder.wav
Пиковый уровень 98.2 %
Скорость извлечения 1.7 X
Качество диапазона 100.0 %
CRC теста 6B064D7C
CRC копии 6B064D7C
Копирование... OK
Ошибок не произошло
AccurateRip: сводка
Трек 1 : извлечено точно (доверие 1) [AD02E41E] (AR v2)
Трек 2 : извлечено точно (доверие 1) [8B873DAF] (AR v2)
Трек 3 : извлечено точно (доверие 1) [6BC55B39] (AR v2)
Трек 4 : извлечено точно (доверие 1) [6779873D] (AR v2)
Трек 5 : извлечено точно (доверие 1) [348C8494] (AR v2)
Трек 6 : извлечено точно (доверие 1) [C483D822] (AR v2)
Трек 7 : извлечено точно (доверие 1) [ED250B84] (AR v2)
Трек 8 : извлечено точно (доверие 1) [76C4AEBD] (AR v2)
Трек 9 : извлечено точно (доверие 1) [90F566A0] (AR v2)
Все треки извлечены точно
Конец отчёта
==== Контрольная сумма отчёта 2415D595654188C92D1DD4CCE8F20F458C46F7E57A5D654BF999B836A18DB852 ====

Содержание индексной карты (.CUE)

REM GENRE Avantgarde
REM DATE 2004
REM DISCID 5F094609
REM COMMENT "ExactAudioCopy v1.0b4"
PERFORMER "Vladimir Martynov"
TITLE "Passionslieder"
FILE "Vladimir Martynov - Passionslieder.ape" WAVE
TRACK 01 AUDIO
TITLE "Erster Teil - Lied 1"
PERFORMER "Vladimir Martynov"
INDEX 01 00:00:00
TRACK 02 AUDIO
TITLE "Erster Teil - Lied 2"
PERFORMER "Vladimir Martynov"
INDEX 00 03:20:65
INDEX 01 03:22:65
TRACK 03 AUDIO
TITLE "Erster Teil - Lied 3"
PERFORMER "Vladimir Martynov"
INDEX 00 06:08:23
INDEX 01 06:08:62
TRACK 04 AUDIO
TITLE "Erster Teil - Lied 4"
PERFORMER "Vladimir Martynov"
INDEX 00 09:08:41
INDEX 01 09:08:58
TRACK 05 AUDIO
TITLE "Zweiter Teil - Simphonie 1 'Erstes Kreuz'"
PERFORMER "Vladimir Martynov"
INDEX 00 12:31:61
INDEX 01 12:33:61
TRACK 06 AUDIO
TITLE "Zweiter Teil - Simphonie 2 'Zweites Kreuz'"
PERFORMER "Vladimir Martynov"
INDEX 01 14:08:38
TRACK 07 AUDIO
TITLE "Zweiter Teil - Simphonie 3 'Drittes Kreuz'"
PERFORMER "Vladimir Martynov"
INDEX 01 15:42:69
TRACK 08 AUDIO
TITLE "Dritter Teil - Gesange"
PERFORMER "Vladimir Martynov"
INDEX 00 17:17:69
INDEX 01 17:19:69
TRACK 09 AUDIO
TITLE "Dritter Teil - Kommunionsgesange"
PERFORMER "Vladimir Martynov"
INDEX 01 35:54:52



Показать сообщения:    

Текущее время: 09-Дек 22:27

Часовой пояс: UTC + 3


Вы не можете начинать темы
Вы не можете отвечать на сообщения
Вы не можете редактировать свои сообщения
Вы не можете удалять свои сообщения
Вы не можете голосовать в опросах
Вы не можете прикреплять файлы к сообщениям
Вы не можете скачивать файлы