[TR24][OF] Franz Schubert - Fantaisie (David Fray feat. Jacques Rouvier) - 2015 (Classical, Piano)


Статистика раздачи [Обновить пиров]
Размер:  1.25 GB   |    Зарегистрирован:  8 месяцев 19 дней   |    Скачан:  1 раз

Полного источника не было: 25 дней

 
   
 
 
 

[Цитировать]

Franz Schubert
Fantaisie
David Fray feat. Jacques Rouvier
- Год издания: 2015
Жанр: Classical, Piano
Издатель (лейбл): Warner Classics / Erato
Продолжительность: 01:19:00
Наличие сканов: Sleeve, Digital Booklet
- -
Franz Schubert (1797-1828)
Piano Sonata No. 18 in G Major, D. 894, "Fantasie"
01. I. Molto moderato e cantabile (19:09)
02. II. Andante (7:57)
03. III. Menuetto. Allegro moderato - Trio (4:07)
04. IV. Allegretto (8:35)
Hungarian Melody in B Minor, D. 817
05. Hungarian Melody in B Minor (3:28)
Fantasia in F Minor for Piano Four Hands, D. 940 *
06. Fantasia in F Minor (19:03)
Allegro in A Minor for Piano Four Hands, D. 947 "Lebensstürme" *
07. Allegro in A Minor "Lebensstürme" (16:41)

-
David Fray (piano)
(*) Jacques Rouvier (piano)

-
Контейнер: FLAC (*.flac)
Тип рипа: tracks
Разрядность: 24bit / 96kHz
Количество каналов: 2.0
-О релизе
David Fray returns to Schubert with his much-anticipated second recording of the composer’s piano music, a collection of passionate late works. Along with the Sonata in G D894 ‘Fantasie’ and the Hungarian Melody D817, Fray presents two duets for piano four-hands, both composed in the last year of Schubert’s life: the Fantasia in F minor D940 and the towering Allegro in A minor D947, ‘Lebensstürme’ (‘Storms of Life’). Fray invited Jacques Rouvier, his mentor and renowned teacher from the Paris Conservatoire, to join him in the studio, making this album a true labour of love.
The young French pianist’s Schubert interpretations are universally admired, both on disc and in recital. In its review of Fray’s 2009 album of the Moments musicaux and Impromptus D899, The Guardian praised his “discerning musicality… the sheer lucidity and polish of Fray’s playing, its exceptional command of colour and touch and the way he invariably uses that range of sound to point up musical structures in a meaningful way.” Gramophone declared it “a Schubert disc of the rarest distinction”, while BBC Music Magazine joined the fray with: “What’s immediately striking about his Schubert playing is its refinement, and variety of colour.”
Although Schubert composed over 20 sonatas, only three were published during his lifetime, of which the ‘Fantasie’ G Major Sonata D894, published in 1826, was the last. After Schubert’s death, Robert Schumann described this masterpiece as the "most perfect in form and conception" of all Schubert's sonatas.
„Few pianists have been more acutely sensitive to Schubert's complex inner world” (Gramophone)
David Fray, piano
Jacques Rouvier, piano (on D940 und D947)

ОтчётыДинамический диапазон

foobar2000 1.2.2 / Dynamic Range Meter 1.1.1
log date: 2015-02-24 00:29:30
--------------------------------------------------------------------------------
Analyzed: David Fray, Jacques Rouvier / Fantaisie (1-2)
David Fray / Fantaisie (3-7)
--------------------------------------------------------------------------------
DR Peak RMS Duration Track
--------------------------------------------------------------------------------
DR16 -0.21 dB -21.90 dB 19:03 ?-Fantasia in F Minor for Piano Four Hands, D. 940
DR15 -1.83 dB -22.55 dB 16:41 ?-Allegro in A Minor for Piano Four Hands, D. 947 "Lebensstürme"
DR17 -0.96 dB -25.47 dB 19:09 ?-Piano Sonata No. 18 in G Major, D. 894, "Fantasie": I. Molto moderato e cantabile
DR15 -3.47 dB -25.27 dB 7:57 ?-Piano Sonata No. 18 in G Major, D. 894, "Fantasie": II. Andante
DR15 -3.06 dB -24.27 dB 4:07 ?-Piano Sonata No. 18 in G Major, D. 894, "Fantasie": III. Menuetto. Allegro moderato - Trio
DR13 -4.37 dB -23.96 dB 8:35 ?-Piano Sonata No. 18 in G Major, D. 894, "Fantasie": IV. Allegretto
DR13 -10.76 dB -29.24 dB 3:28 ?-Hungarian Melody in B Minor, D. 817
--------------------------------------------------------------------------------
Number of tracks: 7
Official DR value: DR15
Samplerate: 96000 Hz
Channels: 2
Bits per sample: 24
Bitrate: 2174 kbps
Codec: FLAC
================================================================================

Скриншот спектра частот

Доп. информация

При скачивании, если необходимо, переименуйте папку, в которой будет находиться альбомБольшая просьба к скачавшим поддерживать раздачу! Помогайте другим, ведь вам тоже может понадобиться помощь!Не забываем говорить "Спасибо"!Комментарии приветствуются!
[teatrix.ru].t20450.torrent 
Торрент: Зарегистрирован [ 2016-03-19 20:36 ] · FE33820CE4B196BFD0732BC186A76401F6775E82

Скачать .torrent

Скачать

14 KB

Статус: проверено
Скачан: 1 раз
Размер: 1.25 GB
terms.php



Быстрый ответ

Имя:

      
Для отправки сообщений необходимо включить JavaScript
Показать сообщения:    

Текущее время: 07-Дек 21:20

Часовой пояс: UTC + 3


Вы можете начинать темы
Вы можете отвечать на сообщения
Вы не можете редактировать свои сообщения
Вы не можете удалять свои сообщения
Вы не можете голосовать в опросах
Вы не можете прикреплять файлы к сообщениям
Вы можете скачивать файлы