[TR24][OF] Various Artists - Red Hot + Bach (Deluxe Version) - 2014 (Classical, Crossover)


Статистика раздачи [Обновить пиров]
Размер:  2.34 GB   |    Зарегистрирован:  8 месяцев 21 день   |    Скачан:  0 раз

Полного источника не было: Никогда

 
   
 
 
 

[Цитировать]

Red Hot + Bach
-
Год издания: 2014
Жанр: Classical, Crossover
Издатель (лейбл): Masterworks
Продолжительность: 02:05:32
Наличие сканов: Sleeve, Digital Booklet
- -
01. - Minuet - Rob Moose, Chris Thile (1:45)
02. - Minim - Dustin O'Halloran (2:32)
03. - Jardim do Amor - Mia Doi Todd (4:16)
04. - Time Drinks Three Shots (From "You Us We All") - Shara Worden (1:41)
05. - Number Man - Paul de Jong (3:24)
06. - The Watchmaker - Grey McMurray (5:31)
07. - Very Own - Julianna Barwick (4:04)
08. - Courante - Rob Moose, Chris Thile (5:12)
09. - Minim (Version) - Dustin O'Halloran (3:06)
10. - Arioso - Miguel Atwood-Ferguson (4:15)
11. - Air - Daniel Hope (5:04)
12. - Cello Suite No. 1 - Ron Carter (3:23)
13. - Ave Maria - King Britt (3:09)
14. - Concerto No. 5 - Om'Mas Keith (5:41)
15. - LudePre (Version) - Francesco Tristano, Carl Craig (8:06)
16. - Contrapunctus II (Version) - Kronos Quartet (4:46)
17. - I Call To You - Valgeir Sigurðsson (8:59)
18. - Contrapunctus I - Max Richter (4:20)
19. - Weinen, Klagen, Sorgen, Zagen - Pieter Nooten (3:47)
20. - Saranbande - Rob Moose, Chris Thile (5:52)
21. - Puffinsmilk - Jherek Bischoff (5:26)
22. - Preludio XII - Stephance Wremble (3:09)
23. - Passacaglia - Amiina (4:06)
24. - Paul Jacobs Variations - Prefuse 73 (5:24)
25. - Ricercar a 11 - Burnt Friedman feat. Hayden Chisholm (3:23)
26. - Gavotte - Mark De Clive-Lowe (4:34)
27. - Contrapunctus II - Kronos Quartet (2:29)
28. - Violin Partita No. 3 - Cameron Carpenter (4:13)
29. - Dear Goldberg - Gabriel Kahane (3:57)
-Контейнер: FLAC (*.flac)
Тип рипа: tracks
Разрядность: 24bit / 96kHz
Количество каналов: 2.0
-О релизе
Discovers a contemporary edge in the musical genius of J.S. Bach
Featuring Chris Thile, Gabriel Kahane, Ron Carter, King Britt, Kronos Quartet and more
Red Hot + Bach charts a new pathway into the musical universe of Johann Sebastian Bach. Through the collaboration of performers, producers, DJs and artists from around the world and across the spectrum of contemporary music, different facets of Bach's centuries-old masterpieces are transformed with fresh energy and modern virtuosity that knows no limits. The creators of Red Hot + Bach embrace Bach as a living artistic force, as real and vital today as he was when he lived (1685-1750). They range across 19 freely imagined tracks from mandolin virtuoso Chris Thile (Nickel Creek, The Punch Brothers), singer/songwriters Gabriel Kahane and Shara Worden (My Brightest Diamond), jazz legend Ron Carter, DJ/producer King Britt and the Icelandic band amiina, to imaginative classical artists such as the Kronos Quartet, composer Max Richter and violinist Daniel Hope.
Red Hot, a not-for-profit production company, has been shaking up great music in just this way for 25 years, in projects that celebrated the music of geniuses as diverse as Antonio Carlos Jobim (Red Hot + Rio), Cole Porter (Red Hot + Blue), Duke Ellington (Red Hot + Indigo) and Fela Kuti (Red Hot + Riot). The work of Red Hot also continues to serve a social purpose raising awareness and money in the ongoing fight to stop AIDS. All of Red Hot's work is not-for-profit and its albums and projects have generated more than 12 million dollars in donations to date.

ОтчётыДинамический диапазон

foobar2000 1.2.2 / Dynamic Range Meter 1.1.1
log date: 2015-02-24 21:55:24
--------------------------------------------------------------------------------
Analyzed: Amiina / Red Hot + Bach (Deluxe Version) (1)
Burnt Friedman feat. Hayden Chisholm / Red Hot + Bach (Deluxe Version) (2)
Cameron Carpenter / Red Hot + Bach (Deluxe Version) (3)
Daniel Hope / Red Hot + Bach (Deluxe Version) (4)
Dustin O'Halloran / Red Hot + Bach (Deluxe Version) (5-6)
Francesco Tristano, Carl Craig / Red Hot + Bach (Deluxe Version) (7)
Gabriel Kahane / Red Hot + Bach (Deluxe Version) (8)
Grey McMurray / Red Hot + Bach (Deluxe Version) (9)
Jherek Bischoff / Red Hot + Bach (Deluxe Version) (10)
Julianna Barwick / Red Hot + Bach (Deluxe Version) (11)
King Britt / Red Hot + Bach (Deluxe Version) (12)
Kronos Quartet / Red Hot + Bach (Deluxe Version) (13-14)
Mark De Clive-Lowe / Red Hot + Bach (Deluxe Version) (15)
Max Richter / Red Hot + Bach (Deluxe Version) (16)
Mia Doi Todd / Red Hot + Bach (Deluxe Version) (17)
Miguel Atwood-Ferguson / Red Hot + Bach (Deluxe Version) (18)
Om'Mas Keith / Red Hot + Bach (Deluxe Version) (19)
Paul de Jong / Red Hot + Bach (Deluxe Version) (20)
Pieter Nooten / Red Hot + Bach (Deluxe Version) (21)
Prefuse 73 / Red Hot + Bach (Deluxe Version) (22)
Rob Moose, Chris Thile / Red Hot + Bach (Deluxe Version) (23-25)
Ron Carter / Red Hot + Bach (Deluxe Version) (26)
Shara Worden / Red Hot + Bach (Deluxe Version) (27)
Stephance Wremble / Red Hot + Bach (Deluxe Version) (28)
Valgeir Sigurðsson / Red Hot + Bach (Deluxe Version) (29)
--------------------------------------------------------------------------------
DR Peak RMS Duration Track
--------------------------------------------------------------------------------
DR9 -0.60 dB -13.85 dB 4:06 ?-Passacaglia
DR11 -0.60 dB -14.30 dB 3:23 ?-Ricercar a 11
DR11 -0.60 dB -16.80 dB 4:13 ?-Violin Partita No. 3
DR13 -0.60 dB -16.91 dB 5:04 ?-Air
DR9 -0.60 dB -13.02 dB 2:32 ?-Minim
DR9 -0.50 dB -12.99 dB 3:06 ?-Minim (Version)
DR10 -0.60 dB -12.57 dB 8:06 ?-LudePre (Version)
DR7 -0.60 dB -10.01 dB 3:57 ?-Dear Goldberg
DR9 -0.60 dB -14.27 dB 5:31 ?-The Watchmaker
DR6 -0.60 dB -10.07 dB 5:26 ?-Puffinsmilk
DR9 -0.60 dB -13.53 dB 4:04 ?-Very Own
DR6 -0.60 dB -9.65 dB 3:09 ?-Ave Maria
DR8 -1.00 dB -11.96 dB 4:46 ?-Contrapunctus II (Version)
DR10 -0.60 dB -13.18 dB 2:29 ?-Contrapunctus II
DR8 -0.60 dB -11.25 dB 4:34 ?-Gavotte
DR12 -0.60 dB -15.90 dB 4:20 ?-Contrapunctus I
DR9 -0.60 dB -11.46 dB 4:16 ?-Jardim do Amor
DR10 -0.60 dB -13.29 dB 4:15 ?-Arioso
DR8 -0.60 dB -9.55 dB 5:41 ?-Concerto No. 5
DR10 -0.60 dB -12.87 dB 3:24 ?-Number Man
DR11 -0.60 dB -15.30 dB 3:47 ?-Weinen, Klagen, Sorgen, Zagen
DR9 -0.60 dB -12.40 dB 5:24 ?-Paul Jacobs Variations
DR11 -0.60 dB -15.49 dB 1:45 ?-Minuet
DR13 -0.60 dB -17.23 dB 5:12 ?-Courante
DR14 -0.60 dB -18.54 dB 5:52 ?-Saranbande
DR7 -1.00 dB -9.64 dB 3:23 ?-Cello Suite No. 1
DR11 -0.60 dB -15.71 dB 1:41 ?-Time Drinks Three Shots (From "You Us We All")
DR10 -0.80 dB -13.67 dB 3:09 ?-Preludio XII
DR9 -0.60 dB -13.77 dB 8:59 ?-I Call To You
--------------------------------------------------------------------------------
Number of tracks: 29
Official DR value: DR10
Samplerate: 96000 Hz
Channels: 2
Bits per sample: 24
Bitrate: 2772 kbps
Codec: FLAC
================================================================================

Скриншот спектра частот

Доп. информация

При скачивании, если необходимо, переименуйте папку, в которой будет находиться альбомБольшая просьба к скачавшим поддерживать раздачу! Помогайте другим, ведь вам тоже может понадобиться помощь!Не забываем говорить "Спасибо"!Комментарии приветствуются!
[teatrix.ru].t20453.torrent 
Торрент: Зарегистрирован [ 2016-03-19 20:36 ] · 07A1F567C1CC6183CEDE3C3025189BCD40C5EF70

Скачать .torrent

Скачать

14 KB

Статус: проверено
Скачан: 0 раз
Размер: 2.34 GB
terms.php



Быстрый ответ

Имя:

      
Для отправки сообщений необходимо включить JavaScript
Показать сообщения:    

Текущее время: 10-Дек 04:09

Часовой пояс: UTC + 3


Вы можете начинать темы
Вы можете отвечать на сообщения
Вы не можете редактировать свои сообщения
Вы не можете удалять свои сообщения
Вы не можете голосовать в опросах
Вы не можете прикреплять файлы к сообщениям
Вы можете скачивать файлы