(Baroque) Lagrime Mie (Arietti and Cantate Solo for soprano by Barbara Strozzi, Alessandro Piccini, Bernardo Strorace, Girolamo Giovanni Kapsberger) - 2014, FLAC (tracks+cue), lossless


 

[Цитировать]

Lagrime Mie (Arietti and Cantate Solo for soprano by Barbara Strozzi, Alessandro Piccini, Bernardo Strorace, Girolamo Giovanni Kapsberger)
Жанр: Baroque
Страна-производитель диска: Германия
Год издания диска: 2014
Издатель (лейбл): Querstand
Дата записи: 2013
Аудиокодек: FLAC
Тип рипа: tracks+cue
Битрейт аудио: lossless
Продолжительность: 65:45
Источник: релизер d'Avignon (grand merci pour se magnifique CD!)
Треклист:
Barbara Strozzi:
1 Diporti di Euterpe op.7 - Lagrime mie [0:08:51.98];
2. Ariette a voce sola op.6 - Se volete cosi [0:04:51.00];
Alessandro Piccini:
3. Toccata for theorba [0:02:45.00];
4. Courante for theorba no. 5 [0:01:38.01];
5. Barbara Strozzi - Diporti di Euterpe op.7 - Che v'ho fato [0:07:58.98];
6. Bernardo Strorace - Selva di varie compositioni, 1644 - Ciaccona [0:05:56.00];
7. Barbara Strozzi - Ariette a voce sola op.6 - Chiudi laudaci labra [0:06:26.01];
8. Girolamo Frescobaldi - Canzon prima [0:04:28.98];
Barbara Strozzi:
9. Cantate, ariette e duetti op.2 - Udite, Amanti [0:05:51.00];
10. Ariette a voce sola op.6 - Lilla mia, non ti doler [0:02:09.00];
Girolamo Giovanni Kapsberger - Libro d'intavolatura di chitarrone book 4, 1640:
11. Kapsberger [0:03:44.00];
12. Canario [0:02:06.00];
13. Barbara Strozzi - Arie a voce sola, op.8 - Che si puo fare [0:09:02.04].
Исполнители:
Dorothée Leclaire – soprano,
Lea Rahel Bader – violoncello,
Jory Vinikour – harpsichord,
Yasunori Imamura – theorbo & direction.
Recorded 24-26th July 2013 in Marienkirche, Switzerland.

Лог создания рипа

Exact Audio Copy V1.0 beta 3 from 29. August 2011
EAC extraction logfile from 24. February 2015, 20:15
Various Artists / Lagrime Mie
Used drive : TSSTcorpCDDVDW SH-216AB Adapter: 1 ID: 0
Read mode : Secure
Utilize accurate stream : Yes
Defeat audio cache : Yes
Make use of C2 pointers : No
Read offset correction : 6
Overread into Lead-In and Lead-Out : No
Fill up missing offset samples with silence : Yes
Delete leading and trailing silent blocks : No
Null samples used in CRC calculations : Yes
Used interface : Native Win32 interface for Win NT & 2000
Gap handling : Appended to previous track
Used output format : User Defined Encoder
Selected bitrate : 768 kBit/s
Quality : High
Add ID3 tag : No
Command line compressor : C:\Program Files (x86)\Exact Audio Copy\FLAC\FLAC.EXE
Additional command line options : -6 -V -T "ARTIST=%artist%" -T "TITLE=%title%" -T "ALBUM=%albumtitle%" -T "DATE=%year%" -T "TRACKNUMBER=%tracknr%" -T "GENRE=%genre%" -T "COMMENT=%comment%" -T "BAND=%albuminterpret%" -T "ALBUMARTIST=%albuminterpret%" -T "COMPOSER=%composer%" %haslyrics%--tag-from-file=LYRICS="%lyricsfile%"%haslyrics% -T "DISCNUMBER=%cdnumber%" -T "TOTALDISCS=%totalcds%" -T "TOTALTRACKS=%numtracks%" %hascover%--picture="%coverfile%"%hascover% %source% -o %dest%
TOC of the extracted CD
Track | Start | Length | Start sector | End sector
---------------------------------------------------------
1 | 0:00.00 | 8:51.74 | 0 | 39898
2 | 8:51.74 | 4:51.00 | 39899 | 61723
3 | 13:42.74 | 2:45.00 | 61724 | 74098
4 | 16:27.74 | 1:38.01 | 74099 | 81449
5 | 18:06.00 | 7:58.74 | 81450 | 117373
6 | 26:04.74 | 5:56.00 | 117374 | 144073
7 | 32:00.74 | 6:26.01 | 144074 | 173024
8 | 38:27.00 | 4:28.74 | 173025 | 193198
9 | 42:55.74 | 5:51.00 | 193199 | 219523
10 | 48:46.74 | 2:09.00 | 219524 | 229198
11 | 50:55.74 | 3:44.00 | 229199 | 245998
12 | 54:39.74 | 2:06.00 | 245999 | 255448
13 | 56:45.74 | 9:02.03 | 255449 | 296101
Track 1
Filename C:\Users\astarte\03. POST\Strozzi, Barbara - Lagrime mie\01 Diporti di Euterpe op.7 - Lagrime mie.wav
Pre-gap length 0:00:02.00
Peak level 86.2 %
Extraction speed 5.3 X
Track quality 100.0 %
Copy CRC 3273C223
Track not present in AccurateRip database
Copy OK
Track 2
Filename C:\Users\astarte\03. POST\Strozzi, Barbara - Lagrime mie\02 Ariette a voce sola op.6 - Se volete cosi.wav
Peak level 90.9 %
Extraction speed 5.8 X
Track quality 100.0 %
Copy CRC 226BCD43
Track not present in AccurateRip database
Copy OK
Track 3
Filename C:\Users\astarte\03. POST\Strozzi, Barbara - Lagrime mie\03 Toccata for theorba.wav
Peak level 38.6 %
Extraction speed 4.3 X
Track quality 99.9 %
Copy CRC EDE77DF7
Track not present in AccurateRip database
Copy OK
Track 4
Filename C:\Users\astarte\03. POST\Strozzi, Barbara - Lagrime mie\04 Courante for theorba no. 5.wav
Peak level 39.2 %
Extraction speed 4.9 X
Track quality 100.0 %
Copy CRC 04A0E415
Track not present in AccurateRip database
Copy OK
Track 5
Filename C:\Users\astarte\03. POST\Strozzi, Barbara - Lagrime mie\05 Diporti di Euterpe op.7 - Che v'ho fato.wav
Peak level 92.1 %
Extraction speed 7.0 X
Track quality 100.0 %
Copy CRC 27888112
Track not present in AccurateRip database
Copy OK
Track 6
Filename C:\Users\astarte\03. POST\Strozzi, Barbara - Lagrime mie\06 Selva di varie compositioni, 1644 - Ciaccona.wav
Peak level 18.1 %
Extraction speed 7.4 X
Track quality 100.0 %
Copy CRC ED7DB498
Track not present in AccurateRip database
Copy OK
Track 7
Filename C:\Users\astarte\03. POST\Strozzi, Barbara - Lagrime mie\07 Ariette a voce sola op.6 - Chiudi laudaci labra.wav
Peak level 86.0 %
Extraction speed 7.9 X
Track quality 100.0 %
Copy CRC 77B39023
Track not present in AccurateRip database
Copy OK
Track 8
Filename C:\Users\astarte\03. POST\Strozzi, Barbara - Lagrime mie\08 Canzon prima.wav
Peak level 49.2 %
Extraction speed 8.0 X
Track quality 100.0 %
Copy CRC D6EF0CD8
Track not present in AccurateRip database
Copy OK
Track 9
Filename C:\Users\astarte\03. POST\Strozzi, Barbara - Lagrime mie\09 Cantate, ariette e duetti op.2 - Udite, Amanti.wav
Peak level 85.2 %
Extraction speed 8.6 X
Track quality 100.0 %
Copy CRC 6B1635A9
Track not present in AccurateRip database
Copy OK
Track 10
Filename C:\Users\astarte\03. POST\Strozzi, Barbara - Lagrime mie\10 Ariette a voce sola op.6 - Lilla mia, non ti doler.wav
Peak level 85.5 %
Extraction speed 7.5 X
Track quality 100.0 %
Copy CRC 433E4487
Track not present in AccurateRip database
Copy OK
Track 11
Filename C:\Users\astarte\03. POST\Strozzi, Barbara - Lagrime mie\11 Libro d'intavolatura di chitarrone book 4, 1640 - Kapsberger.wav
Peak level 32.4 %
Extraction speed 8.6 X
Track quality 100.0 %
Copy CRC 67ECC4CB
Track not present in AccurateRip database
Copy OK
Track 12
Filename C:\Users\astarte\03. POST\Strozzi, Barbara - Lagrime mie\12 Libro d'intavolatura di chitarrone book 4, 1640 - Canario.wav
Peak level 30.9 %
Extraction speed 7.9 X
Track quality 100.0 %
Copy CRC 3D224B33
Track not present in AccurateRip database
Copy OK
Track 13
Filename C:\Users\astarte\03. POST\Strozzi, Barbara - Lagrime mie\13 Arie a voce sola, op.8 - Che si puo fare.wav
Peak level 97.9 %
Extraction speed 8.8 X
Track quality 99.9 %
Copy CRC 27DACC03
Track not present in AccurateRip database
Copy OK
None of the tracks are present in the AccurateRip database
No errors occurred
End of status report
==== Log checksum 6A81B7963B04421F7841995BEF10D1A5B578206CCC4A3BB213B77DA49FEEFC5C ====

CUE-file

REM DATE 2015
REM DISCID C90F6C0D
REM COMMENT "ExactAudioCopy v1.0b3"
CATALOG 4025796013030
PERFORMER "Various Artists"
TITLE "Lagrime Mie"
FILE "01 Diporti di Euterpe op.7 - Lagrime mie.wav" WAVE
TRACK 01 AUDIO
TITLE "Diporti di Euterpe op.7 - Lagrime mie"
PERFORMER "Barbara Strozzi"
ISRC DEW741303001
FLAGS DCP
INDEX 01 00:00:00
FILE "02 Ariette a voce sola op.6 - Se volete cosi.wav" WAVE
TRACK 02 AUDIO
TITLE "Ariette a voce sola op.6 - Se volete cosi"
PERFORMER "Barbara Strozzi"
ISRC DEW741303002
FLAGS DCP
INDEX 01 00:00:00
FILE "03 Toccata for theorba.wav" WAVE
TRACK 03 AUDIO
TITLE "Toccata for theorba"
PERFORMER "Alessandro Piccini"
ISRC DEW741303003
FLAGS DCP
INDEX 01 00:00:00
FILE "04 Courante for theorba no. 5.wav" WAVE
TRACK 04 AUDIO
TITLE "Courante for theorba no. 5"
PERFORMER "Alessandro Piccini"
ISRC DEW741303004
FLAGS DCP
INDEX 01 00:00:00
FILE "05 Diporti di Euterpe op.7 - Che v'ho fato.wav" WAVE
TRACK 05 AUDIO
TITLE "Diporti di Euterpe op.7 - Che v'ho fato"
PERFORMER "Barbara Strozzi"
ISRC DEW741303005
FLAGS DCP
INDEX 01 00:00:00
FILE "06 Selva di varie compositioni, 1644 - Ciaccona.wav" WAVE
TRACK 06 AUDIO
TITLE "Selva di varie compositioni, 1644 - Ciaccona"
PERFORMER "Bernardo Strorace"
ISRC DEW741303006
FLAGS DCP
INDEX 01 00:00:00
FILE "07 Ariette a voce sola op.6 - Chiudi laudaci labra.wav" WAVE
TRACK 07 AUDIO
TITLE "Ariette a voce sola op.6 - Chiudi laudaci labra"
PERFORMER "Barbara Strozzi"
ISRC DEW741303007
FLAGS DCP
INDEX 01 00:00:00
FILE "08 Canzon prima.wav" WAVE
TRACK 08 AUDIO
TITLE "Canzon prima"
PERFORMER "Girolamo Frescobaldi"
ISRC DEW741303008
FLAGS DCP
INDEX 01 00:00:00
FILE "09 Cantate, ariette e duetti op.2 - Udite, Amanti.wav" WAVE
TRACK 09 AUDIO
TITLE "Cantate, ariette e duetti op.2 - Udite, Amanti"
PERFORMER "Barbara Strozzi"
ISRC DEW741303009
FLAGS DCP
INDEX 01 00:00:00
FILE "10 Ariette a voce sola op.6 - Lilla mia, non ti doler.wav" WAVE
TRACK 10 AUDIO
TITLE "Ariette a voce sola op.6 - Lilla mia, non ti doler"
PERFORMER "Barbara Strozzi"
ISRC DEW741303010
FLAGS DCP
INDEX 01 00:00:00
FILE "11 Libro d'intavolatura di chitarrone book 4, 1640 - Kapsberger.wav" WAVE
TRACK 11 AUDIO
TITLE "Libro d'intavolatura di chitarrone book 4, 1640 - Kapsberger"
PERFORMER "Girolamo Giovanni Kapsberger"
ISRC DEW741303011
FLAGS DCP
INDEX 01 00:00:00
FILE "12 Libro d'intavolatura di chitarrone book 4, 1640 - Canario.wav" WAVE
TRACK 12 AUDIO
TITLE "Libro d'intavolatura di chitarrone book 4, 1640 - Canario"
PERFORMER "Girolamo Giovanni Kapsberger"
ISRC DEW741303012
FLAGS DCP
INDEX 01 00:00:00
FILE "13 Arie a voce sola, op.8 - Che si puo fare.wav" WAVE
TRACK 13 AUDIO
TITLE "Arie a voce sola, op.8 - Che si puo fare"
PERFORMER "Barbara Strozzi"
ISRC DEW741303013
FLAGS DCP
INDEX 01 00:00:00



Показать сообщения:    

Текущее время: 05-Дек 11:32

Часовой пояс: UTC + 3


Вы не можете начинать темы
Вы не можете отвечать на сообщения
Вы не можете редактировать свои сообщения
Вы не можете удалять свои сообщения
Вы не можете голосовать в опросах
Вы не можете прикреплять файлы к сообщениям
Вы не можете скачивать файлы