Царская ложа (Галина Мшанская и др) 3 выпуска [2015, музыка, DVB-AVC]


Статистика раздачи [Обновить пиров]
Размер:  2.26 GB   |    Зарегистрирован:  8 месяцев 14 дней   |    Скачан:  0 раз

Полного источника не было: Никогда

 
   
 
 
 

[Цитировать]

Царская ложа
Год выпуска: 2015
Страна: Россия
Жанр: музыка
Продолжительность: 3х00:38:45
Перевод: Не требуется
Режиссер: Галина Мшанская и др
Телеканал: Культура
Описание: Программа о событиях в музыкальной жизни Санкт-Петербурга: премьеры, фестивали, встречи с музыкальными и театральными деятелями.
Сэмпл: http://sendfile.su/1089675
Доп. информация:
Данное видео представляет собой прямую запись вещания мультиплекса РТРС-1 в стандарте DVB-T2. Монтаж программой VideoReDo TVSuite H.264 v4.21.6.674, ремукс MKVMerge
Если вы испытываете какие-либо проблемы с его просмотром (включая "эффект расчески" или низкое качество видео в сравнении со скриншотами), то можете использовать портативную версию VLC плеера как наиболее универсальное средство их решения.
Пожалуйста, не уходите с раздачи
Качество видео: DVB-AVC
Формат/Контейнер: MKV
Видео кодек: H.264
Аудио кодек: MP2
Видео поток: 720x576 (785:576) 50fps ~2500kbps
Аудио поток: 48000Hz 2ch mono 192kbps

Список выпусков/серий

Эфир от 23.01.2015 Этот выпуск "Царской ложи" приглашает телезрителей на Международный зимний фестиваль "Площадь Искусств", который с особым блеском продолжает традиции музыкального Петербурга. Художественный руководитель фестиваля - маэстро Юрий Темирканов. 15 лет подряд Михайловская площадь, которую петербуржцы по привычке называют площадью Искусств, принимает гостей со всего света. Это Йонас Кауфман, Ольга Перетятько, Александр Рудин, Юлия Новикова, Кристиан Блэкшоу.
Эфир от 06.02.2015 В Мариинском-2 - премьера оперы Н.А. Римского-Корсакова "Золотой петушок". Режиссер-постановщик, художник-постановщик и художник по костюмам - Анна Матисон;
Одной из важных сторон взаимодействия Мариинского театра со зрителями становятся детские программы. Несколько циклов объединяет одно имя - режиссера и музыковеда Ольги Пикколо;
Встреча с пианистом и дирижером Игнатом Солженицыным в Концертном зале Мариинского театра и монолог музыканта в программе "Царская ложа";
Первый солист балетной труппы Мариинского театра Константин Зверев - о десяти годах службы в Мариинском театре.
В программу войдут интервью с маэстро Гергиевым, участниками спектаклей и концертов, а также эксклюзивные съемки репетиций.
В обсуждении тем, представленных в сюжетах, принимают участие: Ольга Розанова - критик, Леонид Корчмар - дирижер, Виктор Бочаров - режиссер.
Эфир от 20.02.2015 Февральский выпуск "Царской Ложи" откроет наша постоянная рубрика - "Юрий Темирканов. О музыке и не только..." с участием заслуженного коллектива России академического симфонического оркестра Санкт-Петербургской филармонии. Прозвучат фрагменты оперы Д. Гершвина "Порги и Бесс";
премьера в Михайловском театре музыкально-литературного представления "Царь Борис" по первой редакции "Бориса Годунова" М. Мусоргского. Музыкальный руководитель и дирижер - Владимир Юровский, в роли царя Бориса - Сергей Лейферкус;
новый балет выдающегося хореографа Бориса Эйфмана по мотивам романа Фицджеральда "Ночь нежна". "С одной стороны, я хочу в этом спектакле показать безумно энергичный век джаза - 20-ые годы прошлого столетия. С другой, на фоне потрясающего карнавала жизни должна возникнуть психологическая драма героев" - Б. Эйфман.

MediaInfo

Format : MPEG-TS
File size : 830 MiB
Duration : 38mn 45s
Overall bit rate mode : Variable
Overall bit rate : 2 992 Kbps
Video
ID : 1061 (0x425)
Menu ID : 1 (0x1)
Format : AVC
Format/Info : Advanced Video Codec
Format profile : Main@L3.0
Format settings, CABAC : Yes
Format settings, ReFrames : 3 frames
Codec ID : 27
Duration : 38mn 45s
Bit rate : 2 650 Kbps
Width : 720 pixels
Height : 576 pixels
Display aspect ratio : 4:3
Frame rate : 25.000 fps
Standard : Component
Color space : YUV
Chroma subsampling : 4:2:0
Bit depth : 8 bits
Scan type : Interlaced
Bits/(Pixel*Frame) : 0.256
Stream size : 735 MiB (89%)
Audio
ID : 1062 (0x426)
Menu ID : 1 (0x1)
Format : MPEG Audio
Format version : Version 1
Format profile : Layer 2
Codec ID : 3
Duration : 38mn 45s
Bit rate mode : Constant
Bit rate : 192 Kbps
Channel(s) : 2 channels
Sampling rate : 48.0 KHz
Compression mode : Lossy
Stream size : 53.2 MiB (6%)
Language : English
Text
ID : 1064 (0x428)-100
Menu ID : 1 (0x1)
Format : Teletext Subtitle
Language : Russian
Menu
ID : 1060 (0x424)
Menu ID : 1 (0x1)
Duration : 38mn 45s
List : 1061 (0x425) (AVC) / 1062 (0x426) (MPEG Audio, English) / 1064 (0x428) ()
Language : / English

Скриншоты с учетом анаморфирования

Скриншоты

[teatrix.ru].t20458.torrent 
Торрент: Зарегистрирован [ 2016-03-19 20:35 ] · FCC53D43C8F6222A16179715C9B50DF9B4521127

Скачать .torrent

Скачать

12 KB

Статус: проверено
Скачан: 0 раз
Размер: 2.26 GB
terms.php



Быстрый ответ

Имя:

      
Для отправки сообщений необходимо включить JavaScript
Показать сообщения:    

Текущее время: 03-Дек 16:45

Часовой пояс: UTC + 3


Вы можете начинать темы
Вы можете отвечать на сообщения
Вы не можете редактировать свои сообщения
Вы не можете удалять свои сообщения
Вы не можете голосовать в опросах
Вы не можете прикреплять файлы к сообщениям
Вы можете скачивать файлы