Ален Делон на гонках 24 часа в Ле-Мане / Alain Delon 24 heures du Mans [13.06.1980, документальный, кинематограф, IPTVRip-AVC] Original (Fre) + Sub Rus (Lisok)


Статистика раздачи [Обновить пиров]
Размер:  17 MB   |    Зарегистрирован:  8 месяцев 16 дней   |    Скачан:  0 раз

Полного источника не было: Никогда

 
   
 
 
 

[Цитировать]

Ален Делон на гонках "24 часа в Ле-Мане"
Alain Delon 24 heures du Mans- Дата/Год выпуска: 13.06.1980
Страна: Франция
Жанр: документальный, кинематограф
Продолжительность: 00:01:24
Перевод: Субтитры
Русские субтитры: естьФормат субтитров: softsub (SRT)
Доп. информация о субтитрах: перевод Lisok , инициатор Алексей Проскуряков ака Aleks Punk
Оригинальная аудиодорожка: французский
Режиссер: не указан
Телеканал: ina
Описание: Всю свою жизнь Ален Делон был страстным поклонником автомобилей. В его гараже в разное время красовалось множество мировых марок. Но предпочтение Делон всегда отдавал именно итальянским автомобилям. На протяжении многих лет в кино он оставался верен марке Lancia, что вызвано договором с фирмой Chardonnet SA. В 70-80 гг не было практически ни одного фильма с Делоном, в котором бы не использовался автомобиль этой итальянской марки. (Alec Storm)
Журналист канала TF1 французского телевидения и комментатор "Гран-при Формула 1" Кристиан ван Рисвик / Christian Van Ryswyck берет короткое интервью у Алена Делона, выступившего спонсором команды автомобиля марки Lancia Stratos накануне старта традиционных гонок "24 часа в Ле-Мане" - старейшей из ныне существующих автомобильных гонок на выносливость, проходящей с 1923 года.
Доп. информация: За предоставленный материал благодарность Aleks Punk.

качество: IPTVRip-AVC
формат: MKV
Видео: AVC (H.264), 640x480 (4:3), 25 fps, ~1500 kbps avg, 0.195 bit/pixel
Аудио: AC3, 2 ch, 48 kHz, ~192.00 kbps avg

Пример субтитров

1
00:00:00,340 --> 00:00:02,800
А сейчас - фото.
2
00:00:02,828 --> 00:00:06,228
Фото автомобиля
перед гонками в "Ле Мане".
3
00:00:06,220 --> 00:00:09,457
"Ле Ман" начинается завтра -
традиционные 24 часа.
4
00:00:09,450 --> 00:00:14,142
И на станде в "Ле Мане" - зритель,
вполне узнаваемый
5
00:00:14,140 --> 00:00:16,800
и привилегированный.
Он занят автомобилем.
6
00:00:16,800 --> 00:00:20,571
Он участвует в гонках
как спонсор.
7
00:00:20,570 --> 00:00:24,371
Но пока ещё не как гонщик.
Его имя - Ален Делон.
8
00:00:24,370 --> 00:00:27,085
Ален Делон сказал
Кристиану ван Рисвику,
9
00:00:27,080 --> 00:00:29,400
что он не сразу приступит
к соревнованиям.
10
00:00:29,400 --> 00:00:33,657
Знаете, я уважаю профессионалов.
Гонщика нельзя сымпровизировать,
11
00:00:33,685 --> 00:00:37,428
также как ни режиссёра,
ни актёра. Будь у меня время,
12
00:00:37,420 --> 00:00:39,857
меня это априори очень вдохновляет.
Но будь у меня время
13
00:00:39,850 --> 00:00:43,000
подготовиться, поработать,
научиться - почему бы и нет.
14
00:00:43,000 --> 00:00:44,828
Но не импровизировать.
15
00:00:44,820 --> 00:00:47,257
Вы всегда были увлечены
боксом, спортом.
16
00:00:47,250 --> 00:00:49,314
Сначала боксом -
теперь автогонками?
17
00:00:49,310 --> 00:00:53,485
Да, но увлекаться как участник
и увлекаться как организатор -
18
00:00:53,514 --> 00:00:55,140
это абсолютно разные вещи.
19
00:00:55,140 --> 00:00:59,114
Я увлечён зрелищем вообще,
ибо это - тоже зрелище.
20
00:00:59,110 --> 00:01:02,114
Но чтобы участвовать -
это занятие для профессионалов.

MediaInfo

Общее
Уникальный идентификатор : 210783887771135120527892212324692588152 (0x9E93800835D430339A15E5102662F678)
Полное имя : E:\My Torrents 2\[apreder]Alain_Delon_24_heures_du_Mans(13.06.1980)IPTVRip.mkv
Формат : Matroska
Версия формата : Version 2
Размер файла : 17,2 Мбайт
Продолжительность : 1 м. 24 с.
Общий поток : 1701 Кбит/сек
Дата кодирования : UTC 2015-02-25 14:59:15
Программа кодирования : mkvmerge v7.6.0 ('Garden of Dreams') 64bit built on Feb 8 2015 13:04:34
Библиотека кодирования : libebml v1.3.1 + libmatroska v1.4.2
Видео
Идентификатор : 1
Формат : AVC
Формат/Информация : Advanced Video Codec
Профиль формата : High@L4.1
Параметр CABAC формата : Да
Параметр ReFrames формата : 16 кадров
Идентификатор кодека : V_MPEG4/ISO/AVC
Продолжительность : 1 м. 24 с.
Битрейт : 1500 Кбит/сек
Ширина : 640 пикселей
Высота : 480 пикселей
Соотношение сторон : 4:3
Режим частоты кадров : Постоянный
Частота кадров : 25,000 кадров/сек
Цветовое пространство : YUV
Субдискретизация насыщенности : 4:2:0
Битовая глубина : 8 бит
Тип развёртки : Прогрессивная
Бит/(Пиксели*Кадры) : 0.195
Размер потока : 14,9 Мбайт (87%)
Библиотека кодирования : x264 core 144 r2525 40bb568
Настройки программы : cabac=1 / ref=16 / deblock=1:-1:-1 / analyse=0x3:0x133 / me=umh / subme=10 / psy=1 / psy_rd=1.00:0.15 / mixed_ref=1 / me_range=24 / chroma_me=1 / trellis=2 / 8x8dct=1 / cqm=0 / deadzone=21,11 / fast_pskip=1 / chroma_qp_offset=-3 / threads=6 / lookahead_threads=1 / sliced_threads=0 / nr=0 / decimate=1 / interlaced=0 / bluray_compat=0 / constrained_intra=0 / bframes=8 / b_pyramid=2 / b_adapt=2 / b_bias=0 / direct=3 / weightb=1 / open_gop=0 / weightp=2 / keyint=250 / keyint_min=25 / scenecut=40 / intra_refresh=0 / rc_lookahead=60 / rc=2pass / mbtree=1 / bitrate=1500 / ratetol=1.0 / qcomp=0.60 / qpmin=0 / qpmax=69 / qpstep=4 / cplxblur=20.0 / qblur=0.5 / vbv_maxrate=62500 / vbv_bufsize=78125 / nal_hrd=none / filler=0 / ip_ratio=1.40 / aq=1:1.00
Default : Да
Forced : Нет
Аудио
Идентификатор : 2
Формат : AC-3
Формат/Информация : Audio Coding 3
Расширение режима : CM (complete main)
Параметр Endianness формата : Big
Идентификатор кодека : A_AC3
Продолжительность : 1 м. 24 с.
Вид битрейта : Постоянный
Битрейт : 192 Кбит/сек
Каналы : 2 канала
Расположение каналов : Front: L R
Частота : 48,0 КГц
Битовая глубина : 16 бит
Метод сжатия : С потерями
Размер потока : 1,94 Мбайт (11%)
Язык : French
Default : Да
Forced : Нет
Текст
Идентификатор : 3
Формат : UTF-8
Идентификатор кодека : S_TEXT/UTF8
Идентификатор кодека/Информация : UTF-8 Plain Text
Язык : Russian
Default : Да
Forced : Нет

Скриншоты

Резервные скриншоты

-[2'135]
[teatrix.ru].t20460.torrent 
Торрент: Зарегистрирован [ 2016-03-19 20:35 ] · EF18546E0730CB319B1715329093884F5F1A309C

Скачать .torrent

Скачать

6 KB

Статус: проверено
Скачан: 0 раз
Размер: 17 MB
terms.php



Показать сообщения:    

Текущее время: 05-Дек 05:27

Часовой пояс: UTC + 3


Вы не можете начинать темы
Вы не можете отвечать на сообщения
Вы не можете редактировать свои сообщения
Вы не можете удалять свои сообщения
Вы не можете голосовать в опросах
Вы не можете прикреплять файлы к сообщениям
Вы можете скачивать файлы