[TR24][SM][OF] Peter Sculthorpe - The Complete String Quartets with Didjeridu - Stephen Kent & Del Sol Quartet - 2014 (Classical)


Статистика раздачи [Обновить пиров]
Размер:  1.49 GB   |    Зарегистрирован:  8 месяцев 14 дней   |    Скачан:  0 раз

Полного источника не было: Никогда

 
   
 
 
 

[Цитировать]

Peter Joshua Sculthorpe (1929 - 2014)·Жанр: Chamber Music
Носитель: Official Digital Download
Год издания диска: 2014
Издатель(лейбл): Sono Luminus
Номер по каталогу: DSL-92181
Продолжительность: 01:22:02
Наличие сканов в содержимом раздачи: cover, inlay & booklet
Контейнер: FLAC (*.flac)
Разрядность: 24/96
Количество каналов: 2.0
Формат: tracks
Источник: prestoclassical.co.uk
Pелизер: WEB (thanks to the original customer)

Stephen Kent didjeridu
Del Sol String Quartet
http://www.prestoclassical.co.uk/r/Dorian%2BSono%2BLuminus/DSL92181#download

Треклист

1 String Quartet No. 12 “From Ubirr” [12:22]
String Quartet No. 14 “Quamby”
2 I. Prelude [3:24]
3 II. In the Valley [3:49]
4 III. On High Hills [4:45]
5 IV. At Quamby Bluff [8:00]
String Quartet No. 16
6 I. Loneliness [4:10]
7 II. Anger [3:58]
8 III. Yearning [5:49]
9 IV. Trauma [4:18]
10 V. Freedom [5:30]
String Quartet No. 18
11 I. Prelude [2:04]
12 II. A Land Singing [4:27]
13 III. A Dying Land [7:32]
14 IV. A Lost Land [6:43]
15 V. Postlude [5:20]

Stephen Kent & Del Sol String Quartet

DEL SOL STRING QUARTETKate Stenberg violin
Rick Shinozaki violin
Charlton Lee viola
Kathryn Bates cello

Dynamic Range Meter

foobar2000 1.2.6 / Dynamic Range Meter 1.1.1
log date: 2015-02-25 19:53:14
--------------------------------------------------------------------------------
Analyzed: Stephen Kent, Del Sol String Quartet / Sculthorpe - The Complete String Quartets with Didjeridu (2014) [FLAC] [DD 24bit]
--------------------------------------------------------------------------------
DR Peak RMS Duration Track
--------------------------------------------------------------------------------
DR14 -0.11 dB -17.99 dB 12:21 01-String Quartet No. 12, 'From Ubirr' (Earth Cry)
DR13 -0.26 dB -18.58 dB 3:24 02-String Quartet No. 14, 'Quamby'. I. Prelude
DR12 -0.12 dB -19.63 dB 3:50 03-String Quartet No. 14, 'Quamby'. II. In the Valley
DR9 -3.98 dB -17.04 dB 4:45 04-String Quartet No. 14, 'Quamby'. III. On High Hills
DR12 -0.11 dB -16.43 dB 7:59 05-String Quartet No. 14, 'Quamby'. IV. At Quamby Bluff
DR14 -0.11 dB -18.49 dB 4:10 06-String Quartet No. 16. I. Loneliness
DR11 -0.11 dB -14.55 dB 3:58 07-String Quartet No. 16. II. Anger
DR12 -0.31 dB -18.14 dB 5:49 08-String Quartet No. 16. III. Yearning
DR11 -0.11 dB -14.51 dB 4:18 09-String Quartet No. 16. IV. Trauma
DR12 -0.65 dB -17.51 dB 5:30 10-String Quartet No. 16. V. Freedom
DR11 -2.31 dB -20.81 dB 2:03 11-String Quartet No. 18. I. Prelude
DR13 -0.11 dB -16.33 dB 4:26 12-String Quartet No. 18. II. A Land Singing
DR12 -0.11 dB -17.30 dB 7:32 13-String Quartet No. 18. III. A Dying Land
DR14 -6.49 dB -25.33 dB 6:43 14-String Quartet No. 18. IV. A Lost Land
DR12 -0.11 dB -17.89 dB 5:21 15-String Quartet No. 18. V. Postlude
--------------------------------------------------------------------------------
Number of tracks: 15
Official DR value: DR12
Samplerate: 96000 Hz
Channels: 2
Bits per sample: 24
Bitrate: 2429 kbps
Codec: FLAC
================================================================================
[teatrix.ru].t20461.torrent 
Торрент: Зарегистрирован [ 2016-03-19 20:35 ] · 7C6311C5E4C39C992590397D0A58D1CF96A4857F

Скачать .torrent

Скачать

17 KB

Статус: проверено
Скачан: 0 раз
Размер: 1.49 GB
terms.php



Быстрый ответ

Имя:

      
Для отправки сообщений необходимо включить JavaScript
Показать сообщения:    

Текущее время: 02-Дек 21:13

Часовой пояс: UTC + 3


Вы можете начинать темы
Вы можете отвечать на сообщения
Вы не можете редактировать свои сообщения
Вы не можете удалять свои сообщения
Вы не можете голосовать в опросах
Вы не можете прикреплять файлы к сообщениям
Вы можете скачивать файлы