[TR24][OF] Richard Wagner - Der Ring des Nibelungen, Siegfried Idyll - Royal Scottish National Orchestra, Neeme Järvi (Jarvi) - 2008 (Classical)

DL-List and Torrent activity [Update пиров]
Size:  1.38 GB   |    Registered:  7 months 8 days   |    Completed:  1 time

Seeder not seen: 2 months 5 days



Richard Wagner
The Ring · Siegfried Idyll
Royal Scottish National Orchestra · Neeme Järvi
- Год издания: 2008
Жанр: Classical
Издатель (лейбл): Chandos
Продолжительность: 01:15:45
Наличие сканов: Sleeve, Digital Booklet
- -
Richard Wagner (1813-1883)
Der Ring des Nibelungen (an Orchestral Adventure, arr. H. de Vlieger)
01. I. Vorspiel. Ruhig heitere Bewegung (3:58)
02. II. Das Rheingold (1:59)
03. III. Nibelheim (2:32)
04. IV. Walhall (3:25)
05. V. Die Walküren (3:52)
06. VI. Feuerzauber (3:29)
07. VII. Waldweben (2:11)
08. VIII. Siegfrieds Heldentat (6:17)
09. IX. Brünnhildes Erwachen (4:59)
10. X. Siegfried und Brünnhilde (4:19)
11. XI. Siegfrieds Rheinfahrt (5:36)
12. XII. Siegfrieds Tod (4:47)
13. XIII. Trauermusik (5:09)
14. XIV. Brünnhildes Opfertat (7:58)
Siegfried Idyll, Op. 103
15. Ruhig bewegt (6:11)
16. Leicht bewegt (2:41)
17. Lebhaft - Rallentando (6:21)
-Royal Scottish National Orchestra
Neeme Järvi - conductor
Recorded: Royal Concert Hall, Glasgow; 5-7 August 2007
-Контейнер: FLAC (*.flac)
Тип рипа: tracks
Разрядность: 24bit / 96kHz
Количество каналов: 2.0

О релизе
This 67-minute, orchestra-only version of Wagner’s famous opera cycle, Der Ring des Nibelungen is arranged by Henk de Vlieger, arranger, composer and percussionist in the Netherlands Radio Philharmonic. The work was commissioned by the orchestra and the result is a 14-section fiery musical spectacle entitled The Ring, an orchestral adventure. This symphonic ‘compilation’ compresses Wagner’s four mighty Ring operas, yet includes all the major themes and ‘leitmotifs’. The result is an overwhelming experience and a must for anyone who loves blazing orchestral colours. The Minneapolis Tribune wrote; “The way that De Vlieger has created transitions between scenes and acts is quite ingenious…’ “Bits of Rheingold, Walkure, Siegfried and Gotterdammerung floated past, melded together as if some Wagnerian uperman who understood the whole and articulated it in particular. Highlights were everywhere. Horns, sounded offstage and on, reminded listeners of the great arias, without the singers to sing it… Toward the end, it actually seemed like we had experienced the entire Ring cycle – a tribute to the orchestrator’s talents,’ wrote the Boston Herald following a performance of the work. Coupled to this mighty work is Siegfried Idyll, which is thematically related to the Ring, and although with quite a different subject matter, complements the Orchestral Adventure perfectly.
“…sterling playing from the Scottish orchestra, whose dark, burnished brass section particularly suits Wagner's scoring, and virile, purposeful conducting from Neeme Järvi.” (BBC Music Magazine)

ОтчётыДинамический диапазон

foobar2000 1.2.2 / Dynamic Range Meter 1.1.1
log date: 2015-02-25 18:51:11
Analyzed: Royal Scottish National Orchestra, Neeme Järvi / Wagner: The Ring, an Orchestral Adventure / Siegfried Idyll
DR Peak RMS Duration Track
DR12 -14.14 dB -31.36 dB 3:58 ?-Der Ring des Nibelungen: I. Vorspiel. Ruhig heitere Bewegung -
DR11 -11.57 dB -27.73 dB 1:59 ?-Der Ring des Nibelungen: II. Das Rheingold. [ ] - Beschleunigend -
DR11 -9.99 dB -25.64 dB 2:32 ?-Der Ring des Nibelungen: III. Nibelheim. Sehr schnell -
DR14 -10.27 dB -29.99 dB 3:25 ?-Der Ring des Nibelungen: IV. Walhall. Mäßig bewegt - Lebhaft -
DR12 -5.86 dB -21.48 dB 3:52 ?-Der Ring des Nibelungen: V. Die Walküren. [ ] -
DR12 -8.04 dB -27.57 dB 3:29 ?-Der Ring des Nibelungen: VI. Feuerzauber. [ ] -
DR10 -15.86 dB -38.60 dB 2:11 ?-Der Ring des Nibelungen: VII. Waldweben. [ ] -
DR13 -7.17 dB -26.13 dB 6:17 ?-Der Ring des Nibelungen: VIII. Siegfrieds Heldentat. Mäßig bewegt - Mäßig - Lebhaft -
DR16 -8.26 dB -31.43 dB 4:59 ?-Der Ring des Nibelungen: IX. Brünnhildes Erwachen. [ ] - Sehr mäßig -
DR12 -6.20 dB -24.23 dB 4:19 ?-Der Ring des Nibelungen: X. Siegfried und Brünnhilde. Sehr ruhig - Ziemlich rasch -
DR14 -6.19 dB -26.50 dB 5:36 ?-Der Ring des Nibelungen: XI. Siegfrieds Rheinfahrt. Schnell - Rasch -
DR14 -6.16 dB -27.63 dB 4:47 ?-Der Ring des Nibelungen: XII. Siegfrieds Tod. Sehr mäßig - Allmählich belebter -
DR13 -6.17 dB -25.24 dB 5:09 ?-Der Ring des Nibelungen: XIII. Trauermusik. Feierlich - Sehr ruhig -
DR13 -5.99 dB -23.91 dB 7:58 ?-Der Ring des Nibelungen: XIV. Brünnhildes Opfertat. Lebhaft - Noch etwas lebhafter -
DR14 -12.33 dB -33.97 dB 6:11 ?-Siegfried Idyll: Ruhig bewegt -
DR12 -11.81 dB -30.94 dB 2:41 ?-Siegfried Idyll: Leicht bewegt -
DR14 -10.79 dB -31.58 dB 6:21 ?-Siegfried Idyll: Lebhaft - Rallentando
Number of tracks: 17
Official DR value: DR13
Samplerate: 96000 Hz
Channels: 2
Bits per sample: 24
Bitrate: 2511 kbps
Codec: FLAC

Скриншот спектра частот

Доп. информация

При скачивании, если необходимо, переименуйте папку, в которой будет находиться альбомБольшая просьба к скачавшим поддерживать раздачу! Помогайте другим, ведь вам тоже может понадобиться помощь!Не забываем говорить "Спасибо"!Комментарии приветствуются!
Torrent: Registered [ 2016-03-19 20:35 ] · 80C58C9A1699367A70474549A26075648492159C

Download .torrent


16 KB

Status: checked
Completed: 1 times
Size: 1.38 GB

Quick Reply


Heads necessary to send messages to enable JavaScript
Display posts:    

Current time is: 28-Oct 05:34

All times are UTC + 3

You can post new topics in this forum
You can reply to topics in this forum
You cannot edit your posts in this forum
You cannot delete your posts in this forum
You cannot vote in polls in this forum
You cannot attach files in this forum
You can download files in this forum