(Classical) Telemann - Tafelmusic (Musica Antiqua Koln, Reinhard Goebel) - ?, FLAC (image+.cue) lossless


 

[Цитировать]

Telemann - Tafelmusic (Musica Antiqua Köln, Reinhard Goebel)
Жанр: Classical
Страна-производитель диска: Российская Федерация
Год издания диска: ?
Издатель (лейбл): Elite Classics
Номер по каталогу: SI-1398a,b,c,d
Дата записи: 1989
Аудиокодек: FLAC
Тип рипа: image+.cue
Битрейт аудио: lossless
Продолжительность: 66:42, 57:42, 59:15, 67:31
Источник: собственный рип
сайт-источник/ник/другое: Из личной коллекции
Наличие сканов в содержимом раздачи: да
Треклист:

скрытый текстCD1

CD1
Production I (Teil - Part - Partie - Parte I)
I. Ouverture - Suite E-Moll - In E Minor - En Mi Mineur - In Mi Minore 30:25
1-1 1. Ouverture- Lentement - Vite - Lentement 10:03
1-2 2. Réjouissance 3:43
1-3 3. Rondeau 2:24
1-4 4. Loure 4:27
1-5 5. Passepied 2:33
1-6 6. Air. Un Peu Vivement 4:53
1-7 7. Gigue 2:24
II. Quatuor G-Dur - In G Major - En Sol Majeur - In Sol Maggiore 12:25
1-8 1. Largo - Allegro - Largo 2:51
1-9 2. Vivace - Moderato - Vivace D.C. 6:12
1-10 3. Grave 0:24
1-11 4. Vivace 2:57
III. Concert A-Dur - In A Major - En Fa Majeur - In Fa Maggiore 24:01
1-12 1. Largo 4:32
1-13 2. Allegro 8:18
1-14 3. Gratioso 2:50
1-15 4. Allegro 8:19

CD2

CD2
IV. Trio Es-Dur - In E Flat Major - En Bémol Majeur - In Bemolle Maggiore 13:01
2-1 1. Affettuoso 2:52
2-2 2. (Attacca) Vivace 3:17
2-3 3. Grave 3:08
2-4 4. Allegro 3:44
V. Solo H-Moll - In B Minor - En Si Mineur - In Si Minore 11:45
2-5 1. Cantabile 3:06
2-6 2. Allegro 2:07
2-7 3. Dolce 3:14
2-8 4. Allegro 3:17
VI. Conclusion E-Moll - In E Minor - En Bémol Mineur - In Bemolle Minore 4:28
2-9 Allegro - Largo - Allegro D.C. 4:28
Production II (Teil - Part - Partie - Parte II)
I. Ouverture - Suite D-Dur - In D Major - En Ré Majeur - In Re Maggiore 28:37
2-10 1. Ouverture- Lentement - Vite - Lentement 10:51
2-11 2. Air. Tempo Giusto 6:25
2-12 3. Air. Vivace 2:33
2-14 4. Air. Presto 5:29
2-14 5. Air. Allegro 3:19

CD3

CD3
II. Quatuor D-Moll - In D Minor - En Ré Mineur - In Re Minore 14:23
3-1 1. Andante 3:10
3-2 2. Vivace 3:57
3-3 3. Largo 3:24
3-4 4. Allegro 3:52
III. Concert F-Dur - In F Major - En Fa Majeur - In Fa Maggiore 13:43
3-5 1. Allegro 5:11
3-6 2. Largo 5:28
3-7 3. Vivace 3:04
IV. Trio E-Moll - In E Minor - En Bémol Mineur - In Bemolle Minore 12:12
3-8 1. Affettuoso 3:21
3-9 2. Allegro 2:47
3-10 3. Dolce 2:36
3-11 4. Vivace 3:28
V. Solo A-Dur - In A Major - En Fa Majeur - In Fa Maggiore 12:55
3-12 1. Andante 2:02
3-13 2. Vivace 3:33
3-14 3. Cantabile 3:39
3-15 4. Allegro - Adagio - Allegro - Adagio 3:41
VI. Conclusion D-Dur - In D Major - En Ré Majeur - In Re Maggiore 6:09
3-16 Allegro - Adagio - Allegro D.C. 6:09

CD4

CD4
Production III (Teil - Part - Partie - Parte III)
I. Ouverture - Suite B-Dur - In B Flat Major - En Si Bémol Majeur - In Si Bemolle Maggiore 25:05
4-1 1. Ouverture- Lentement - Presto - Lentement 8:44
4-2 2. Bergerie. Un Peu Vivement 2:42
4-3 3. Allégresse. Vite - Meno Mosso - Vite D.C. 2:38
4-4 4. Postillons 2:29
4-5 5. Flaterie 2:58
4-6 6. Badinage. Très Vite 2:41
4-7 7. Menuet 2:53
II. Quatuor E-Moll - In E Minor - En Bémol Mineur - In Bemolle Minore 8:03
4-8 1. Adagio 2:09
4-9 2. Allegro 1:56
4-10 3. Dolce 1:52
4-11 4. Allegro 2:06
III. Concert Es-Dur - In E Flat Major - En Bémol Majeur - In Bemolle Maggiore 14:49
4-12 1. Maestoso 3:18
4-13 2. Allegro 4:26
4-14 3. Grave 2:50
4-15 4. Vivace 4:15
IV. Trio D-Dur - In D Major - En Ré Majeur - In Re Maggiore 8:44
4-16 1. Andante 2:05
4-17 2. Allegro 1:53
4-18 3. Grave - Largo - Grave 2:49
4-19 4. Vivace 1:57
V. Solo G-Moll - In G Minor - En Sol Mineur - In Sol Minore 9:20
4-20 1. Largo 2:26
4-21 2. Presto 1:33
4-22 3. Tempo Giusto 1:26
4-23 4. Andante 1:11
4-24 5. Allegro 2:44
VI. Conclusion B-Dur - In B Flat Major - En Si Bémol Majeur - In Si Bemolle Maggiore 1:44
4-25 Furioso 1:44
Исполнители:
Musica Antiqua Köln, Reinhard Goebel

Лог создания рипа

CD1

CD1
Exact Audio Copy V1.0 beta 3 from 29. August 2011
EAC extraction logfile from 14. November 2014, 20:46
Musica Antiqua Köln / Tafelmusik
Used drive : HL-DT-STDVDRAM GSA-T40N Adapter: 0 ID: 0
Read mode : Secure
Utilize accurate stream : Yes
Defeat audio cache : Yes
Make use of C2 pointers : No
Read offset correction : 667
Overread into Lead-In and Lead-Out : No
Fill up missing offset samples with silence : Yes
Delete leading and trailing silent blocks : No
Null samples used in CRC calculations : Yes
Used interface : Native Win32 interface for Win NT & 2000
Used output format : User Defined Encoder
Selected bitrate : 32 kBit/s
Quality : High
Add ID3 tag : No
Command line compressor : C:\Program Files\Exact Audio Copy\Flac\flac.exe
Additional command line options : -V -8 -T "Date=%year%" -T "Genre=%genre%" %source%
TOC of the extracted CD
Track | Start | Length | Start sector | End sector
---------------------------------------------------------
1 | 0:00.33 | 10:02.67 | 33 | 45249
2 | 10:03.25 | 3:43.15 | 45250 | 61989
3 | 13:46.40 | 2:24.25 | 61990 | 72814
4 | 16:10.65 | 4:26.40 | 72815 | 92804
5 | 20:37.30 | 2:32.58 | 92805 | 104262
6 | 23:10.13 | 4:51.12 | 104263 | 126099
7 | 28:01.25 | 2:34.58 | 126100 | 137707
8 | 30:36.08 | 2:51.20 | 137708 | 150552
9 | 33:27.28 | 6:12.05 | 150553 | 178457
10 | 39:39.33 | 0:24.17 | 178458 | 180274
11 | 40:03.50 | 3:04.63 | 180275 | 194137
12 | 43:08.38 | 4:31.72 | 194138 | 214534
13 | 47:40.35 | 8:18.10 | 214535 | 251894
14 | 55:58.45 | 2:49.58 | 251895 | 264627
15 | 58:48.28 | 8:19.05 | 264628 | 302057
Range status and errors
Selected range
Filename D:\Rip\Telemann.Tafelmusic-Reinhard_Goebel,MAK.4CD(Elite_Classics)\CD1\Musica Antiqua Köln - Tafelmusik.wav
Peak level 84.7 %
Extraction speed 4.3 X
Range quality 100.0 %
Test CRC 9CF72D80
Copy CRC 9CF72D80
Copy OK
No errors occurred
AccurateRip summary
Track 1 cannot be verified as accurate (confidence 22) [AC1C1953], AccurateRip returned [D4807FA7] (AR v2)
Track 2 cannot be verified as accurate (confidence 22) [E37F9037], AccurateRip returned [CCB97FEC] (AR v2)
Track 3 cannot be verified as accurate (confidence 22) [C6E31EC6], AccurateRip returned [A19159D0] (AR v2)
Track 4 cannot be verified as accurate (confidence 22) [ACE81A94], AccurateRip returned [C20E91C6] (AR v2)
Track 5 cannot be verified as accurate (confidence 22) [486BAD7B], AccurateRip returned [50CC004E] (AR v2)
Track 6 cannot be verified as accurate (confidence 22) [44CD3CB6], AccurateRip returned [98A7FE87] (AR v2)
Track 7 cannot be verified as accurate (confidence 22) [181B063A], AccurateRip returned [42119076] (AR v2)
Track 8 cannot be verified as accurate (confidence 22) [72A12587], AccurateRip returned [D4B5B0DE] (AR v2)
Track 9 cannot be verified as accurate (confidence 22) [7F6BD512], AccurateRip returned [B5582CEF] (AR v2)
Track 10 cannot be verified as accurate (confidence 22) [720B3711], AccurateRip returned [E120236B] (AR v2)
Track 11 cannot be verified as accurate (confidence 22) [3D427851], AccurateRip returned [9DB165DE] (AR v2)
Track 12 cannot be verified as accurate (confidence 22) [B72AF6AA], AccurateRip returned [98991D4F] (AR v2)
Track 13 cannot be verified as accurate (confidence 22) [010A7C06], AccurateRip returned [58DBD743] (AR v2)
Track 14 cannot be verified as accurate (confidence 22) [74461CD9], AccurateRip returned [33E2165D] (AR v2)
Track 15 cannot be verified as accurate (confidence 22) [D5D58A73], AccurateRip returned [690E2A7B] (AR v2)
No tracks could be verified as accurate
You may have a different pressing from the one(s) in the database
End of status report
==== Log checksum C6C4B21CD7413B11FF37995FC9F36649E3E6482DD5EFBE53DE03C02E207BE542 ====

CD2

CD2
Exact Audio Copy V1.0 beta 3 from 29. August 2011
EAC extraction logfile from 17. November 2014, 20:09
Musica Antiqua Köln / Tafelmusik
Used drive : HL-DT-STDVDRAM GSA-T40N Adapter: 0 ID: 0
Read mode : Secure
Utilize accurate stream : Yes
Defeat audio cache : Yes
Make use of C2 pointers : No
Read offset correction : 667
Overread into Lead-In and Lead-Out : No
Fill up missing offset samples with silence : Yes
Delete leading and trailing silent blocks : No
Null samples used in CRC calculations : Yes
Used interface : Native Win32 interface for Win NT & 2000
Used output format : User Defined Encoder
Selected bitrate : 32 kBit/s
Quality : High
Add ID3 tag : No
Command line compressor : C:\Program Files\Exact Audio Copy\Flac\flac.exe
Additional command line options : -V -8 -T "Date=%year%" -T "Genre=%genre%" %source%
TOC of the extracted CD
Track | Start | Length | Start sector | End sector
---------------------------------------------------------
1 | 0:00.33 | 2:51.72 | 33 | 12929
2 | 2:52.30 | 3:17.15 | 12930 | 27719
3 | 6:09.45 | 3:07.70 | 27720 | 41814
4 | 9:17.40 | 3:50.30 | 41815 | 59094
5 | 13:07.70 | 3:06.00 | 59095 | 73044
6 | 16:13.70 | 2:07.23 | 73045 | 82592
7 | 18:21.18 | 3:13.47 | 82593 | 97114
8 | 21:34.65 | 3:19.38 | 97115 | 112077
9 | 24:54.28 | 4:39.30 | 112078 | 133032
10 | 29:33.58 | 10:51.10 | 133033 | 181867
11 | 40:24.68 | 6:24.57 | 181868 | 210724
12 | 46:49.50 | 2:33.33 | 210725 | 222232
13 | 49:23.08 | 5:28.42 | 222233 | 246874
14 | 54:51.50 | 3:18.58 | 246875 | 261782
Range status and errors
Selected range
Filename D:\Rip\Telemann.Tafelmusic-Reinhard_Goebel,MAK.4CD(Elite_Classics)\CD2\Musica Antiqua Köln - Tafelmusik.wav
Peak level 99.5 %
Extraction speed 4.2 X
Range quality 100.0 %
Test CRC 46FE1F1B
Copy CRC 46FE1F1B
Copy OK
No errors occurred
AccurateRip summary
Track 1 cannot be verified as accurate (confidence 22) [90D809D9], AccurateRip returned [3752D62A] (AR v2)
Track 2 cannot be verified as accurate (confidence 22) [CAB63B69], AccurateRip returned [04BFFD2A] (AR v2)
Track 3 cannot be verified as accurate (confidence 22) [48D989C0], AccurateRip returned [173E382A] (AR v2)
Track 4 cannot be verified as accurate (confidence 22) [445703ED], AccurateRip returned [6F96F590] (AR v2)
Track 5 cannot be verified as accurate (confidence 22) [924120DA], AccurateRip returned [15CA086A] (AR v2)
Track 6 cannot be verified as accurate (confidence 22) [53F07EA3], AccurateRip returned [4ED0420E] (AR v2)
Track 7 cannot be verified as accurate (confidence 22) [8E67A42A], AccurateRip returned [5D98159D] (AR v2)
Track 8 cannot be verified as accurate (confidence 22) [41E2C2F4], AccurateRip returned [15F36AED] (AR v2)
Track 9 cannot be verified as accurate (confidence 22) [0510714A], AccurateRip returned [CB16F03D] (AR v2)
Track 10 cannot be verified as accurate (confidence 21) [CF4FD726], AccurateRip returned [B503F706] (AR v2)
Track 11 cannot be verified as accurate (confidence 22) [371FDC4B], AccurateRip returned [5FA33004] (AR v2)
Track 12 cannot be verified as accurate (confidence 22) [68E1521D], AccurateRip returned [027B2EEF] (AR v2)
Track 13 cannot be verified as accurate (confidence 22) [022A8528], AccurateRip returned [1352D0AC] (AR v2)
Track 14 cannot be verified as accurate (confidence 22) [47FDDAC9], AccurateRip returned [7D0E676A] (AR v2)
No tracks could be verified as accurate
You may have a different pressing from the one(s) in the database
End of status report
==== Log checksum BDABF4844754EDCFCD9DE19CB3A567FAFF6FB999D6554DE67B1C4D756DC73FAF ====

CD3

CD3
Exact Audio Copy V1.0 beta 3 from 29. August 2011
EAC extraction logfile from 9. December 2014, 19:20
Musica Antiqua Köln / Tafelmusik
Used drive : HL-DT-STDVDRAM GSA-T40N Adapter: 0 ID: 0
Read mode : Secure
Utilize accurate stream : Yes
Defeat audio cache : Yes
Make use of C2 pointers : No
Read offset correction : 667
Overread into Lead-In and Lead-Out : No
Fill up missing offset samples with silence : Yes
Delete leading and trailing silent blocks : No
Null samples used in CRC calculations : Yes
Used interface : Native Win32 interface for Win NT & 2000
Used output format : User Defined Encoder
Selected bitrate : 32 kBit/s
Quality : High
Add ID3 tag : No
Command line compressor : C:\Program Files\Exact Audio Copy\Flac\flac.exe
Additional command line options : -V -8 -T "Date=%year%" -T "Genre=%genre%" %source%
TOC of the extracted CD
Track | Start | Length | Start sector | End sector
---------------------------------------------------------
1 | 0:00.33 | 3:10.27 | 33 | 14309
2 | 3:10.60 | 3:56.60 | 14310 | 32069
3 | 7:07.45 | 3:24.15 | 32070 | 47384
4 | 10:31.60 | 4:01.13 | 47385 | 65472
5 | 14:32.73 | 5:10.50 | 65473 | 88772
6 | 19:43.48 | 5:28.05 | 88773 | 113377
7 | 25:11.53 | 3:11.15 | 113378 | 127717
8 | 28:22.68 | 3:21.17 | 127718 | 142809
9 | 31:44.10 | 2:46.38 | 142810 | 155297
10 | 34:30.48 | 2:36.37 | 155298 | 167034
11 | 37:07.10 | 3:36.33 | 167035 | 183267
12 | 40:43.43 | 2:01.42 | 183268 | 192384
13 | 42:45.10 | 3:32.38 | 192385 | 208322
14 | 46:17.48 | 3:38.60 | 208323 | 224732
15 | 49:56.33 | 3:47.00 | 224733 | 241757
16 | 53:43.33 | 6:09.12 | 241758 | 269444
Range status and errors
Selected range
Filename D:\Rip\Telemann.Tafelmusic-Reinhard_Goebel,MAK.4CD(Elite_Classics)\CD3\Musica Antiqua Köln - Tafelmusik.wav
Peak level 84.1 %
Extraction speed 4.2 X
Range quality 99.9 %
Test CRC 80E2BFEF
Copy CRC 80E2BFEF
Copy OK
No errors occurred
AccurateRip summary
Track 1 cannot be verified as accurate (confidence 14) [7906FB8B], AccurateRip returned [FE9E50EC] (AR v2)
Track 2 cannot be verified as accurate (confidence 14) [D4CCDFA4], AccurateRip returned [3F686CF0] (AR v2)
Track 3 cannot be verified as accurate (confidence 14) [1FE18D16], AccurateRip returned [2C7C04E7] (AR v2)
Track 4 cannot be verified as accurate (confidence 14) [3803495A], AccurateRip returned [3C79DADA] (AR v2)
Track 5 cannot be verified as accurate (confidence 14) [565A7823], AccurateRip returned [958DD699] (AR v2)
Track 6 cannot be verified as accurate (confidence 13) [5D6C61CD], AccurateRip returned [AB06B427] (AR v2)
Track 7 cannot be verified as accurate (confidence 13) [60E7F62F], AccurateRip returned [22E06E7D] (AR v2)
Track 8 cannot be verified as accurate (confidence 13) [E22F83BB], AccurateRip returned [8F7BD22E] (AR v2)
Track 9 cannot be verified as accurate (confidence 13) [1F039EC3], AccurateRip returned [B9E6D402] (AR v2)
Track 10 cannot be verified as accurate (confidence 13) [D24A5DBC], AccurateRip returned [3697982E] (AR v2)
Track 11 cannot be verified as accurate (confidence 13) [9D31D8A6], AccurateRip returned [D8BFAAE8] (AR v2)
Track 12 cannot be verified as accurate (confidence 13) [95ABBE09], AccurateRip returned [5A3D09EC] (AR v2)
Track 13 cannot be verified as accurate (confidence 13) [63C5B29D], AccurateRip returned [295C2BD7] (AR v2)
Track 14 cannot be verified as accurate (confidence 13) [20BEA2BF], AccurateRip returned [AD366608] (AR v2)
Track 15 cannot be verified as accurate (confidence 13) [29531350], AccurateRip returned [46224266] (AR v2)
Track 16 cannot be verified as accurate (confidence 12) [900ED205], AccurateRip returned [093184DB] (AR v2)
No tracks could be verified as accurate
You may have a different pressing from the one(s) in the database
End of status report
==== Log checksum AA67E08E8DCD09B90753E85648CA1799FF4059BD1E0056650C4883EA959035F9 ====

CD4

CD4
Exact Audio Copy V1.0 beta 3 from 29. August 2011
EAC extraction logfile from 10. December 2014, 19:55
Musica Antiqua Köln / Tafelmusik
Used drive : HL-DT-STDVDRAM GSA-T40N Adapter: 0 ID: 0
Read mode : Secure
Utilize accurate stream : Yes
Defeat audio cache : Yes
Make use of C2 pointers : No
Read offset correction : 667
Overread into Lead-In and Lead-Out : No
Fill up missing offset samples with silence : Yes
Delete leading and trailing silent blocks : No
Null samples used in CRC calculations : Yes
Used interface : Native Win32 interface for Win NT & 2000
Used output format : User Defined Encoder
Selected bitrate : 32 kBit/s
Quality : High
Add ID3 tag : No
Command line compressor : C:\Program Files\Exact Audio Copy\Flac\flac.exe
Additional command line options : -V -8 -T "Date=%year%" -T "Genre=%genre%" %source%
TOC of the extracted CD
Track | Start | Length | Start sector | End sector
---------------------------------------------------------
1 | 0:00.32 | 8:44.25 | 32 | 39356
2 | 8:44.57 | 2:41.45 | 39357 | 51476
3 | 11:26.27 | 2:38.30 | 51477 | 63356
4 | 14:04.57 | 2:29.05 | 63357 | 74536
5 | 16:33.62 | 2:57.58 | 74537 | 87869
6 | 19:31.45 | 2:41.12 | 87870 | 99956
7 | 22:12.57 | 2:59.25 | 99957 | 113406
8 | 25:12.07 | 2:08.50 | 113407 | 123056
9 | 27:20.57 | 1:56.10 | 123057 | 131766
10 | 29:16.67 | 1:51.53 | 131767 | 140144
11 | 31:08.45 | 2:14.12 | 140145 | 150206
12 | 33:22.57 | 3:18.25 | 150207 | 165081
13 | 36:41.07 | 4:25.63 | 165082 | 185019
14 | 41:06.70 | 2:50.25 | 185020 | 197794
15 | 43:57.20 | 4:23.12 | 197795 | 217531
16 | 48:20.32 | 2:04.63 | 217532 | 226894
17 | 50:25.20 | 1:52.50 | 226895 | 235344
18 | 52:17.70 | 2:48.62 | 235345 | 248006
19 | 55:06.57 | 2:02.38 | 248007 | 257194
20 | 57:09.20 | 2:25.62 | 257195 | 268131
21 | 59:35.07 | 1:33.00 | 268132 | 275106
22 | 61:08.07 | 1:25.55 | 275107 | 281536
23 | 62:33.62 | 1:11.00 | 281537 | 286861
24 | 63:44.62 | 2:47.45 | 286862 | 299431
25 | 66:32.32 | 1:44.00 | 299432 | 307231
Range status and errors
Selected range
Filename D:\Rip\Telemann.Tafelmusic-Reinhard_Goebel,MAK.4CD(Elite_Classics)\CD4\Musica Antiqua Köln - Tafelmusik.wav
Peak level 99.8 %
Extraction speed 4.2 X
Range quality 100.0 %
Test CRC 0396A275
Copy CRC 0396A275
Copy OK
No errors occurred
AccurateRip summary
Track 1 cannot be verified as accurate (confidence 5) [81E2A60E], AccurateRip returned [CE502080] (AR v2)
Track 2 cannot be verified as accurate (confidence 5) [5BED1E24], AccurateRip returned [F74F4589] (AR v2)
Track 3 cannot be verified as accurate (confidence 5) [3626BFC8], AccurateRip returned [EFBEE0BE] (AR v2)
Track 4 cannot be verified as accurate (confidence 5) [DEEF60A6], AccurateRip returned [5E9CF49F] (AR v2)
Track 5 cannot be verified as accurate (confidence 5) [26EFB17E], AccurateRip returned [3C03BB46] (AR v2)
Track 6 cannot be verified as accurate (confidence 5) [19D2418A], AccurateRip returned [4FE6F31C] (AR v2)
Track 7 cannot be verified as accurate (confidence 5) [5FF5A033], AccurateRip returned [120244D6] (AR v2)
Track 8 cannot be verified as accurate (confidence 5) [29D55A7C], AccurateRip returned [494BC33B] (AR v2)
Track 9 cannot be verified as accurate (confidence 5) [C91F4315], AccurateRip returned [A1F52DF9] (AR v2)
Track 10 cannot be verified as accurate (confidence 5) [A7C50091], AccurateRip returned [4DB8CFD4] (AR v2)
Track 11 cannot be verified as accurate (confidence 5) [D970E03F], AccurateRip returned [534B5F55] (AR v2)
Track 12 cannot be verified as accurate (confidence 5) [16118243], AccurateRip returned [012799FE] (AR v2)
Track 13 cannot be verified as accurate (confidence 5) [FC76FFF9], AccurateRip returned [26BAC98B] (AR v2)
Track 14 cannot be verified as accurate (confidence 5) [0AA20E61], AccurateRip returned [C13D3C33] (AR v2)
Track 15 cannot be verified as accurate (confidence 5) [6A6CE341], AccurateRip returned [2C07BD38] (AR v2)
Track 16 cannot be verified as accurate (confidence 5) [D742722F], AccurateRip returned [EE666FC6] (AR v2)
Track 17 cannot be verified as accurate (confidence 5) [D5517151], AccurateRip returned [F0932B74] (AR v2)
Track 18 cannot be verified as accurate (confidence 5) [E2D6FBB5], AccurateRip returned [D2823752] (AR v2)
Track 19 cannot be verified as accurate (confidence 5) [A39554A9], AccurateRip returned [1D96BED1] (AR v2)
Track 20 cannot be verified as accurate (confidence 5) [7C958CB2], AccurateRip returned [3818A32A] (AR v2)
Track 21 cannot be verified as accurate (confidence 5) [5472406F], AccurateRip returned [2FC1B8F8] (AR v2)
Track 22 cannot be verified as accurate (confidence 5) [B3E656C0], AccurateRip returned [6981E345] (AR v2)
Track 23 cannot be verified as accurate (confidence 5) [A685984E], AccurateRip returned [9F575AA3] (AR v2)
Track 24 cannot be verified as accurate (confidence 5) [305DE62F], AccurateRip returned [430C9449] (AR v2)
Track 25 cannot be verified as accurate (confidence 5) [7E2E369D], AccurateRip returned [C907A48D] (AR v2)
No tracks could be verified as accurate
You may have a different pressing from the one(s) in the database
End of status report
==== Log checksum 1394258D0630F2BDB91F2F021FADC3BF65D05DD16E4566F7A8399702A6E8E22B ====

Содержание индексной карты (.CUE)

CD1

CD1
REM GENRE Classical
REM DATE 1989
REM DISCID D20FBB0F
REM COMMENT "ExactAudioCopy v1.0b3"
PERFORMER "Musica Antiqua Koln"
TITLE "Tafelmusik"
FILE "Musica Antiqua Koln - Tafelmusik.flac" WAVE
TRACK 01 AUDIO
TITLE "Production I. Ouverture-Suite in E minor, Ouverture. Lentement - Vite - Lente..."
PERFORMER "Musica Antiqua Koln"
INDEX 00 00:00:00
INDEX 01 00:00:33
TRACK 02 AUDIO
TITLE "Production I. Ouverture-Suite in E minor, Rejouissance"
PERFORMER "Musica Antiqua Koln"
INDEX 01 10:03:25
TRACK 03 AUDIO
TITLE "Production I. Ouverture-Suite in E minor, Rondeau"
PERFORMER "Musica Antiqua Koln"
INDEX 01 13:46:40
TRACK 04 AUDIO
TITLE "Production I. Ouverture-Suite in E minor, Loure"
PERFORMER "Musica Antiqua Koln"
INDEX 01 16:10:65
TRACK 05 AUDIO
TITLE "Production I. Ouverture-Suite in E minor, Passepied"
PERFORMER "Musica Antiqua Koln"
INDEX 01 20:37:30
TRACK 06 AUDIO
TITLE "Production I. Ouverture-Suite in E minor, Air. Un peu vivement"
PERFORMER "Musica Antiqua Koln"
INDEX 01 23:10:13
TRACK 07 AUDIO
TITLE "Production I. Ouverture-Suite in E minor, Gigue"
PERFORMER "Musica Antiqua Koln"
INDEX 01 28:01:25
TRACK 08 AUDIO
TITLE "Production I. Quatuor in G minor, Largo - Allegro - Largo"
PERFORMER "Musica Antiqua Koln"
INDEX 00 30:25:20
INDEX 01 30:36:08
TRACK 09 AUDIO
TITLE "Production I. Quatuor in G minor, Vivace - Moderato - Vivace D.c."
PERFORMER "Musica Antiqua Koln"
INDEX 01 33:27:28
TRACK 10 AUDIO
TITLE "Production I. Quatuor in G minor, Grave"
PERFORMER "Musica Antiqua Koln"
INDEX 01 39:39:33
TRACK 11 AUDIO
TITLE "Production I. Quatuor in G minor, Vivace"
PERFORMER "Musica Antiqua Koln"
INDEX 01 40:03:50
TRACK 12 AUDIO
TITLE "Production I. Concert in A major, Largo"
PERFORMER "Musica Antiqua Koln"
INDEX 00 43:00:50
INDEX 01 43:08:38
TRACK 13 AUDIO
TITLE "Production I. Concert in A major, Allegro"
PERFORMER "Musica Antiqua Koln"
INDEX 01 47:40:35
TRACK 14 AUDIO
TITLE "Production I. Concert in A major, Gratioso"
PERFORMER "Musica Antiqua Koln"
INDEX 01 55:58:45
TRACK 15 AUDIO
TITLE "Production I. Concert in A major, Allegro"
PERFORMER "Musica Antiqua Koln"
INDEX 01 58:48:28

CD2

CD2
REM GENRE Classical
REM DATE 1989
REM DISCID D90DA20E
REM COMMENT "ExactAudioCopy v1.0b3"
PERFORMER "Musica Antiqua Koln"
TITLE "Tafelmusik"
FILE "Musica Antiqua Koln - Tafelmusik.flac" WAVE
TRACK 01 AUDIO
TITLE "Production I. Trio in E flat major, Affettuoso"
PERFORMER "Musica Antiqua Koln"
INDEX 00 00:00:00
INDEX 01 00:00:33
TRACK 02 AUDIO
TITLE "Production I. Trio in E flat major, (attacca) Vivace"
PERFORMER "Musica Antiqua Koln"
INDEX 00 02:52:28
INDEX 01 02:52:30
TRACK 03 AUDIO
TITLE "Production I. Trio in E flat major, Grave"
PERFORMER "Musica Antiqua Koln"
INDEX 00 06:09:43
INDEX 01 06:09:45
TRACK 04 AUDIO
TITLE "Production I. Trio in E flat major, Allegro"
PERFORMER "Musica Antiqua Koln"
INDEX 00 09:17:38
INDEX 01 09:17:40
TRACK 05 AUDIO
TITLE "Production I. Solo in B minor, Cantabile"
PERFORMER "Musica Antiqua Koln"
INDEX 00 13:01:31
INDEX 01 13:07:70
TRACK 06 AUDIO
TITLE "Production I. Solo in B minor, Allegro"
PERFORMER "Musica Antiqua Koln"
INDEX 00 16:13:68
INDEX 01 16:13:70
TRACK 07 AUDIO
TITLE "Production I. Solo in B minor, Dolce"
PERFORMER "Musica Antiqua Koln"
INDEX 00 18:21:16
INDEX 01 18:21:18
TRACK 08 AUDIO
TITLE "Production I. Solo in B minor, Allegro"
PERFORMER "Musica Antiqua Koln"
INDEX 00 21:34:63
INDEX 01 21:34:65
TRACK 09 AUDIO
TITLE "Production I. Conclusion in E minor, Allegro - Largo - Allegro D.c."
PERFORMER "Musica Antiqua Koln"
INDEX 00 24:51:56
INDEX 01 24:54:28
TRACK 10 AUDIO
TITLE "Production II. Ouverture-Suite in D major, Ouverture. Lentement - Vite - Lent..."
PERFORMER "Musica Antiqua Koln"
INDEX 00 29:22:31
INDEX 01 29:33:58
TRACK 11 AUDIO
TITLE "Production II. Ouverture-Suite in D major, Air. Tempo giusto"
PERFORMER "Musica Antiqua Koln"
INDEX 00 40:24:66
INDEX 01 40:24:68
TRACK 12 AUDIO
TITLE "Production II. Ouverture-Suite in D major, Air. Vivace"
PERFORMER "Musica Antiqua Koln"
INDEX 00 46:49:48
INDEX 01 46:49:50
TRACK 13 AUDIO
TITLE "Production II. Ouverture-Suite in D major, Air. Presto"
PERFORMER "Musica Antiqua Koln"
INDEX 00 49:23:06
INDEX 01 49:23:08
TRACK 14 AUDIO
TITLE "Production II. Ouverture-Suite in D major, Allegro"
PERFORMER "Musica Antiqua Koln"
INDEX 00 54:51:48
INDEX 01 54:51:50

CD3

CD3
Exact Audio Copy V1.0 beta 3 from 29. August 2011
EAC extraction logfile from 9. December 2014, 19:20
Musica Antiqua Köln / Tafelmusik
Used drive : HL-DT-STDVDRAM GSA-T40N Adapter: 0 ID: 0
Read mode : Secure
Utilize accurate stream : Yes
Defeat audio cache : Yes
Make use of C2 pointers : No
Read offset correction : 667
Overread into Lead-In and Lead-Out : No
Fill up missing offset samples with silence : Yes
Delete leading and trailing silent blocks : No
Null samples used in CRC calculations : Yes
Used interface : Native Win32 interface for Win NT & 2000
Used output format : User Defined Encoder
Selected bitrate : 32 kBit/s
Quality : High
Add ID3 tag : No
Command line compressor : C:\Program Files\Exact Audio Copy\Flac\flac.exe
Additional command line options : -V -8 -T "Date=%year%" -T "Genre=%genre%" %source%
TOC of the extracted CD
Track | Start | Length | Start sector | End sector
---------------------------------------------------------
1 | 0:00.33 | 3:10.27 | 33 | 14309
2 | 3:10.60 | 3:56.60 | 14310 | 32069
3 | 7:07.45 | 3:24.15 | 32070 | 47384
4 | 10:31.60 | 4:01.13 | 47385 | 65472
5 | 14:32.73 | 5:10.50 | 65473 | 88772
6 | 19:43.48 | 5:28.05 | 88773 | 113377
7 | 25:11.53 | 3:11.15 | 113378 | 127717
8 | 28:22.68 | 3:21.17 | 127718 | 142809
9 | 31:44.10 | 2:46.38 | 142810 | 155297
10 | 34:30.48 | 2:36.37 | 155298 | 167034
11 | 37:07.10 | 3:36.33 | 167035 | 183267
12 | 40:43.43 | 2:01.42 | 183268 | 192384
13 | 42:45.10 | 3:32.38 | 192385 | 208322
14 | 46:17.48 | 3:38.60 | 208323 | 224732
15 | 49:56.33 | 3:47.00 | 224733 | 241757
16 | 53:43.33 | 6:09.12 | 241758 | 269444
Range status and errors
Selected range
Filename D:\Rip\Telemann.Tafelmusic-Reinhard_Goebel,MAK.4CD(Elite_Classics)\CD3\Musica Antiqua Köln - Tafelmusik.wav
Peak level 84.1 %
Extraction speed 4.2 X
Range quality 99.9 %
Test CRC 80E2BFEF
Copy CRC 80E2BFEF
Copy OK
No errors occurred
AccurateRip summary
Track 1 cannot be verified as accurate (confidence 14) [7906FB8B], AccurateRip returned [FE9E50EC] (AR v2)
Track 2 cannot be verified as accurate (confidence 14) [D4CCDFA4], AccurateRip returned [3F686CF0] (AR v2)
Track 3 cannot be verified as accurate (confidence 14) [1FE18D16], AccurateRip returned [2C7C04E7] (AR v2)
Track 4 cannot be verified as accurate (confidence 14) [3803495A], AccurateRip returned [3C79DADA] (AR v2)
Track 5 cannot be verified as accurate (confidence 14) [565A7823], AccurateRip returned [958DD699] (AR v2)
Track 6 cannot be verified as accurate (confidence 13) [5D6C61CD], AccurateRip returned [AB06B427] (AR v2)
Track 7 cannot be verified as accurate (confidence 13) [60E7F62F], AccurateRip returned [22E06E7D] (AR v2)
Track 8 cannot be verified as accurate (confidence 13) [E22F83BB], AccurateRip returned [8F7BD22E] (AR v2)
Track 9 cannot be verified as accurate (confidence 13) [1F039EC3], AccurateRip returned [B9E6D402] (AR v2)
Track 10 cannot be verified as accurate (confidence 13) [D24A5DBC], AccurateRip returned [3697982E] (AR v2)
Track 11 cannot be verified as accurate (confidence 13) [9D31D8A6], AccurateRip returned [D8BFAAE8] (AR v2)
Track 12 cannot be verified as accurate (confidence 13) [95ABBE09], AccurateRip returned [5A3D09EC] (AR v2)
Track 13 cannot be verified as accurate (confidence 13) [63C5B29D], AccurateRip returned [295C2BD7] (AR v2)
Track 14 cannot be verified as accurate (confidence 13) [20BEA2BF], AccurateRip returned [AD366608] (AR v2)
Track 15 cannot be verified as accurate (confidence 13) [29531350], AccurateRip returned [46224266] (AR v2)
Track 16 cannot be verified as accurate (confidence 12) [900ED205], AccurateRip returned [093184DB] (AR v2)
No tracks could be verified as accurate
You may have a different pressing from the one(s) in the database
End of status report
==== Log checksum AA67E08E8DCD09B90753E85648CA1799FF4059BD1E0056650C4883EA959035F9 ====

CD4

CD4
REM GENRE Classical
REM DATE 1989
REM DISCID 80100019
REM COMMENT "ExactAudioCopy v1.0b3"
PERFORMER "Musica Antiqua Koln"
TITLE "Tafelmusik"
FILE "Musica Antiqua Koln - Tafelmusik.flac" WAVE
TRACK 01 AUDIO
TITLE "Production III. Ouverture-Suite in B flat major, Ouverture. Lentement - Prest..."
PERFORMER "Musica Antiqua Koln"
INDEX 00 00:00:00
INDEX 01 00:00:32
TRACK 02 AUDIO
TITLE "Production III. Ouverture-Suite in B flat major, Bergerie. Un peu vivement"
PERFORMER "Musica Antiqua Koln"
INDEX 00 08:44:55
INDEX 01 08:44:57
TRACK 03 AUDIO
TITLE "Production III. Ouverture-Suite in B flat major, Allegresse. Vite - Meno moss..."
PERFORMER "Musica Antiqua Koln"
INDEX 00 11:26:25
INDEX 01 11:26:27
TRACK 04 AUDIO
TITLE "Production III. Ouverture-Suite in B flat major, Postillons"
PERFORMER "Musica Antiqua Koln"
INDEX 00 14:04:55
INDEX 01 14:04:57
TRACK 05 AUDIO
TITLE "Production III. Ouverture-Suite in B flat major, Flaterie"
PERFORMER "Musica Antiqua Koln"
INDEX 00 16:33:60
INDEX 01 16:33:62
TRACK 06 AUDIO
TITLE "Production III. Ouverture-Suite in B flat major, Badinage. Tres vite"
PERFORMER "Musica Antiqua Koln"
INDEX 00 19:31:43
INDEX 01 19:31:45
TRACK 07 AUDIO
TITLE "Production III. Ouverture-Suite in B flat major, Menuet"
PERFORMER "Musica Antiqua Koln"
INDEX 00 22:12:55
INDEX 01 22:12:57
TRACK 08 AUDIO
TITLE "Production III. Quatuor in E minor, Adagio"
PERFORMER "Musica Antiqua Koln"
INDEX 00 25:05:30
INDEX 01 25:12:07
TRACK 09 AUDIO
TITLE "Production III. Quatuor in E minor, Allegro"
PERFORMER "Musica Antiqua Koln"
INDEX 00 27:20:56
INDEX 01 27:20:57
TRACK 10 AUDIO
TITLE "Production III. Quatuor in E minor, Dolce"
PERFORMER "Musica Antiqua Koln"
INDEX 00 29:16:65
INDEX 01 29:16:67
TRACK 11 AUDIO
TITLE "Production III. Quatuor in E minor, Allegro"
PERFORMER "Musica Antiqua Koln"
INDEX 00 31:08:43
INDEX 01 31:08:45
TRACK 12 AUDIO
TITLE "Production III. Concert in E flat major, Maestoso"
PERFORMER "Musica Antiqua Koln"
INDEX 00 33:14:30
INDEX 01 33:22:57
TRACK 13 AUDIO
TITLE "Production III. Concert in E flat major, Allegro"
PERFORMER "Musica Antiqua Koln"
INDEX 00 36:41:05
INDEX 01 36:41:07
TRACK 14 AUDIO
TITLE "Production III. Concert in E flat major, Grave"
PERFORMER "Musica Antiqua Koln"
INDEX 00 41:06:68
INDEX 01 41:06:70
TRACK 15 AUDIO
TITLE "Production III. Concert in E flat major, Vivace"
PERFORMER "Musica Antiqua Koln"
INDEX 00 43:57:18
INDEX 01 43:57:20
TRACK 16 AUDIO
TITLE "Procution III. Trio in D major, Andante"
PERFORMER "Musica Antiqua Koln"
INDEX 00 48:12:30
INDEX 01 48:20:32
TRACK 17 AUDIO
TITLE "Procution III. Trio in D major, Allegro"
PERFORMER "Musica Antiqua Koln"
INDEX 00 50:25:18
INDEX 01 50:25:20
TRACK 18 AUDIO
TITLE "Procution III. Trio in D major, Grave - Largo - Grave"
PERFORMER "Musica Antiqua Koln"
INDEX 00 52:17:68
INDEX 01 52:17:70
TRACK 19 AUDIO
TITLE "Procution III. Trio in D major, Vivace"
PERFORMER "Musica Antiqua Koln"
INDEX 00 55:06:55
INDEX 01 55:06:57
TRACK 20 AUDIO
TITLE "Production III. Solo in G minor, Largo"
PERFORMER "Musica Antiqua Koln"
INDEX 00 57:03:30
INDEX 01 57:09:20
TRACK 21 AUDIO
TITLE "Production III. Solo in G minor, Presto"
PERFORMER "Musica Antiqua Koln"
INDEX 00 59:35:05
INDEX 01 59:35:07
TRACK 22 AUDIO
TITLE "Production III. Solo in G minor, Tempo giusto"
PERFORMER "Musica Antiqua Koln"
INDEX 00 61:08:05
INDEX 01 61:08:07
TRACK 23 AUDIO
TITLE "Production III. Solo in G minor, Andante"
PERFORMER "Musica Antiqua Koln"
INDEX 00 62:33:60
INDEX 01 62:33:62
TRACK 24 AUDIO
TITLE "Production III. Solo in G minor, Allegro"
PERFORMER "Musica Antiqua Koln"
INDEX 00 63:44:60
INDEX 01 63:44:62
TRACK 25 AUDIO
TITLE "Production III. Conclusion in B flat major, Furioso"
PERFORMER "Musica Antiqua Koln"
INDEX 00 66:28:30
INDEX 01 66:32:32
Доп. информация: Recorded 1989



Показать сообщения:    

Текущее время: 09-Дек 14:37

Часовой пояс: UTC + 3


Вы не можете начинать темы
Вы не можете отвечать на сообщения
Вы не можете редактировать свои сообщения
Вы не можете удалять свои сообщения
Вы не можете голосовать в опросах
Вы не можете прикреплять файлы к сообщениям
Вы не можете скачивать файлы