(Opera) Reznicek - Donna Diana (Uhl, Wittges, Wittlieb, Kreusch, Sadnik - Kiel Philharmonic Orchestra, Windfuhr) - 2004, APE (image+.cue) lossless


 

[Цитировать]

Emil Nikolaus von Reznicek - Donna Diana
Жанр: Opera
Страна-производитель диска: Germany
Год издания диска: 2004
Издатель (лейбл): CPO
Номер по каталогу: 999 9912
Дата записи: 2003
Аудиокодек: APE
Тип рипа: image+.cue
Битрейт аудио: lossless
Продолжительность: 38'41+73'03
Источник: собственный рип
Наличие сканов в содержимом раздачи: да
Треклист:

CD1

1. Ouvertüre
2. Act 1. Vorspiel
3. Act 1. Scene 1. O tönt, o tönt nur, fröhliche Drommetten!
4. Act 1. Scene 2. Er ist verliebt
5. Act 1. Scene 3. Aus ist's Turnier!
6. Act 1. Scene 3. Wie hübsch sie ist
7. Act 1. Scene 4. Fanfaren
8. Act 1. Scene 4. Auftritt der Bürger, Ritter, Edlen und ihren Damen
9. Act 1. Scene 4. Ach wie herrlich, ach wie prächtig
10. Act 1. Scene 5. Seid mir gergrüßt, Ihr edlen Damen all'
11. Act 1. Scene 5. Und nun der Herrscher hat gesprochen
12. Act 1. Scene 5. Verzeiht, mein Vater
13. Act 1. Scene 5. Ensemble und Gebet
14. Act 1. Scene 6. Vortrefflich, Freund
15. Act 1. Scene 6. Nur dies, Prinzessin
16. Act 1. Scene 6. Erfahrung lehrt, die Liebe rächt sich
17. Act 1. Scene 6. Laß uns in heit'rer Fehde dir begegnen
18. Act 1. Scene 6. Doch fast vergaß ich Euch! Nun?
19. Act 1. Scene 6. Was meint Ihr?
20. Act 1. Scene 6. Kommt heraus

CD2

1. Act 2. Vorspiel / Scene 1
2. Act 2. Scene 1. Ballett
3. Act 2. Scene 2. Ich hab das Glücksrad so gedreht / Scene 3
4. Act 2. Scene 3. Die Hoffnung ist's, die mich hierher geführt
5. Act 2. Scene 3. Es ist die Liebe die Meisterin des Glücks
6. Act 2. Scene 4. Nun halte fest, mein Herz!
7. Act 2. Scene 4. Prinzessin! Ist das nun Scherz oder Ernst?
8. Act 2. Scene 5. Ist's möglich? Was muß ich erfahren?
9. Act 2. Scene 6. Was ist das? Hoheit? Warum kommt Ihr nicht?
10. Act 2. Scene 6. Nun hör, Perin!
11. Act 2. Scene 7. Ei, seht doch, fein, vortrefflich ausgedacht!
12. Act 2. Scene 7. Zwischenspiel
13. Act 2. Scene 8. Noch niemand hier?
14. Act 2. Scene 8. Mütterchen, wenn's in Schlaf mich sang (Floretta-Lied)
15. Act 2. Scene 9. Und kommt er, meldet mir's
16. Act 2. Scene 9. Nur Mut! Voraus gewarnt ist halb gewonnen!
17. Act 2. Scene 9. Mohr Alcaide, Mohr Alcaide (Romanze)
18. Act 2. Scene 9. Don Cesar, habt Ihr nicht gehört?
19. Act 2. Scene 10. Ist's wahr? Wie konnte dies geschehen?
20. Act 3. Vorspiel
21. Act 3. Scene 1. Gesetzt, dies hier wäre eine Komödie
22. Act 3. Scene 1. Die Narrenglocken klingen tagsüber mir ins Ohr
23. Act 3. Scene 2. Soll ich meine Liebe zeigen?
24. Act 3. Scene 2. Ist es wohl auszuhalten?
25. Act 3. Scene 2. Laßt Fenisens Ruhm ertönen! / Scene 3
26. Act 3. Scene 3. Das Glück war heut mir hold
27. Act 3. Scene 4. Einleitung
28. Act 3. Scene 4. Ich will das Letzte noch an ihm versuchen
29. Act 3. Scene 4. Die Gründe, die so lange mich bekämpft
30. Act 3. Scene 4. Ha!
31. Act 3. Scene 4. Erstaunt, Prinzessin, das bin ich in der Tat!
32. Act 3. Scene 5. Ist dieses Feuer in der Brust die Liebe?
33. Act 3. Scene 6. Dreimal hoch, Prinz Karneval
34. Act 3. Scene 6. Nichts in der Welt kann mich so sehr erfreu'n
35. Act 3. Scene 6. Ich kam an diesen Hof...
36. Act 3. Scene 6. Wohlan! Es sei!
37. Act 3. Scene 6. Heil dem Herrscherhaus!
Исполнители:
Emil Nikolaus von Reznicek - Donna Diana
Donna Diana - Manuela Uhl (Soprano)
Don Diego - Max Wittges (Bass)
Donna Laura - Heike Wittlieb (Soprano)
Donna Fenisa - Susan Kreusch (Mezzo Soprano)
Don Cesar - Roman Sadnik (Tenor)
Don Louis - Hans-Jürgen Schöpflin (Tenor)
Perin - Simon Pauly (Baritone)
Floretta - Anne-Carolyn Schlüter (Mezzo Soprano)
Kiel Opera Chorus
Kiel Philharmonic Orchestra,
Ulrich Windfuhr

Лог создания рипа

CD1

Exact Audio Copy V1.0 beta 3 from 29. August 2011
EAC extraction logfile from 24. September 2014, 16:20
Reznicek / Donna Diana, Windfuhr CD1
Used drive : TS8XDVDSTRANSCEND Adapter: 1 ID: 1
Read mode : Secure
Utilize accurate stream : Yes
Defeat audio cache : Yes
Make use of C2 pointers : No
Read offset correction : 6
Overread into Lead-In and Lead-Out : No
Fill up missing offset samples with silence : Yes
Delete leading and trailing silent blocks : No
Null samples used in CRC calculations : Yes
Used interface : Native Win32 interface for Win NT & 2000
Used output format : Monkey's Audio Lossless Encoder
Selected bitrate : High Lossless Compression
Quality : High
Add ID3 tag : No
Command line compressor : C:\Program Files (x86)\Exact Audio Copy\MAC\MAC.exe
TOC of the extracted CD
Track | Start | Length | Start sector | End sector
---------------------------------------------------------
1 | 0:00.00 | 5:56.47 | 0 | 26746
2 | 5:56.47 | 1:03.11 | 26747 | 31482
3 | 6:59.58 | 3:13.13 | 31483 | 45970
4 | 10:12.71 | 5:34.50 | 45971 | 71070
5 | 15:47.46 | 1:07.71 | 71071 | 76166
6 | 16:55.42 | 0:34.45 | 76167 | 78761
7 | 17:30.12 | 0:17.38 | 78762 | 80074
8 | 17:47.50 | 1:16.44 | 80075 | 85818
9 | 19:04.19 | 1:35.04 | 85819 | 92947
10 | 20:39.23 | 3:02.73 | 92948 | 106670
11 | 23:42.21 | 1:20.54 | 106671 | 112724
12 | 25:03.00 | 1:15.61 | 112725 | 118410
13 | 26:18.61 | 3:59.03 | 118411 | 136338
14 | 30:17.64 | 1:23.39 | 136339 | 142602
15 | 31:41.28 | 0:46.09 | 142603 | 146061
16 | 32:27.37 | 0:33.49 | 146062 | 148585
17 | 33:01.11 | 1:14.71 | 148586 | 154206
18 | 34:16.07 | 0:59.72 | 154207 | 158703
19 | 35:16.04 | 0:16.57 | 158704 | 159960
20 | 35:32.61 | 3:07.06 | 159961 | 173991
Range status and errors
Selected range
Filename D:\EAC\Reznicek - Donna Diana, Windfuhr CD1.wav
Peak level 98.5 %
Extraction speed 2.7 X
Range quality 100.0 %
Test CRC B056C467
Copy CRC B056C467
Copy OK
No errors occurred
AccurateRip summary
Track 1 accurately ripped (confidence 3) [FA1AC5BC] (AR v2)
Track 2 accurately ripped (confidence 3) [B7254D0D] (AR v2)
Track 3 accurately ripped (confidence 3) [9A45BD5C] (AR v2)
Track 4 accurately ripped (confidence 3) [14E33F25] (AR v2)
Track 5 accurately ripped (confidence 3) [0EE1F25D] (AR v2)
Track 6 accurately ripped (confidence 3) [6BBD79D5] (AR v2)
Track 7 accurately ripped (confidence 3) [F3DE36F5] (AR v2)
Track 8 accurately ripped (confidence 3) [BF5E014A] (AR v2)
Track 9 accurately ripped (confidence 3) [4C55A2EB] (AR v2)
Track 10 accurately ripped (confidence 3) [4F4C56B3] (AR v2)
Track 11 accurately ripped (confidence 3) [4215F273] (AR v2)
Track 12 accurately ripped (confidence 3) [E26D82CD] (AR v2)
Track 13 accurately ripped (confidence 3) [C8168B94] (AR v2)
Track 14 accurately ripped (confidence 3) [3E51B346] (AR v2)
Track 15 accurately ripped (confidence 3) [BE89D065] (AR v2)
Track 16 accurately ripped (confidence 3) [6991744C] (AR v2)
Track 17 accurately ripped (confidence 3) [F2DB9005] (AR v2)
Track 18 accurately ripped (confidence 3) [844EECAE] (AR v2)
Track 19 accurately ripped (confidence 3) [DE907C5E] (AR v2)
Track 20 accurately ripped (confidence 3) [8F824C80] (AR v2)
All tracks accurately ripped
End of status report
---- CUETools DB Plugin V2.1.3
[CTDB TOCID: .ZhKjUS61KbQgULydwr_QaKN4zs-] disk not present in database, Submit result: unrecognized or virtual drive
==== Log checksum 36204311BC6ED6A792569646604D6048BBBE6ED2C7D7C7C185F67540FC3AEFAB ====

CD2

Exact Audio Copy V1.0 beta 3 from 29. August 2011
EAC extraction logfile from 24. September 2014, 16:20
Reznicek / Donna Diana, Windfuhr CD2
Used drive : TSSTcorpCDDVDW SE-208AB Adapter: 1 ID: 0
Read mode : Secure
Utilize accurate stream : Yes
Defeat audio cache : Yes
Make use of C2 pointers : No
Read offset correction : 6
Overread into Lead-In and Lead-Out : No
Fill up missing offset samples with silence : Yes
Delete leading and trailing silent blocks : No
Null samples used in CRC calculations : Yes
Used interface : Native Win32 interface for Win NT & 2000
Used output format : Monkey's Audio Lossless Encoder
Selected bitrate : High Lossless Compression
Quality : High
Add ID3 tag : No
Command line compressor : C:\Program Files (x86)\Exact Audio Copy\MAC\MAC.exe
TOC of the extracted CD
Track | Start | Length | Start sector | End sector
---------------------------------------------------------
1 | 0:00.00 | 1:01.63 | 0 | 4637
2 | 1:01.63 | 3:27.21 | 4638 | 20183
3 | 4:29.09 | 3:13.12 | 20184 | 34670
4 | 7:42.21 | 0:46.23 | 34671 | 38143
5 | 8:28.44 | 2:39.66 | 38144 | 50134
6 | 11:08.35 | 4:06.37 | 50135 | 68621
7 | 15:14.72 | 1:49.54 | 68622 | 76850
8 | 17:04.51 | 0:54.69 | 76851 | 80969
9 | 17:59.45 | 1:04.45 | 80970 | 85814
10 | 19:04.15 | 1:11.39 | 85815 | 91178
11 | 20:15.54 | 0:41.33 | 91179 | 94286
12 | 20:57.12 | 4:22.42 | 94287 | 113978
13 | 25:19.54 | 1:02.12 | 113979 | 118640
14 | 26:21.66 | 3:44.21 | 118641 | 135461
15 | 30:06.12 | 1:21.39 | 135462 | 141575
16 | 31:27.51 | 0:54.54 | 141576 | 145679
17 | 32:22.30 | 2:23.51 | 145680 | 156455
18 | 34:46.06 | 1:53.60 | 156456 | 164990
19 | 36:39.66 | 2:21.54 | 164991 | 175619
20 | 39:01.45 | 1:26.15 | 175620 | 182084
21 | 40:27.60 | 2:47.72 | 182085 | 194681
22 | 43:15.57 | 4:04.01 | 194682 | 212982
23 | 47:19.58 | 1:34.20 | 212983 | 220052
24 | 48:54.03 | 0:38.14 | 220053 | 222916
25 | 49:32.17 | 2:30.64 | 222917 | 234230
26 | 52:03.06 | 2:33.41 | 234231 | 245746
27 | 54:36.47 | 0:48.37 | 245747 | 249383
28 | 55:25.09 | 0:32.38 | 249384 | 251821
29 | 55:57.47 | 1:07.49 | 251822 | 256895
30 | 57:05.21 | 1:07.69 | 256896 | 261989
31 | 58:13.15 | 2:09.27 | 261990 | 271691
32 | 60:22.42 | 6:15.09 | 271692 | 299825
33 | 66:37.51 | 0:57.14 | 299826 | 304114
34 | 67:34.65 | 1:32.36 | 304115 | 311050
35 | 69:07.26 | 0:54.53 | 311051 | 315153
36 | 70:02.04 | 1:34.14 | 315154 | 322217
37 | 71:36.18 | 1:25.24 | 322218 | 328616
Range status and errors
Selected range
Filename D:\EAC\Reznicek - Donna Diana, Windfuhr CD2.wav
Peak level 91.5 %
Extraction speed 5.2 X
Range quality 100.0 %
Test CRC DB3771C2
Copy CRC DB3771C2
Copy OK
No errors occurred
AccurateRip summary
Track 1 accurately ripped (confidence 3) [6A4DF9A6] (AR v2)
Track 2 accurately ripped (confidence 3) [7679D546] (AR v2)
Track 3 accurately ripped (confidence 3) [589ED796] (AR v2)
Track 4 accurately ripped (confidence 3) [C2D67904] (AR v2)
Track 5 accurately ripped (confidence 3) [D8C1AC4B] (AR v2)
Track 6 accurately ripped (confidence 3) [A723EF73] (AR v2)
Track 7 accurately ripped (confidence 3) [5D6A317C] (AR v2)
Track 8 accurately ripped (confidence 3) [F5D46DD3] (AR v2)
Track 9 accurately ripped (confidence 3) [E049DD8C] (AR v2)
Track 10 accurately ripped (confidence 3) [89D17397] (AR v2)
Track 11 accurately ripped (confidence 3) [DB09F05A] (AR v2)
Track 12 accurately ripped (confidence 3) [AF25D497] (AR v2)
Track 13 accurately ripped (confidence 3) [5B825620] (AR v2)
Track 14 accurately ripped (confidence 3) [BE75DCBC] (AR v2)
Track 15 accurately ripped (confidence 3) [69827422] (AR v2)
Track 16 accurately ripped (confidence 3) [18497B24] (AR v2)
Track 17 accurately ripped (confidence 3) [8E0C76A2] (AR v2)
Track 18 accurately ripped (confidence 3) [524C0D73] (AR v2)
Track 19 accurately ripped (confidence 3) [702DA01B] (AR v2)
Track 20 accurately ripped (confidence 3) [BDE59D64] (AR v2)
Track 21 accurately ripped (confidence 3) [3228BA76] (AR v2)
Track 22 accurately ripped (confidence 3) [7E1E7E7F] (AR v2)
Track 23 accurately ripped (confidence 3) [7642B2B3] (AR v2)
Track 24 accurately ripped (confidence 3) [9635309D] (AR v2)
Track 25 accurately ripped (confidence 3) [34D3A3C0] (AR v2)
Track 26 accurately ripped (confidence 3) [DDB7B86E] (AR v2)
Track 27 accurately ripped (confidence 3) [E37EC8D3] (AR v2)
Track 28 accurately ripped (confidence 3) [E49E0342] (AR v2)
Track 29 accurately ripped (confidence 3) [9041D604] (AR v2)
Track 30 accurately ripped (confidence 3) [854D5F81] (AR v2)
Track 31 accurately ripped (confidence 3) [A40AC445] (AR v2)
Track 32 accurately ripped (confidence 3) [4FED0310] (AR v2)
Track 33 accurately ripped (confidence 3) [791A1A53] (AR v2)
Track 34 accurately ripped (confidence 3) [23D434A1] (AR v2)
Track 35 accurately ripped (confidence 3) [BD845388] (AR v2)
Track 36 accurately ripped (confidence 3) [557D4CA9] (AR v2)
Track 37 accurately ripped (confidence 3) [C23D7A0C] (AR v2)
All tracks accurately ripped
End of status report
---- CUETools DB Plugin V2.1.3
[CTDB TOCID: FwV9rn6LdnIgXC7K5pFR2RsmxXY-] disk not present in database, Submit result: FwV9rn6LdnIgXC7K5pFR2RsmxXY- has been uploaded
==== Log checksum 9873CC43C140A289E5DD67AB9B6798448A272FC135FE471395929C8162B35545 ====

Содержание индексной карты (.CUE)

CD1

REM GENRE Opera
REM DATE 2004
REM DISCID 05090F14
REM COMMENT "ExactAudioCopy v1.0b3"
CATALOG 0761203999125
PERFORMER "Reznicek"
TITLE "Donna Diana, Windfuhr CD1"
FILE "Reznicek - Donna Diana, Windfuhr CD1.ape" WAVE
TRACK 01 AUDIO
TITLE "Ouvertüre"
PERFORMER "Reznicek"
ISRC DEB200399101
INDEX 01 00:00:00
TRACK 02 AUDIO
TITLE "Vorspiel"
PERFORMER "Reznicek"
ISRC DEB200399102
INDEX 01 05:56:47
TRACK 03 AUDIO
TITLE "O tönt, o tönt nur, fröhliche Drommetten! [Don Cesar]"
PERFORMER "Reznicek"
ISRC DEB200399103
INDEX 00 06:59:38
INDEX 01 06:59:58
TRACK 04 AUDIO
TITLE "Er ist verliebt [Perin]"
PERFORMER "Reznicek"
ISRC DEB200399104
INDEX 01 10:12:71
TRACK 05 AUDIO
TITLE "Aus ist's Turnier [Floretta]"
PERFORMER "Reznicek"
ISRC DEB200399105
INDEX 01 15:47:46
TRACK 06 AUDIO
TITLE "Wie hübsch sie ist [Perin]"
PERFORMER "Reznicek"
ISRC DEB200399106
INDEX 01 16:55:42
TRACK 07 AUDIO
TITLE "Fanfaren"
PERFORMER "Reznicek"
ISRC DEB200399107
INDEX 01 17:30:12
TRACK 08 AUDIO
TITLE "Auftritt der Bürger, Ritter, Edlen und ihren Damen"
PERFORMER "Reznicek"
ISRC DEB200399108
INDEX 01 17:47:50
TRACK 09 AUDIO
TITLE "Ach wie herrlich, ach wie prächtig [Chor]"
PERFORMER "Reznicek"
ISRC DEB200399109
INDEX 01 19:04:19
TRACK 10 AUDIO
TITLE "Seid mir gegrüßt, Ihr edlen Damen all' [Don Diego]"
PERFORMER "Reznicek"
ISRC DEB200399110
INDEX 01 20:39:23
TRACK 11 AUDIO
TITLE "Und nun der Herrscher hat gesprochen [Don Diego]"
PERFORMER "Reznicek"
ISRC DEB200399111
INDEX 01 23:42:21
TRACK 12 AUDIO
TITLE "Verzeiht, mein Vater [Donna Diana]"
PERFORMER "Reznicek"
ISRC DEB200399112
INDEX 01 25:03:00
TRACK 13 AUDIO
TITLE "Ensemble und Gebet"
PERFORMER "Reznicek"
ISRC DEB200399113
INDEX 01 26:18:61
TRACK 14 AUDIO
TITLE "Vortrefflich, Freund [Don Diego]"
PERFORMER "Reznicek"
ISRC DEB200399114
INDEX 01 30:17:64
TRACK 15 AUDIO
TITLE "Nur dies, Prinzessin [Don Gaston]"
PERFORMER "Reznicek"
ISRC DEB200399115
INDEX 01 31:41:28
TRACK 16 AUDIO
TITLE "Erfahrung lehrt, die Liebe rächt sich [Don Louis]"
PERFORMER "Reznicek"
ISRC DEB200399116
INDEX 01 32:27:37
TRACK 17 AUDIO
TITLE "Laß uns in heit'rer Fehde dir begegnen [Don Louis]"
PERFORMER "Reznicek"
ISRC DEB200399117
INDEX 01 33:01:11
TRACK 18 AUDIO
TITLE "Doch fast vergaß ich Euch! Nun? [Donna Diana]"
PERFORMER "Reznicek"
ISRC DEB200399118
INDEX 01 34:16:07
TRACK 19 AUDIO
TITLE "Was meint Ihr [Donna Diana]"
PERFORMER "Reznicek"
ISRC DEB200399119
INDEX 01 35:16:04
TRACK 20 AUDIO
TITLE "Kommt heraus [Chor]"
PERFORMER "Reznicek"
ISRC DEB200399119
INDEX 01 35:32:61

CD2

REM GENRE Opera
REM DATE 2004
REM DISCID 34111D25
REM COMMENT "ExactAudioCopy v1.0b3"
CATALOG 0761203999125
PERFORMER "Reznicek"
TITLE "Donna Diana, Windfuhr CD2"
FILE "Reznicek - Donna Diana, Windfuhr CD2.ape" WAVE
TRACK 01 AUDIO
TITLE "Vorspiel und 1. Szene"
PERFORMER "Reznicek"
ISRC DEB200399121
INDEX 01 00:00:00
TRACK 02 AUDIO
TITLE "Ballett"
PERFORMER "Reznicek"
ISRC DEB200399122
INDEX 01 01:01:63
TRACK 03 AUDIO
TITLE "Ich hab das Glücksrad so gedreht [Donna Diana]"
PERFORMER "Reznicek"
ISRC DEB200399123
INDEX 01 04:29:09
TRACK 04 AUDIO
TITLE "Die Hoffnung ist's, die mich hierher geführt [Don Louis]"
PERFORMER "Reznicek"
ISRC DEB200399123
INDEX 01 07:42:21
TRACK 05 AUDIO
TITLE "Es ist die Liebe die Meisterin des Glücks [Don Gaston]"
PERFORMER "Reznicek"
ISRC DEB200399125
INDEX 01 08:28:44
TRACK 06 AUDIO
TITLE "Nun halte fest, mein Herz! [Don Cesar]"
PERFORMER "Reznicek"
ISRC DEB200399126
INDEX 01 11:08:35
TRACK 07 AUDIO
TITLE "Prinzessin! Ist das nun Scherz oder Ernst? [Don Cesar]"
PERFORMER "Reznicek"
ISRC DEB200399127
INDEX 01 15:14:72
TRACK 08 AUDIO
TITLE "Ist's möglich? Was muß ich erfahren? [Donna Diana]"
PERFORMER "Reznicek"
ISRC DEB200399128
INDEX 01 17:04:51
TRACK 09 AUDIO
TITLE "Was ist das? Hoheit? Warum kommt Ihr nicht? [Perin]"
PERFORMER "Reznicek"
ISRC DEB200399129
INDEX 01 17:59:45
TRACK 10 AUDIO
TITLE "Nun hör, Perin! [Donna Diana]"
PERFORMER "Reznicek"
ISRC DEB200399130
INDEX 01 19:04:15
TRACK 11 AUDIO
TITLE "Ei, seht doch, fein, vortrefflich ausgedacht! [Perin]"
PERFORMER "Reznicek"
ISRC DEB200399131
INDEX 01 20:15:54
TRACK 12 AUDIO
TITLE "Zwischenspiel"
PERFORMER "Reznicek"
ISRC DEB200399132
INDEX 01 20:57:12
TRACK 13 AUDIO
TITLE "Noch niemand hier? [Floretta]"
PERFORMER "Reznicek"
ISRC DEB200399133
INDEX 01 25:19:54
TRACK 14 AUDIO
TITLE "Mütterchen, wenn's in Schlaf mich sang (Floretta-Lied) [Floretta]"
PERFORMER "Reznicek"
ISRC DEB200399133
INDEX 01 26:21:66
TRACK 15 AUDIO
TITLE "Und kommt er, meldet mir's [Donna Diana]"
PERFORMER "Reznicek"
ISRC DEB200399135
INDEX 01 30:06:12
TRACK 16 AUDIO
TITLE "Nur Mut! Voraus gewarnt ist halb gewonnen! [Perin]"
PERFORMER "Reznicek"
ISRC DEB200399136
INDEX 01 31:27:51
TRACK 17 AUDIO
TITLE "Mohr Alcaide, Mohr Alcaide (Romanze) [Donna Diana]"
PERFORMER "Reznicek"
ISRC DEB200399137
INDEX 01 32:22:30
TRACK 18 AUDIO
TITLE "Don Cesar, habt Ihr nicht gehört? [Floretta]"
PERFORMER "Reznicek"
ISRC DEB200399138
INDEX 01 34:46:06
TRACK 19 AUDIO
TITLE "Ist's wahr? Wie konnte dies geschehen? [Donna Diana]"
PERFORMER "Reznicek"
ISRC DEB200399138
INDEX 01 36:39:66
TRACK 20 AUDIO
TITLE "Vorspiel"
PERFORMER "Reznicek"
ISRC DEB200399140
INDEX 00 38:56:47
INDEX 01 39:01:45
TRACK 21 AUDIO
TITLE "Gesetzt, dies hier wäre eine Komödie [Perin]"
PERFORMER "Reznicek"
ISRC DEB200399141
INDEX 01 40:27:60
TRACK 22 AUDIO
TITLE "Die Narrenglocken klingen tagsüber mir ins Ohr [Perin]"
PERFORMER "Reznicek"
ISRC DEB200399142
INDEX 01 43:15:57
TRACK 23 AUDIO
TITLE "Soll ich meine Liebe zeigen? [Don Louis]"
PERFORMER "Reznicek"
ISRC DEB200399143
INDEX 01 47:19:58
TRACK 24 AUDIO
TITLE "Ist es wohl auszuhalten? [Donna Diana]"
PERFORMER "Reznicek"
ISRC DEB200399144
INDEX 01 48:54:03
TRACK 25 AUDIO
TITLE "Laßt Fenisens Ruhm ertönen! [Don Gaston]"
PERFORMER "Reznicek"
ISRC DEB200399145
INDEX 01 49:32:17
TRACK 26 AUDIO
TITLE "Das Glück war heut mir hold [Louis/Perin/Gaston]"
PERFORMER "Reznicek"
ISRC DEB200399146
INDEX 01 52:03:06
TRACK 27 AUDIO
TITLE "Einleitung"
PERFORMER "Reznicek"
ISRC DEB200399147
INDEX 01 54:36:47
TRACK 28 AUDIO
TITLE "Ich will das Letzte noch an ihm versuchen [Donna Diana]"
PERFORMER "Reznicek"
ISRC DEB200399148
INDEX 01 55:25:09
TRACK 29 AUDIO
TITLE "Die Gründe, die so lange mich bekämpft [Donna Diana]"
PERFORMER "Reznicek"
ISRC DEB200399149
INDEX 01 55:57:47
TRACK 30 AUDIO
TITLE "Ha! [Don Cesar]"
PERFORMER "Reznicek"
ISRC DEB200399150
INDEX 01 57:05:21
TRACK 31 AUDIO
TITLE "Erstaunt, Prinzessin, das bin ich in der Tat! [Don Cesar]"
PERFORMER "Reznicek"
ISRC DEB200399151
INDEX 01 58:13:15
TRACK 32 AUDIO
TITLE "Ist dieses Feuer in der Brust die Liebe? [Donna Diana]"
PERFORMER "Reznicek"
ISRC DEB200399152
INDEX 01 60:22:42
TRACK 33 AUDIO
TITLE "Dreimal hoch, Prinz Karneval [Chor]"
PERFORMER "Reznicek"
ISRC DEB200399153
INDEX 01 66:37:51
TRACK 34 AUDIO
TITLE "Nichts in der Welt kann mich so erfreu'n [Don Diego]"
PERFORMER "Reznicek"
ISRC DEB200399154
INDEX 01 67:34:65
TRACK 35 AUDIO
TITLE "Ich kam an diesen Hof... [Don Cesar]"
PERFORMER "Reznicek"
ISRC DEB200399155
INDEX 01 69:07:26
TRACK 36 AUDIO
TITLE "Wohlan! Es sei! [Donna Diana]"
PERFORMER "Reznicek"
ISRC DEB200399156
INDEX 01 70:02:04
TRACK 37 AUDIO
TITLE "Heil dem Herrscherhaus (Schlußgesang)"
PERFORMER "Reznicek"
ISRC DEB200399157
INDEX 01 71:36:18
Доп. информация:
Donna Diana is a comic opera in three acts by Emil von Reznicek.
The libretto, written by the composer, is based on a German translation by Carl August West (Joseph Schreyvogel) titled Donna Diana oder Stolz und Liebe of the Spanish comedy El desdén con el desdén by Agustín Moreto y Cavana.
It was first performed on 16 December 1894 at the Neues Deutsches Theater in Prague.
The opera was successful in its day, with productions in several German theatres, but currently is rarely performed; its overture, however, has often been recorded and is sometimes heard in the concert hall.
Synopsis
Don Diego's palace at Barcelona at the time of Catalonia's independence
Act 1
Don Cesar, Prince of Urgel is resting in Diego's Hall after having won the first prize in a tournament. He muses sadly on Donna Diana's coldness, which all his victories fail to overcome. Perrin the clown takes pity on him, and gives him the advice to return coldness for coldness. Don Cesar promises to try this, though it seems hard to hide his deep love. Floretta, Donna Diana's foster-sister enters to announce the result of the tournament. She flirts with Perrin, to whom she is attached, but he turns a cold shoulder to her and she departs in a rage, though he is head over heels in love with her.
The next scene opens on a brilliant crowd, welcoming Count Sovereign of Barcelona and his daughter Donna Diana. The Count greets them graciously, and making sign to the three gallant Princes, Don Cesar of Urgel, Don Louis of Bearne and Gaston Count de Foie, they advance to receive their laurels on bended knee from the Princess, who crowns Cesar with a golden wreath, while the two other princes each win a silver prize. When the ceremony is over, Don Diego turns to his daughter, asking her to choose a husband and give an heir to the country, but Diana declares that love seems like poison to her, and marriage death. Gaston and Louis, nothing daunted, determine to try their luck, and while the father prays to God to soften his daughter's heart, Cesar's courage sinks ever lower. Donna Diana alone is cool and calm, inwardly resolved to keep her hand and heart free. She is envied by her two cousins Fenisa and Laura, who would gladly choose one of the gallant warriors. Perrin now advises the Princes to try their wit and gallantry on the Princess. Gaston begins to plead his cause, declaring, that he will not leave Barcelona without a bride and Louis follows his example; both are greatly admired and applauded by the assistants, but Diana finds their compliments ridiculous and their wit shallow. Cesar without a word retires to the background, and when asked by the Princess why he does not compete with his rivals, answers "Because I will not love, nor ever wish to be loved; I only woo you, to show you my regard." Greatly mortified, Diana resolves to punish his pride.
Act 2
A ball is going on in the Prince's gardens. Each of the ladies has a bunch of different coloured ribbons, and decides to get the man she loves for her own. Diana explains that each knight is to choose a colour, which entitles him to own the lady wearing that colour, as long as the masquerade lasts. Don Louis choosing green gets Donna Laura, Don Gaston wearing red is chosen by Fenisa; Perrin loudly asserting that, abhorring love he chooses the obscure colour black, wins Floretta, and Don Cesar choosing white, finds himself Donna Diana's champion. She takes his arm, and her beauty so arouses him, that forgetting himself, he confesses his love. Triumphant but mocking, she turns from him. In a bantering tone he asks her, if she really believed, that his entreaties were real?
Furious at being so easily duped she bids him leave her, and when alone resolves to have revenge. She calls Perrin to fetch her cousins, and charges him to let Cesar know that he can hear her sing in the gardens. Adorned with beautiful garments and surrounded by her attendants, she plays and sings sweetly as soon as she hears Don Cesar's steps. But he wanders in the grounds, admiring the plants, to all appearance deaf to beauty and song. Impatiently Diana signals to Floretta to let Cesar know, that he is in the presence of his Princess, at which, as awaking from a dream, Cesar bows to the Princess and excuses himself, leaving Diana in despair.
Act 3
Perrin gives vent to his feelings of love for Floretta, and about the Princess, whose state of mind he guesses. He is delighted to see his scheme successful, and sings a merry air, overheard by Diana. Offstage Don Louis is heard, serenading Donna Laura, while Don Gaston sings Fenisa's praise, so that poor Diana is surrounded by loving couples, who shamelessly carry on their courting before her very eyes, and then retire casting mischievous glances at their disgusted mistress.
Diana sees Cesar approaching and determines to try again to in order to humble his pride. She explains that she has resolved to yield to her father, and give her hand to Prince Louis. For a moment Cesar stands petrified, but Perrin whispers not to believe in women's wiles. So he controls himself once more, congratulates her, wishing the same courtesy from the Princess, because, as he calmly adds, he has become betrothed to Donna Laura.
That is the last straw for Diana. Her reserve vanishes when her secret love for the hero, which she has not even admitted to herself, is in danger. She breaks down, and is found by her father, who enters, loudly acknowledging Don Louis as his son-in-law, and sanctioning Don Cesar's choice of Donna Laura. But Cesar begs to receive his bride from Diana's own hands, at which the latter rising slowly, asks her father, if he is still willing to leave to her alone the selection of a husband. Don Diego granting this, she answers: "Then I choose him who conquered pride through pride." "And who may this happy mortal be?" says Cesar. "You ask? It's you, my tyrant," she replies, and sinks into her lover’s arms.



Показать сообщения:    

Текущее время: 06-Дек 19:01

Часовой пояс: UTC + 3


Вы не можете начинать темы
Вы не можете отвечать на сообщения
Вы не можете редактировать свои сообщения
Вы не можете удалять свои сообщения
Вы не можете голосовать в опросах
Вы не можете прикреплять файлы к сообщениям
Вы не можете скачивать файлы