(Classical, violin) Дмитрий Шостакович - Скрипичные концерты №№ 1 и 2 - Christian Tetzlaff, Helsinki Philharmonic Orchestra, John Storgards - 2014, FLAC (image+.cue) lossless


Статистика раздачи [Обновить пиров]
Размер:  274 MB   |    Зарегистрирован:  8 месяцев 22 дня   |    Скачан:  0 раз

Полного источника не было: Никогда

 
   
 
 
 

[Цитировать]

Дмитрий Шостакович - Скрипичные концерты №№ 1 и 2 - Christian Tetzlaff, Helsinki Philharmonic Orchestra, John Storgårds
Жанр: Classical, violin
Страна-производитель диска: Finland
Год издания диска: 2014
Издатель (лейбл): Ondine
Номер по каталогу: ODE 1239-2
Дата записи: 2013
Аудиокодек: FLAC
Тип рипа: image+.cue
Битрейт аудио: lossless
Продолжительность: 68:23
Источник: собственный рип
Наличие сканов в содержимом раздачи: да
Треклист:
Дмитрий Шостакович
[1]-[4] Концерт для скрипки с оркестром №1 ля минор, Op.77
[5]-[7] Концерт для скрипки с оркестром №2 до диез минор, Op.129
Исполнители:
Christian Tetzlaff violin
Helsinki Philharmonic Orchestra
John Storgårds
conductor

Лог создания рипа

Exact Audio Copy V1.0 beta 3 from 29. August 2011
EAC extraction logfile from 18. February 2015, 21:54
Christian Tetzlaff, Helsinki PO, John Storgårds / Shostakovich - Violin Concertos 1 & 2
Used drive : HL-DT-STDVDRAM GU70N Adapter: 0 ID: 0
Read mode : Secure
Utilize accurate stream : Yes
Defeat audio cache : Yes
Make use of C2 pointers : No
Read offset correction : 48
Overread into Lead-In and Lead-Out : No
Fill up missing offset samples with silence : Yes
Delete leading and trailing silent blocks : No
Null samples used in CRC calculations : Yes
Used interface : Native Win32 interface for Win NT & 2000
Used output format : User Defined Encoder
Selected bitrate : 128 kBit/s
Quality : High
Add ID3 tag : No
Command line compressor : C:\Program Files (x86)\Exact Audio Copy\Flac\flac.exe
Additional command line options : -V -8 -T "Date=%year%" -T "Genre=%genre%" %source%
TOC of the extracted CD
Track | Start | Length | Start sector | End sector
---------------------------------------------------------
1 | 0:00.00 | 11:01.22 | 0 | 49596
2 | 11:01.22 | 6:41.28 | 49597 | 79699
3 | 17:42.50 | 13:24.16 | 79700 | 140015
4 | 31:06.66 | 5:11.59 | 140016 | 163399
5 | 36:18.50 | 13:50.74 | 163400 | 225723
6 | 50:09.49 | 10:09.12 | 225724 | 271410
7 | 60:18.61 | 8:02.68 | 271411 | 307628
Range status and errors
Selected range
Filename C:\temp\Shostakovich - Violin Concertos 1 & 2 - Tetzlaff\Shostakovich - Violin Concertos 1 & 2.wav
Peak level 96.7 %
Extraction speed 2.2 X
Range quality 100.0 %
Test CRC 479CDAFE
Copy CRC 479CDAFE
Copy OK
No errors occurred
AccurateRip summary
Track 1 accurately ripped (confidence 3) [DAD9297C] (AR v2)
Track 2 accurately ripped (confidence 3) [CCBF36F9] (AR v2)
Track 3 accurately ripped (confidence 3) [BA59B18F] (AR v2)
Track 4 accurately ripped (confidence 3) [865C1821] (AR v2)
Track 5 accurately ripped (confidence 3) [C64312EB] (AR v2)
Track 6 accurately ripped (confidence 3) [42F23F8C] (AR v2)
Track 7 accurately ripped (confidence 3) [76D65D34] (AR v2)
All tracks accurately ripped
End of status report
==== Log checksum 3A8669CE7E46DA2A4B1D93A379E4CB08CEACDC234530A0A2398DDCDA56359D31 ====
[teatrix.ru].t20467.torrent 
Торрент: Зарегистрирован [ 2016-03-19 20:35 ] · F148C64DEA730FBA1ADC03D387C6A5E1F937C972

Скачать .torrent

Скачать

23 KB

Статус: проверено
Скачан: 0 раз
Размер: 274 MB
terms.php



Быстрый ответ

Имя:

      
Для отправки сообщений необходимо включить JavaScript
Показать сообщения:    

Текущее время: 11-Дек 03:21

Часовой пояс: UTC + 3


Вы можете начинать темы
Вы можете отвечать на сообщения
Вы не можете редактировать свои сообщения
Вы не можете удалять свои сообщения
Вы не можете голосовать в опросах
Вы не можете прикреплять файлы к сообщениям
Вы можете скачивать файлы