[TR24][OF] Richard Wagner - Symphony in C Major, Symphony in E Major, Huldigungsmarsch, Rienzi Overture, Kaisermarsch - Royal Scottish National Orchestra, Neeme Järvi (Jarvi) - 2012 (Classical)

DL-List and Torrent activity [Update пиров]
Size:  1.35 GB   |    Registered:  7 months 4 days   |    Completed:  0 times

Seeder not seen: Never



Richard Wagner
Two Symphonies · Huldigungsmarsch · Overture to 'Rienzi' · Kaisermarsch
Royal Scottish National Orchestra · Neeme Järvi
- Год издания: 2012
Жанр: Classical
Издатель (лейбл): Chandos
Продолжительность: 01:19:10
Наличие сканов: Sleeve, Digital Booklet
- -
Richard Wagner (1813-1883)
Symphony in C major, WWV 29
01. I. Sostenuto e maestoso (12:34)
02. II. Andante ma non troppo (9:42)
03. III. Allegro assai (5:39)
04. VI. Allegro molto e vivace (6:21)
Symphony in E Major, WWV 35 (arr. F. Mottl)
05. I. Allegro con spirito (13:29)
06. II. Adagio cantabile (5:47)
Huldigungsmarsch in E flat major, WWV 97 (arr. J. Raff)
07. Huldigungsmarsch (5:23)
Overture to 'Rienzi, der Letzte der Tribunen', WWV 49
08. Overture (11:24)
Kaisermarsch (Imperial March), WWV 104
09. Kaisermarsch (8:51)
-Royal Scottish National Orchestra
Neeme Järvi - conductor
Recorded: Royal Concert Hall, Glasgow; 19 August 2010 (Kaisermarsch)
& 21 and 22 March 2011 (other works)
-Контейнер: FLAC (*.flac)
Тип рипа: tracks
Разрядность: 24bit / 96kHz
Количество каналов: 2.0

О релизе
Early on in his career, Wagner composed two symphonies, both of which are included on this disc. The Symphony in C, which he wrote when he was just nineteen years old, is heavily influenced by Beethoven in its character, mood, and instrumentation. Written two years later, in 1834, the Symphony in E was left unfinished, Wagner completing only the first movement and thirty bars of the second. The completed version recorded here was prepared by the conductor Felix Mottl more than fifty years later at the request of Wagner’s widow, Cosima.
The two marches on this disc are the composer’s most obvious contributions to the genre of pomp and circumstance. The Huldigungsmarsch was written in 1864 for King Ludwig II of Bavaria. The march-like rhythms and brassy colours complement sections in which the strings provide a continuously flowing movement, all leading to a jubilant conclusion. The Kaisermarsch (1871) was a commission from the publishing firm Peters, who requested from Wagner a heroic morale booster at a time when the German countries were at war with France. Having initially composed it for military band, Wagner soon rewrote it for symphony orchestra, the version recorded on this disc.
The Overture to Rienzi, Wagner’s third completed opera (1838 – 40), incorporates the melody of Rienzi’s prayer at the start of Act V, which became the opera’s best-known aria, and ends with a dazzling military march. The Prelude to Act III of Lohengrin (1845 – 47) has the energy, fervour, and brassy sounds of the Overture to Der fliegende Holländer, and displays Wagner’s lasting fascination with creating drama by symphonic means.

ОтчётыДинамический диапазон

foobar2000 1.2.2 / Dynamic Range Meter 1.1.1
log date: 2015-02-25 23:20:20
Analyzed: Royal Scottish National Orchestra, Neeme Järvi / Wagner. Two Symphonies, Huldigungsmarsch, Overtuer to Rienzi, Kaisermarsch
DR Peak RMS Duration Track
DR15 -2.82 dB -22.32 dB 12:34 ?-Symphony, WWV 29 - I. Sostenuto e maestoso
DR14 -6.02 dB -26.12 dB 9:42 ?-Symphony, WWV 29 - II. Andante ma non troppo
DR14 -4.69 dB -23.73 dB 5:39 ?-Symphony, WWV 29 - III. Allegro assai
DR15 -2.07 dB -22.72 dB 6:21 ?-Symphony, WWV 29 - VI. Allegro molto e vivace
DR15 -1.28 dB -23.36 dB 13:29 ?-Symphony, WWV 35 - I. Allegro con spirito
DR16 -11.03 dB -34.87 dB 5:47 ?-Symphony, WWV 35 - II. Adagio cantabile
DR14 -0.40 dB -17.96 dB 5:23 ?-Huldigungsmarsch, WWV 97
DR14 -0.40 dB -18.58 dB 11:24 ?-Rienzi: Overture, WWV 49
DR14 -0.40 dB -18.58 dB 8:51 ?-Kaisermarsch, WWV 104
Number of tracks: 9
Official DR value: DR14
Samplerate: 96000 Hz
Channels: 2
Bits per sample: 24
Bitrate: 2667 kbps
Codec: FLAC

Скриншот спектра частот

Доп. информация

При скачивании, если необходимо, переименуйте папку, в которой будет находиться альбомБольшая просьба к скачавшим поддерживать раздачу! Помогайте другим, ведь вам тоже может понадобиться помощь!Не забываем говорить "Спасибо"!Комментарии приветствуются!
Torrent: Registered [ 2016-03-19 20:35 ] · C4E05628F6CEE5A0ED31D25FB0A11220E024253A

Download .torrent


15 KB

Status: checked
Completed: 0 times
Size: 1.35 GB

Quick Reply


Heads necessary to send messages to enable JavaScript
Display posts:    

Current time is: 24-Oct 11:45

All times are UTC + 3

You can post new topics in this forum
You can reply to topics in this forum
You cannot edit your posts in this forum
You cannot delete your posts in this forum
You cannot vote in polls in this forum
You cannot attach files in this forum
You can download files in this forum