Носороги / Die Nashörner (Ян Леница / Jan Lenica) [1964, Германия, авторская анимация, экранизация, TeleSynch]


 

[Цитировать]

Носороги / Die Nashörner
Страна: Германия
Жанр: авторская анимация, экранизация
Год выпуска: 1964
Продолжительность: 00:10:45
Перевод: не требуется
Cубтитры: нет
Режиссёр: Ян Леница / Jan Lenica
Описание: Всё городское население охвачено непонятной эпидемией: люди постепенно превращаются в носорогов...
По одноимённой пьесе Эжена Ионеско. В своей интерпретации Ян Леница обошёлся вообще без диалогов.
Доп. информация: Текст пьесы здесь - https://78.24.219.58:1500/viewtopic.php?t=2672463
Качество видео: TeleSynch
Формат видео: AVI
Видео: 800 kbps, 592х448 (4:3), 25.000 fps, MPEG-4 Visual (XviD)
Аудио: 128 kbps, 44.1 kHz, 2 channels, MPEG Audio (MP3)

MediaInfo

General
Complete name : Die Nashörner(1964).avi
Format : AVI
Format/Info : Audio Video Interleave
File size : 72.2 MiB
Duration : 10mn 45s
Overall bit rate : 938 Kbps
Writing application : VirtualDubModRus 1.5.10.2 (build 2542/release)
Writing library : VirtualDubMod build 2542/release
Video
ID : 0
Format : MPEG-4 Visual
Format profile : Advanced Simple@L5
Format settings, BVOP : 2
Format settings, QPel : No
Format settings, GMC : No warppoints
Format settings, Matrix : Custom
Codec ID : XVID
Codec ID/Hint : XviD
Duration : 10mn 45s
Bit rate : 800 Kbps
Width : 592 pixels
Height : 448 pixels
Display aspect ratio : 4:3
Frame rate : 25.000 fps
Color space : YUV
Chroma subsampling : 4:2:0
Bit depth : 8 bits
Scan type : Progressive
Compression mode : Lossy
Bits/(Pixel*Frame) : 0.121
Stream size : 61.6 MiB (85%)
Writing library : XviD 65
Audio
ID : 1
Format : MPEG Audio
Format version : Version 1
Format profile : Layer 3
Mode : Joint stereo
Mode extension : MS Stereo
Codec ID : 55
Codec ID/Hint : MP3
Duration : 10mn 45s
Bit rate mode : Constant
Bit rate : 128 Kbps
Channel(s) : 2 channels
Sampling rate : 44.1 KHz
Compression mode : Lossy
Stream size : 9.84 MiB (14%)
Alignment : Split accross interleaves
Interleave, duration : 40 ms (1.00 video frame)
Interleave, preload duration : 500 ms
Writing library : LAME3.99.5

Скриншот c названием фильма

Скриншоты




Показать сообщения:    

Текущее время: 07-Дек 23:19

Часовой пояс: UTC + 3


Вы не можете начинать темы
Вы не можете отвечать на сообщения
Вы не можете редактировать свои сообщения
Вы не можете удалять свои сообщения
Вы не можете голосовать в опросах
Вы не можете прикреплять файлы к сообщениям
Вы не можете скачивать файлы