[TR24][OF] Richard Wagner - Tristan und Isolde, Die Feen: Overture, Das Liebesverbot: Overture - Royal Scottish National Orchestra, Neeme Järvi (Jarvi) - 2011 (Classical)


Статистика раздачи [Обновить пиров]
Размер:  1.37 GB   |    Зарегистрирован:  8 месяцев 15 дней   |    Скачан:  1 раз

Полного источника не было: 3 месяца 13 дней

 
   
 
 
 

[Цитировать]

Richard Wagner
Tristan und Isolde · Overtures: Die Feen, Das Liebesverbot
Royal Scottish National Orchestra · Neeme Järvi
- Год издания: 2011
Жанр: Classical
Издатель (лейбл): Chandos
Продолжительность: 01:10:53
Наличие сканов: Sleeve, Digital Booklet
- -
Richard Wagner (1813-1883)
Das Liebesverbot
01. Overture (8:22)
Die Feen
02. Overture (10:56)
Tristan und Isolde, an orchestral passion
Arranged 1994 by Henk de Vlieger (b. 1953)
03. I. Einleitung (6:41)
04. II. Isoldes Liebesverlangen (8:13)
05. III. Nachtgesang (15:43)
06. IV. Vorspiel und Reigen (5:31)
07. V. Tristans Vision (4:00)
08. VI. Das Wiedersehen (5:55)
09. VII. Isoldes Liebestod (5:32)
-Royal Scottish National Orchestra
Neeme Järvi - conductor
Recorded: Royal Concert Hall, Glasgow; 16 and 17 February 2010
-Контейнер: FLAC (*.flac)
Тип рипа: tracks
Разрядность: 24bit / 96kHz
Количество каналов: 2.0

О релизе
Neeme Järvi is back conducting the Royal Scottish National Orchestra in the third of four albums featuring Henk de Vlieger’s bold arrangements of operas by Wagner. Of the first album (CHSA5060), Classic FM wrote: ‘Dutch composer Henk de Vlieger builds a penetrating symphonic poem that reflects the dramatic depths of The Ring.’
In Volume 3, De Vlieger turns to Wagner’s tragic-romantic opera Tristan und Isolde, which is here treated symphonically. The key themes of anticipation, longing, rapture, separation, hope, death, and transfiguration are expressed solely through orchestral forces. A particularly striking feature of the lovers’ duet, a movement entitled ‘Nachtgesang’, is the conspicuous presence of the violin and the clarinet, which pick out the sung parts of the two lovers. The movement ends on an unresolved chord followed by a compelling caesura, which symbolises the painful realisation that it will never be possible for them to fulfil their great love.
This disc also includes the overture to Wagner’s Die Feen. This was the composer’s first great romantic, although less well-known, opera. The overall style of the work, based on La donna serpente by Carlo Gozzi, owes its essentials to Beethoven, Marschner, and Weber – something that Wagner himself never hid in the least. However, the opera also displays clearly audible foreshadowings of the composer’s later works, Tannhäuser and Lohengrin, in particular.
Wagner based Das Liebesverbot on Shakespeare’s Measure for Measure, and included on this disc is the overture to the opera. It is perhaps the most Mediterranean-sounding of the composer’s operas, something especially apparent in the brimming vitality of the overture in which the tone is set straight away by the sparkling contributions of castanets, triangle, and tambourine. Described as a ‘große komische Oper’, it was composed in 1834, and Wagner conducted the premiere at Magdeburg in 1836. The first performance poorly attended and involving a lead singer who forgot the words and had to improvise, the opera was a resounding flop and its second performance had to be cancelled after a fist-fight broke out backstage between the prima donna’s husband and a leading tenor before the curtain had even risen. The opera was never performed again in Wagner's lifetime.

ОтчётыДинамический диапазон

foobar2000 1.2.2 / Dynamic Range Meter 1.1.1
log date: 2015-02-26 13:00:07
--------------------------------------------------------------------------------
Analyzed: Royal Scottish National Orchestra, Neeme Järvi / Wagner: Tristan und Isolde (an Orchestral Passion), Overtures
--------------------------------------------------------------------------------
DR Peak RMS Duration Track
--------------------------------------------------------------------------------
DR13 0.00 dB -17.22 dB 8:22 ?-Das Liebesverbot: Overture
DR15 -0.15 dB -20.43 dB 10:56 ?-Die Feen: Overture
DR14 -1.38 dB -23.36 dB 6:41 ?-Tristan und Isolde: I. Einleitung
DR15 -0.15 dB -23.20 dB 8:13 ?-Tristan und Isolde: II. Isoldes Liebesverlangen
DR17 0.00 dB -24.07 dB 15:43 ?-Tristan und Isolde: III. Nachtgesang
DR14 -9.48 dB -30.93 dB 5:31 ?-Tristan und Isolde: IV. Vorspiel und Reigen
DR13 -12.85 dB -31.38 dB 4:00 ?-Tristan und Isolde: V. Tristans Vision
DR14 -0.80 dB -20.42 dB 5:55 ?-Tristan und Isolde: VI. Das Wiedersehen
DR15 -2.41 dB -24.09 dB 5:32 ?-Tristan und Isolde: VII. Isoldes Liebestod
--------------------------------------------------------------------------------
Number of tracks: 9
Official DR value: DR14
Samplerate: 96000 Hz
Channels: 2
Bits per sample: 24
Bitrate: 2725 kbps
Codec: FLAC
================================================================================

Скриншот спектра частот

Доп. информация

При скачивании, если необходимо, переименуйте папку, в которой будет находиться альбомБольшая просьба к скачавшим поддерживать раздачу! Помогайте другим, ведь вам тоже может понадобиться помощь!Не забываем говорить "Спасибо"!Комментарии приветствуются!
[teatrix.ru].t20471.torrent 
Торрент: Зарегистрирован [ 2016-03-19 20:35 ] · 96D6CFEA4AC4ABBEC6147C2ADDEB4C4DEDC2E1EB

Скачать .torrent

Скачать

15 KB

Статус: проверено
Скачан: 1 раз
Размер: 1.37 GB
terms.php



Быстрый ответ

Имя:

      
Для отправки сообщений необходимо включить JavaScript
Показать сообщения:    

Текущее время: 04-Дек 15:17

Часовой пояс: UTC + 3


Вы можете начинать темы
Вы можете отвечать на сообщения
Вы не можете редактировать свои сообщения
Вы не можете удалять свои сообщения
Вы не можете голосовать в опросах
Вы не можете прикреплять файлы к сообщениям
Вы можете скачивать файлы