(Opera) Gluck - Orphee et Eurydice (Berlioz version) / Глюк - Орфей и Эвридика (Anne Sofie von Otter, Barbara Hendricks / Monteverdi Choir, Orchestre de l'Opera de Lyon, John Eliot Gardiner) - 2002, FLAC (image+.cue) lossless


 

[Цитировать]

Gluck - Orphee et Eurydice

Жанр: Opera
Страна-производитель диска: Made in Germany
Год издания диска: 2002
Издатель (лейбл): EMI MUSIC FRANCE
Номер по каталогу: 7 2 4 3 5 56885 2 1
Дата записи: 1989
Аудиокодек: FLAC
Тип рипа: image+.cue
Битрейт аудио: lossless
Продолжительность: 41'45 + 46'51
Источник: релизер
сайт-источник/ник/другое: canariasesmusica.blogspot.ru
Наличие сканов в содержимом раздачи: да
Треклист:

скрытый текст

Disc: 1

скрытый текст

1. Ov - Orch De L'Opr De Lyon/John Eliot Gardiner
2. Act I, Scene 1. Choeur: Ah! Dans Ce Bois Tranquille - Monteverdi Chor
3. Act I, Scene 1. Recit: Vos Plaintes, Vos Regrets - Anne Sofie Von Otter
4. Act I, Scene 1: Pantomime - Orch De L'Opr De Lyon/John Eliot Gardiner
5. Act I, Scene 1. Choeur: Ah! Dans Ce Bois Lugubre Et Sombre - Monteverdi Chor
6. Act I, Scene 1. Recit: Eloignez-Vous - Anne Sophie Von Otter
7. Act I, Scene 1: Ritournelle - Orch De L'Opr De Lyon/John Eliot Gardiner
8. Act I, Scene 2. Recit: Eurydice, Eurydice! Ombre Chere - Anne Sophie Von Otter
9. Act I, Scene 2. Air: Objet De Mon Amour - Orch De L'Opr De Lyon/John Eliot Gardiner
10. Act I, Scene 2. Recit: Eurydice, Eurydice, De Ce Doux Nom - Anne Sophie Von Otter
11. Act I, Scene 2. Air: Accable De Regrets - Orch De L'Opr De Lyon/John Eliot Gardiner
12. Act I, Scene 2. Recit: Divinites De L'Acheron - Anne Sophie Von Otter
13. Act I, Scene 3. Recit: L'Amour Vient Au Secours - Brigitte Fournier
14. Act I, Scene 3. Air: Si Les Doux Accords De Ma Lyre - Brigitte Fournier
15. Act I, Scene 3. Recit: Dieux! Je La Reverrais! - Anne Sophie Von Otter/Brigitte Fournier
16. Act I, Scene 3. Air: Soumis Au Silence - Brigitte Fournier
17. Act I, Scene 4. Recit: Qu'entend-je? Qu'a-t-il Dit? - Anne Sophie Von Otter
18. Act I, Scene 4. Air: Amour, Viens Rendre A Mon Ame - Anne Sophie Von Otter
19. Act II: Danse Des Furies - Orch De L'Opr De Lyon/John Eliot Gardiner
20. Act II: Choeur Des Furies: Quel Est L'audacieux? - Monteverdi Chor
21. Act II: Danse Des Furies - Orch De L'Opr De Lyon/John Eliot Gardiner
22. Act II: Choeur Des Furies (Reprise) - Monteverdi Chor
23. Act II: Air Avec Choeur: Laissez-vous Toucher Par Mes Pleurs - Monteverdi Chor
24. Act II: Air: La Tendresse Qui Me Presse - Anne Sophie Von Otter/Monteverdi Chor
25. Act II: Danse Des Furies - Orch De L'Opr De Lyon/John Eliot Gardiner O
Disc: 2

скрытый текст

1. Act II, Scene 1: Ballet Des Ombres Heureuses - Orch De L'Opr De Lyon/John Eliot Gardiner
2. Act II, Scene 1: Ballet - Orch De L'Opr De Lyon/John Eliot Gardiner
3. Act II, Scene 1. Air Avec Choeur: Cet Asile Aimable Et Tranquille - Barbara Hendricks/Monteverdi Chor
4. Act II, Scene 2. Air: Quel Nouveau Ciel Pour Ces Lieux - Anne Sophie Von Otter
5. Act II, Scene 3. Choeur: Viens Dans Ce Sejour Paisible - Monteverdi Chor
6. Act II, Scene 3: Ballet - Orch De L'Opr De Lyon/John Eliot Gardiner
7. Act II, Scene 3. Recit Avec Choeur: O Vous, Ombres Que J'implore - Anne Sophie Von Otter
8. Act II, Scene 4. Choeur: Pres Du Tendre Objet - Monteverdi Chor
9. Act III, Scene 1. Recit; Viens, Viens, Suis-moi - Barbara Hendricks/Anne Sophie Von Otter
10. Act III, Scene 1. Duo: Viens, Suis Un Epoux Qui T'adore - Barbara Hendricks/Anne Sophie Von Otter
11. Act III, Scene 1. Recit: Mais D'ou Vient Qu'il Persiste A Garder Le Silence - Barbara Hendricks
12. Act III, Scene 1. Air: Fortune Ennemie, Quelle Barbarie - Barbara Hendricks
13. Act III, Scene 1. Recit: Quelle Epreuve Cruelle - Barbara Hendricks/Anne Sophie Von Otter
14. Act III, Scene 1. Air: J'ai Perdu Mon Eurydice - Anne Sophie Von Otter
15. Act III, Scene 1. Recit: Ah! Puisse Ma Douleur - Anne Sophie Von Otter
16. Act III, Scene 2. Recit: Arrete, Orphee! - Brigitte Fournier/Anne Sophie Von Otter
17. Act III, Scene 3. Trio: Tendre Amour! - Brigitte Fournier/Anne Sophie Von Otter/Barbara Hendricks
18. Act III, Scene 3. Choeur Final - Hymne De L'amour: Le Dieu De Paphos - Monteverdi Chor

скрытый текст

Disk: 1

скрытый текст

1. Ouvertüre
2. Chor: Ah! dans ce bois tranquille (1. Akt, 1. Szene)
3. Rezitativ: Vos plaintes, vos regrets
4. Pantomime
5. Chor: Ah! dans ce bois lugubre et sombre
6. Rezitativ: Eloignez- vous
7. Ritournelle
8. Rezitativ: Eurydice, Eurydice! Ombre chere (1. Akt, 2. Szene)
9. Arie: Objet de mon amour
10. Rezitativ: Eurydice, Eurydice, de ce doux nom
11. Accable de regrets (Arie)
12. Divinites de l'Acheron (Rezitativ)
13. Rezitativ: L'Amour vient au secours (1. Akt, 3. Szene)
14. Arie :Si les doux accords de ma lyre
15. Dieux! je la reverrais! (Rezitativ)
16. Arie: Soumis au silence
17. Rezitativ: Qu'entends- je? Qu'a- t- il dit? (1. Akt, 4. Szene)
18. Amour, viens rendre a mon ame (Arie)
19. Danse des Furies (2. Akt, 1er tableau)
20. Chor der Furien: Quel est l'audacieux?
21. Danse des Furies
22. Chor der Furien (Reprise)
23. Arie mit Chor: Laissez- vous toucher par mes pleurs
24. La tendresse qui me presse (Arie)
25. Danse des Furies
Disk: 2

скрытый текст

1. Ballet des ombres heureuses (2. Akt, 2e tableau, 1. Szene)
2. Ballet
3. Arie mit Chor: Cet asile aimable et tranquille
4. Arie: Quel nouveau ciel pour ces lieux (2. Akt, 2e tableau, 2. Szene)
5. Chor: Viens dans ce sejour paisible (2. Akt, 2e tableau, 3. Szene)
6. Ballet
7. Rezitativ mit Chor: O vous, ombres que j'implore
8. Chor: Pres du tendre objet (2. Akt, 2e tableau, 4. Szene)
9. Rezitativ: Viens, viens, suis- moi (3. Akt, 1. Szene)
10. Duo: Viens, suis un epoux qui t'adore
11. Rezitativ: Mais d'ou vient qu'il persiste a garder le silence
12. Fortune ennemie, quelle barbarie (Arie)
13. Rezitativ: Quelle epreuve cruelle
14. J'ai perdu mon Eurydice (Arie)
15. Ah! Puisse ma douleur (Rezitativ)
16. Arrete, Orphee! (Rezitativ) (3. Akt, 2. Szene)
17. Trio: Tendre amour!
18. Schlußchor- Hymne de l'Amour: Le dieu de Paphos
Исполнители:

скрытый текст

Christoph Willibald Gluck
Orphée & Eurydice (Berlioz version)
Anne Sofie von Otter - Orphee
Barbara Hendricks - Eurydice
Brigitte Fournier - Amour
Monteverdi Choir
Orchestre de l'Opéra de Lyon
John Eliot Gardiner, director
Audio CD (November 5, 2002)
Лог создания рипа
CD1

скрытый текст

X Lossless Decoder version 20141129 (148.1)
XLD extraction logfile from 2015-02-26 13:53:00 +0000
Anne Sofie von Otter; Barbara Hendricks; Brigitte Fournier / Gluck - Orphée et Eurydice (Disk 1)
Used drive : MATSHITA DVD-R UJ-8A8 (revision HB14)
Media type : Pressed CD
Ripper mode : XLD Secure Ripper
Disable audio cache : OK for the drive with a cache less than 1375KiB
Make use of C2 pointers : NO
Read offset correction : 102
Max retry count : 20
Gap status : Analyzed, Appended
TOC of the extracted CD
Track | Start | Length | Start sector | End sector
---------------------------------------------------------
1 | 00:00:32 | 02:55:10 | 32 | 13166
2 | 02:55:42 | 03:04:58 | 13167 | 27024
3 | 06:00:25 | 00:27:05 | 27025 | 29054
4 | 06:27:30 | 01:38:22 | 29055 | 36426
5 | 08:05:52 | 01:24:35 | 36427 | 42761
6 | 09:30:12 | 00:16:00 | 42762 | 43961
7 | 09:46:12 | 00:57:70 | 43962 | 48306
8 | 10:44:07 | 01:19:73 | 48307 | 54304
9 | 12:04:05 | 01:16:42 | 54305 | 60046
10 | 13:20:47 | 01:09:65 | 60047 | 65286
11 | 14:30:37 | 01:13:55 | 65287 | 70816
12 | 15:44:17 | 01:01:23 | 70817 | 75414
13 | 16:45:40 | 00:21:62 | 75415 | 77051
14 | 17:07:27 | 01:11:20 | 77052 | 82396
15 | 18:18:47 | 00:54:05 | 82397 | 86451
16 | 19:12:52 | 01:44:65 | 86452 | 94316
17 | 20:57:42 | 01:37:20 | 94317 | 101611
18 | 22:34:62 | 05:17:33 | 101612 | 125419
19 | 27:52:20 | 01:19:70 | 125420 | 131414
20 | 29:12:15 | 00:26:67 | 131415 | 133431
21 | 29:39:07 | 00:28:15 | 133432 | 135546
22 | 30:07:22 | 01:00:10 | 135547 | 140056
23 | 31:07:32 | 04:54:23 | 140057 | 162129
24 | 36:01:55 | 01:41:25 | 162130 | 169729
25 | 37:43:05 | 04:02:37 | 169730 | 187916
List of alternate offset correction values
# | Absolute | Relative | Confidence
------------------------------------------
1 | -17 | -119 | 6
AccurateRip Summary (DiscID: 00217aa6-02558e0e-6e09c919)
Track 01 : OK (v1+v2, confidence 19/25)
Track 02 : OK (v1+v2, confidence 20/26)
Track 03 : OK (v1+v2, confidence 19/25)
Track 04 : OK (v1+v2, confidence 19/25)
Track 05 : OK (v1+v2, confidence 19/25)
Track 06 : OK (v1+v2, confidence 19/25)
Track 07 : OK (v1+v2, confidence 19/25)
Track 08 : OK (v1+v2, confidence 19/25)
Track 09 : OK (v1+v2, confidence 19/25)
Track 10 : OK (v1+v2, confidence 19/25)
Track 11 : OK (v1+v2, confidence 19/25)
Track 12 : OK (v1+v2, confidence 19/25)
Track 13 : OK (v1+v2, confidence 19/25)
Track 14 : OK (v1+v2, confidence 19/25)
Track 15 : OK (v1+v2, confidence 19/25)
Track 16 : OK (v1+v2, confidence 19/25)
Track 17 : OK (v1+v2, confidence 19/25)
Track 18 : OK (v1+v2, confidence 19/25)
Track 19 : OK (v1+v2, confidence 19/24)
Track 20 : OK (v1+v2, confidence 19/25)
Track 21 : OK (v1+v2, confidence 19/25)
Track 22 : OK (v1+v2, confidence 19/25)
Track 23 : OK (v1+v2, confidence 19/25)
Track 24 : OK (v1+v2, confidence 19/25)
Track 25 : OK (v1+v2, confidence 18/24)
->All tracks accurately ripped.
All Tracks
Filename : /Users/Juan/Downloads/ChWGluckOrph&EuryJEG/Gluck - Orphée et Eurydice (Disk 1).flac
CRC32 hash : 1F655BF3
CRC32 hash (skip zero) : 9E9E5623
Statistics
Read error : 0
Jitter error (maybe fixed) : 0
Retry sector count : 0
Damaged sector count : 0
Track 01
Pre-gap length : 00:02:32
CRC32 hash : 9988A638
CRC32 hash (skip zero) : CE4B6293
AccurateRip v1 signature : DC819B64
AccurateRip v2 signature : 9EFEDC52
->Accurately ripped (v1+v2, confidence 6+13/25)
Statistics
Read error : 0
Jitter error (maybe fixed) : 0
Retry sector count : 0
Damaged sector count : 0
Track 02
Pre-gap length : 00:00:52
CRC32 hash : BDF0B87A
CRC32 hash (skip zero) : 426147C2
AccurateRip v1 signature : 209057EB
AccurateRip v2 signature : 0546C8B1
->Accurately ripped (v1+v2, confidence 7+13/26)
Statistics
Read error : 0
Jitter error (maybe fixed) : 0
Retry sector count : 0
Damaged sector count : 0
Track 03
CRC32 hash : 0ACEC53A
CRC32 hash (skip zero) : 4CC7845E
AccurateRip v1 signature : 25BD3C9C
AccurateRip v2 signature : C5501A9F
->Accurately ripped (v1+v2, confidence 6+13/25)
Statistics
Read error : 0
Jitter error (maybe fixed) : 0
Retry sector count : 0
Damaged sector count : 0
Track 04
CRC32 hash : 5764B6F1
CRC32 hash (skip zero) : D47A2F44
AccurateRip v1 signature : 5BC948F1
AccurateRip v2 signature : 5551E207
->Accurately ripped (v1+v2, confidence 6+13/25)
Statistics
Read error : 0
Jitter error (maybe fixed) : 0
Retry sector count : 0
Damaged sector count : 0
Track 05
CRC32 hash : E94DC41E
CRC32 hash (skip zero) : 80D32E59
AccurateRip v1 signature : D0D710C3
AccurateRip v2 signature : 3D8BA878
->Accurately ripped (v1+v2, confidence 6+13/25)
Statistics
Read error : 0
Jitter error (maybe fixed) : 0
Retry sector count : 0
Damaged sector count : 0
Track 06
CRC32 hash : 6B399988
CRC32 hash (skip zero) : CB832C9F
AccurateRip v1 signature : 2F2C71D8
AccurateRip v2 signature : 3E815272
->Accurately ripped (v1+v2, confidence 6+13/25)
Statistics
Read error : 0
Jitter error (maybe fixed) : 0
Retry sector count : 0
Damaged sector count : 0
Track 07
CRC32 hash : F4AEFCE2
CRC32 hash (skip zero) : B7C317C8
AccurateRip v1 signature : CD363592
AccurateRip v2 signature : E636B2FF
->Accurately ripped (v1+v2, confidence 6+13/25)
Statistics
Read error : 0
Jitter error (maybe fixed) : 0
Retry sector count : 0
Damaged sector count : 0
Track 08
CRC32 hash : 58357919
CRC32 hash (skip zero) : CE1326D8
AccurateRip v1 signature : 79EEE6B5
AccurateRip v2 signature : 9FA9AD13
->Accurately ripped (v1+v2, confidence 6+13/25)
Statistics
Read error : 0
Jitter error (maybe fixed) : 0
Retry sector count : 0
Damaged sector count : 0
Track 09
CRC32 hash : 310CC522
CRC32 hash (skip zero) : 63E8CB89
AccurateRip v1 signature : FA070AE5
AccurateRip v2 signature : 81BC17DC
->Accurately ripped (v1+v2, confidence 6+13/25)
Statistics
Read error : 0
Jitter error (maybe fixed) : 0
Retry sector count : 0
Damaged sector count : 0
Track 10
CRC32 hash : B522BF1D
CRC32 hash (skip zero) : 59921FFC
AccurateRip v1 signature : 3E95B040
AccurateRip v2 signature : 71D74E9F
->Accurately ripped (v1+v2, confidence 6+13/25)
Statistics
Read error : 0
Jitter error (maybe fixed) : 0
Retry sector count : 0
Damaged sector count : 0
Track 11
CRC32 hash : B3928054
CRC32 hash (skip zero) : BED89E93
AccurateRip v1 signature : C186D25B
AccurateRip v2 signature : D3E41248
->Accurately ripped (v1+v2, confidence 6+13/25)
Statistics
Read error : 0
Jitter error (maybe fixed) : 0
Retry sector count : 0
Damaged sector count : 0
Track 12
CRC32 hash : C7A328A7
CRC32 hash (skip zero) : FA4F5B8D
AccurateRip v1 signature : 6C977D8D
AccurateRip v2 signature : FAD29F13
->Accurately ripped (v1+v2, confidence 6+13/25)
Statistics
Read error : 0
Jitter error (maybe fixed) : 0
Retry sector count : 0
Damaged sector count : 0
Track 13
CRC32 hash : E6D43C0C
CRC32 hash (skip zero) : D1B4F31C
AccurateRip v1 signature : 52896CFB
AccurateRip v2 signature : 48A629B1
->Accurately ripped (v1+v2, confidence 6+13/25)
Statistics
Read error : 0
Jitter error (maybe fixed) : 0
Retry sector count : 0
Damaged sector count : 0
Track 14
CRC32 hash : A0F21567
CRC32 hash (skip zero) : 3547F078
AccurateRip v1 signature : DEB49F13
AccurateRip v2 signature : 499B5C5F
->Accurately ripped (v1+v2, confidence 6+13/25)
Statistics
Read error : 0
Jitter error (maybe fixed) : 0
Retry sector count : 0
Damaged sector count : 0
Track 15
CRC32 hash : E38E4132
CRC32 hash (skip zero) : 000311C6
AccurateRip v1 signature : 45A646D6
AccurateRip v2 signature : 8940A28D
->Accurately ripped (v1+v2, confidence 6+13/25)
Statistics
Read error : 0
Jitter error (maybe fixed) : 0
Retry sector count : 0
Damaged sector count : 0
Track 16
CRC32 hash : 5F36A80B
CRC32 hash (skip zero) : 5888A274
AccurateRip v1 signature : E1D64415
AccurateRip v2 signature : 81B5C5EC
->Accurately ripped (v1+v2, confidence 6+13/25)
Statistics
Read error : 0
Jitter error (maybe fixed) : 0
Retry sector count : 0
Damaged sector count : 0
Track 17
CRC32 hash : D8DBFD06
CRC32 hash (skip zero) : 04495BF6
AccurateRip v1 signature : 53F0B664
AccurateRip v2 signature : 2042464A
->Accurately ripped (v1+v2, confidence 6+13/25)
Statistics
Read error : 0
Jitter error (maybe fixed) : 0
Retry sector count : 0
Damaged sector count : 0
Track 18
CRC32 hash : 437A93B7
CRC32 hash (skip zero) : 38243F16
AccurateRip v1 signature : 66773DED
AccurateRip v2 signature : 9DEA8D26
->Accurately ripped (v1+v2, confidence 6+13/25)
Statistics
Read error : 0
Jitter error (maybe fixed) : 0
Retry sector count : 0
Damaged sector count : 0
Track 19
Pre-gap length : 00:03:63
CRC32 hash : 6D9125AB
CRC32 hash (skip zero) : 1F4B6281
AccurateRip v1 signature : 8D713337
AccurateRip v2 signature : 8A6D6D25
->Accurately ripped (v1+v2, confidence 6+13/24)
Statistics
Read error : 0
Jitter error (maybe fixed) : 0
Retry sector count : 0
Damaged sector count : 0
Track 20
CRC32 hash : C9CA496C
CRC32 hash (skip zero) : D35804C9
AccurateRip v1 signature : DAC84F2D
AccurateRip v2 signature : 00660321
->Accurately ripped (v1+v2, confidence 6+13/25)
Statistics
Read error : 0
Jitter error (maybe fixed) : 0
Retry sector count : 0
Damaged sector count : 0
Track 21
CRC32 hash : 819F3153
CRC32 hash (skip zero) : 2121193A
AccurateRip v1 signature : EA60A3B7
AccurateRip v2 signature : 81870570
->Accurately ripped (v1+v2, confidence 6+13/25)
Statistics
Read error : 0
Jitter error (maybe fixed) : 0
Retry sector count : 0
Damaged sector count : 0
Track 22
CRC32 hash : EDE9BF99
CRC32 hash (skip zero) : 3B126F53
AccurateRip v1 signature : 6FEAB5DF
AccurateRip v2 signature : B45882A9
->Accurately ripped (v1+v2, confidence 6+13/25)
Statistics
Read error : 0
Jitter error (maybe fixed) : 0
Retry sector count : 0
Damaged sector count : 0
Track 23
CRC32 hash : 21879AAC
CRC32 hash (skip zero) : B1272AC2
AccurateRip v1 signature : C7BE0505
AccurateRip v2 signature : 47AB9926
->Accurately ripped (v1+v2, confidence 6+13/25)
Statistics
Read error : 0
Jitter error (maybe fixed) : 0
Retry sector count : 0
Damaged sector count : 0
Track 24
CRC32 hash : 969607D4
CRC32 hash (skip zero) : B63B7C51
AccurateRip v1 signature : EF409769
AccurateRip v2 signature : 47BDBAE0
->Accurately ripped (v1+v2, confidence 6+13/25)
Statistics
Read error : 0
Jitter error (maybe fixed) : 0
Retry sector count : 0
Damaged sector count : 0
Track 25
CRC32 hash : 96C45C9A
CRC32 hash (skip zero) : A1CC5EA7
AccurateRip v1 signature : F8C99CF8
AccurateRip v2 signature : 8E23E905
->Accurately ripped (v1+v2, confidence 5+13/24)
Statistics
Read error : 0
Jitter error (maybe fixed) : 0
Retry sector count : 0
Damaged sector count : 0
No errors occurred
End of status report
CD2

скрытый текст

X Lossless Decoder version 20141129 (148.1)
XLD extraction logfile from 2015-02-26 14:00:50 +0000
Anne Sofie von Otter, Barbara Hendricks & Brigitte Fournier / Gluck - Orphée et Eurydice (Disk 2)
Used drive : MATSHITA DVD-R UJ-8A8 (revision HB14)
Media type : Pressed CD
Ripper mode : XLD Secure Ripper
Disable audio cache : OK for the drive with a cache less than 1375KiB
Make use of C2 pointers : NO
Read offset correction : 102
Max retry count : 20
Gap status : Analyzed, Appended
TOC of the extracted CD
Track | Start | Length | Start sector | End sector
---------------------------------------------------------
1 | 00:00:32 | 05:29:03 | 32 | 24709
2 | 05:29:35 | 02:36:32 | 24710 | 36441
3 | 08:05:67 | 02:38:53 | 36442 | 48344
4 | 10:44:45 | 04:44:10 | 48345 | 69654
5 | 15:28:55 | 01:55:25 | 69655 | 78304
6 | 17:24:05 | 01:54:55 | 78305 | 86909
7 | 19:18:60 | 00:33:32 | 86910 | 89416
8 | 19:52:17 | 02:31:03 | 89417 | 100744
9 | 22:23:20 | 03:31:65 | 100745 | 116634
10 | 25:55:10 | 03:10:17 | 116635 | 130901
11 | 29:05:27 | 01:26:60 | 130902 | 137411
12 | 30:32:12 | 02:53:35 | 137412 | 150421
13 | 33:25:47 | 02:31:15 | 150422 | 161761
14 | 35:56:62 | 03:27:50 | 161762 | 177336
15 | 39:24:37 | 01:01:43 | 177337 | 181954
16 | 40:26:05 | 01:14:10 | 181955 | 187514
17 | 41:40:15 | 02:47:12 | 187515 | 200051
18 | 44:27:27 | 02:24:73 | 200052 | 210924
List of alternate offset correction values
# | Absolute | Relative | Confidence
------------------------------------------
1 | -14 | -116 | 6
AccurateRip Summary (DiscID: 002168a6-01aef6bd-f60afc12)
Track 01 : OK (v1+v2, confidence 18/24)
Track 02 : OK (v1+v2, confidence 18/24)
Track 03 : OK (v1+v2, confidence 18/24)
Track 04 : OK (v1+v2, confidence 17/23)
Track 05 : OK (v1+v2, confidence 19/25)
Track 06 : OK (v1+v2, confidence 19/25)
Track 07 : OK (v1+v2, confidence 19/25)
Track 08 : OK (v1+v2, confidence 19/25)
Track 09 : OK (v1+v2, confidence 18/24)
Track 10 : OK (v1+v2, confidence 19/25)
Track 11 : OK (v1+v2, confidence 19/25)
Track 12 : OK (v1+v2, confidence 19/25)
Track 13 : OK (v1+v2, confidence 19/25)
Track 14 : OK (v1+v2, confidence 20/26)
Track 15 : OK (v1+v2, confidence 20/26)
Track 16 : OK (v1+v2, confidence 19/25)
Track 17 : OK (v1+v2, confidence 19/25)
Track 18 : OK (v1+v2, confidence 20/26)
->All tracks accurately ripped.
All Tracks
Filename : /Users/Juan/Downloads/ChWGluckOrph&EuryJEG/Gluck - Orphée et Eurydice (Disk 2).flac
CRC32 hash : CA79A6B5
CRC32 hash (skip zero) : 048F0F39
Statistics
Read error : 0
Jitter error (maybe fixed) : 0
Retry sector count : 0
Damaged sector count : 0
Track 01
Pre-gap length : 00:02:32
CRC32 hash : 2D142532
CRC32 hash (skip zero) : 7EEE375E
AccurateRip v1 signature : D5509BA8
AccurateRip v2 signature : 1CE0DB75
->Accurately ripped (v1+v2, confidence 5+13/24)
Statistics
Read error : 0
Jitter error (maybe fixed) : 0
Retry sector count : 0
Damaged sector count : 0
Track 02
CRC32 hash : 393CEA43
CRC32 hash (skip zero) : BAB43F62
AccurateRip v1 signature : 4AAA9B8E
AccurateRip v2 signature : 5B81BD4F
->Accurately ripped (v1+v2, confidence 5+13/24)
Statistics
Read error : 0
Jitter error (maybe fixed) : 0
Retry sector count : 0
Damaged sector count : 0
Track 03
CRC32 hash : 3F637C7A
CRC32 hash (skip zero) : EEBBD41E
AccurateRip v1 signature : E41DF79E
AccurateRip v2 signature : 9FE73A95
->Accurately ripped (v1+v2, confidence 5+13/24)
Statistics
Read error : 0
Jitter error (maybe fixed) : 0
Retry sector count : 0
Damaged sector count : 0
Track 04
CRC32 hash : 430A2BE5
CRC32 hash (skip zero) : 4C1C0A0B
AccurateRip v1 signature : B1D346DF
AccurateRip v2 signature : EF703AAA
->Accurately ripped (v1+v2, confidence 5+12/23)
Statistics
Read error : 0
Jitter error (maybe fixed) : 0
Retry sector count : 0
Damaged sector count : 0
Track 05
CRC32 hash : E2F77EB9
CRC32 hash (skip zero) : 070687B0
AccurateRip v1 signature : ED7EC211
AccurateRip v2 signature : 99BB4849
->Accurately ripped (v1+v2, confidence 6+13/25)
Statistics
Read error : 0
Jitter error (maybe fixed) : 0
Retry sector count : 0
Damaged sector count : 0
Track 06
CRC32 hash : 079DB312
CRC32 hash (skip zero) : 9BB8688B
AccurateRip v1 signature : 7BE043D2
AccurateRip v2 signature : 0CBEEE76
->Accurately ripped (v1+v2, confidence 6+13/25)
Statistics
Read error : 0
Jitter error (maybe fixed) : 0
Retry sector count : 0
Damaged sector count : 0
Track 07
CRC32 hash : 28176967
CRC32 hash (skip zero) : AB7CBA45
AccurateRip v1 signature : 9A2E7496
AccurateRip v2 signature : 3C2CEFDB
->Accurately ripped (v1+v2, confidence 6+13/25)
Statistics
Read error : 0
Jitter error (maybe fixed) : 0
Retry sector count : 0
Damaged sector count : 0
Track 08
CRC32 hash : 942B5270
CRC32 hash (skip zero) : F244E579
AccurateRip v1 signature : 86C9EB16
AccurateRip v2 signature : E8046C45
->Accurately ripped (v1+v2, confidence 6+13/25)
Statistics
Read error : 0
Jitter error (maybe fixed) : 0
Retry sector count : 0
Damaged sector count : 0
Track 09
Pre-gap length : 00:02:18
CRC32 hash : B9CB8CAA
CRC32 hash (skip zero) : 9BBD17EF
AccurateRip v1 signature : 3EFE447C
AccurateRip v2 signature : 32547604
->Accurately ripped (v1+v2, confidence 5+13/24)
Statistics
Read error : 0
Jitter error (maybe fixed) : 0
Retry sector count : 0
Damaged sector count : 0
Track 10
CRC32 hash : 65607781
CRC32 hash (skip zero) : C97161BB
AccurateRip v1 signature : BB5DFDD9
AccurateRip v2 signature : FCB362D2
->Accurately ripped (v1+v2, confidence 6+13/25)
Statistics
Read error : 0
Jitter error (maybe fixed) : 0
Retry sector count : 0
Damaged sector count : 0
Track 11
CRC32 hash : 817BDC96
CRC32 hash (skip zero) : 556C0296
AccurateRip v1 signature : 5BEC3AA8
AccurateRip v2 signature : D41FDA17
->Accurately ripped (v1+v2, confidence 6+13/25)
Statistics
Read error : 0
Jitter error (maybe fixed) : 0
Retry sector count : 0
Damaged sector count : 0
Track 12
CRC32 hash : DE649CAE
CRC32 hash (skip zero) : FA02927F
AccurateRip v1 signature : B005F20E
AccurateRip v2 signature : C81E036D
->Accurately ripped (v1+v2, confidence 6+13/25)
Statistics
Read error : 0
Jitter error (maybe fixed) : 0
Retry sector count : 0
Damaged sector count : 0
Track 13
CRC32 hash : 62B87FC0
CRC32 hash (skip zero) : 2B4D6E5A
AccurateRip v1 signature : C22E8511
AccurateRip v2 signature : 2E667015
->Accurately ripped (v1+v2, confidence 6+13/25)
Statistics
Read error : 0
Jitter error (maybe fixed) : 0
Retry sector count : 0
Damaged sector count : 0
Track 14
CRC32 hash : 48C0C907
CRC32 hash (skip zero) : 076E313A
AccurateRip v1 signature : 8B6FE39F
AccurateRip v2 signature : E5D619CB
->Accurately ripped (v1+v2, confidence 7+13/26)
Statistics
Read error : 0
Jitter error (maybe fixed) : 0
Retry sector count : 0
Damaged sector count : 0
Track 15
CRC32 hash : 34625C00
CRC32 hash (skip zero) : 5B92D47A
AccurateRip v1 signature : 0F3C00B1
AccurateRip v2 signature : E122848D
->Accurately ripped (v1+v2, confidence 7+13/26)
Statistics
Read error : 0
Jitter error (maybe fixed) : 0
Retry sector count : 0
Damaged sector count : 0
Track 16
CRC32 hash : 07984C38
CRC32 hash (skip zero) : FB1D1CF9
AccurateRip v1 signature : 2D724C49
AccurateRip v2 signature : 9C4AA6AF
->Accurately ripped (v1+v2, confidence 6+13/25)
Statistics
Read error : 0
Jitter error (maybe fixed) : 0
Retry sector count : 0
Damaged sector count : 0
Track 17
CRC32 hash : 08D04E08
CRC32 hash (skip zero) : 26CE746F
AccurateRip v1 signature : 7C128675
AccurateRip v2 signature : BFEAA3B7
->Accurately ripped (v1+v2, confidence 6+13/25)
Statistics
Read error : 0
Jitter error (maybe fixed) : 0
Retry sector count : 0
Damaged sector count : 0
Track 18
CRC32 hash : 65FCB1D8
CRC32 hash (skip zero) : F2781ABC
AccurateRip v1 signature : 9D12F63F
AccurateRip v2 signature : D806B94F
->Accurately ripped (v1+v2, confidence 7+13/26)
Statistics
Read error : 0
Jitter error (maybe fixed) : 0
Retry sector count : 0
Damaged sector count : 0
No errors occurred
End of status report
Содержание индексной карты (.CUE)
CD1

скрытый текст

TITLE "Gluck - Orphée et Eurydice (Disk 1)"
PERFORMER "Anne Sofie von Otter; Barbara Hendricks; Brigitte Fournier"
REM GENRE "Opera"
REM DATE "1989"
REM DISCID 6E09C919
FILE "Gluck - Orphée et Eurydice (Disk 1).flac" WAVE
TRACK 01 AUDIO
TITLE "Overture"
INDEX 00 00:00:00
INDEX 01 00:00:32
TRACK 02 AUDIO
TITLE "Act 1, Scene 1 - "Ah! dans ce boi tranquille" (Choeur)"
INDEX 00 02:54:65
INDEX 01 02:55:42
TRACK 03 AUDIO
TITLE "Act 1, Scene 1 - Recit "Vos plaintes, vos regrets" (Orphee)"
INDEX 01 06:00:25
TRACK 04 AUDIO
TITLE "Act 1, Scene 1 - Pantomime"
INDEX 01 06:27:30
TRACK 05 AUDIO
TITLE "Act 1, Scene 1 - "Ah! dans ce bois lugubre et sobre" (Choeur)"
INDEX 01 08:05:52
TRACK 06 AUDIO
TITLE "Act 1, Scene 1 - Recit "Eloignez-vous" (Orphee)"
INDEX 01 09:30:12
TRACK 07 AUDIO
TITLE "Act 1, Scene 1 - Ritournelle"
INDEX 01 09:46:12
TRACK 08 AUDIO
TITLE "Act 1, Scene 2 - Recit "Eurydice, Eurydice! Ombre chere" (Orphee)"
INDEX 01 10:44:07
TRACK 09 AUDIO
TITLE "Act 1, Scene 2 - Air "Objet de mon amour" (Orphee)"
INDEX 01 12:04:05
TRACK 10 AUDIO
TITLE "Act 1, Scene 2 - Recit "Eurydice, Eurydice, de ce doux nom""
INDEX 01 13:20:47
TRACK 11 AUDIO
TITLE "Act 1, Scene 2 - Air "Accable de regrets""
INDEX 01 14:30:37
TRACK 12 AUDIO
TITLE "Act 1, Scene 2 - Recit "Divinites de l'Acheron""
INDEX 01 15:44:17
TRACK 13 AUDIO
TITLE "Act 1, Scene 3 - Recit "L'Amour vient au secours" (L'Amour)"
INDEX 01 16:45:40
TRACK 14 AUDIO
TITLE "Act 1, Scene 3 - Air "Si les doux accords de ma lyre" (L'Amour)"
INDEX 01 17:07:27
TRACK 15 AUDIO
TITLE "Act 1, Scene 3 - Recit "Dieux! je la reverrais" (Orphee, L'Amour)"
INDEX 01 18:18:47
TRACK 16 AUDIO
TITLE "Act 1, Scene 3 - Air "Soumis au silence" (L'Amour)"
INDEX 01 19:12:52
TRACK 17 AUDIO
TITLE "Act 1, Scene 4 - Recit "Qu'entends-je Qu'a-t-il dit""
INDEX 01 20:57:42
TRACK 18 AUDIO
TITLE "Act 1, Scene 4 - Air "Amour, viens rendre amon ame""
INDEX 01 22:34:62
TRACK 19 AUDIO
TITLE "Act 2, Scene 1 - Danse des Furies"
INDEX 00 27:48:32
INDEX 01 27:52:20
TRACK 20 AUDIO
TITLE "Act 2, Scene 1 - Choeur des Furies"
INDEX 01 29:12:15
TRACK 21 AUDIO
TITLE "Act 2, Scene 1 - Danse des Furies"
INDEX 01 29:39:07
TRACK 22 AUDIO
TITLE "Act 2, Scene 1 - Choeur des Furies (Reprise)"
INDEX 01 30:07:22
TRACK 23 AUDIO
TITLE "Act 2, Scene 1 - Air avec choeur "Laissez-vous toucher per mes pleurs""
INDEX 01 31:07:32
TRACK 24 AUDIO
TITLE "Act 2, Scene 1 - Air "La tendresse qui me presse""
INDEX 01 36:01:55
TRACK 25 AUDIO
TITLE "Act 2, Scene 1 - Danse des Furies"
INDEX 01 37:43:05
CD2

скрытый текст

TITLE "Gluck - Orphée et Eurydice (Disk 2)"
PERFORMER "Anne Sofie von Otter, Barbara Hendricks & Brigitte Fournier"
REM GENRE "Opera"
REM DATE "1989"
REM DISCID F60AFC12
FILE "Gluck - Orphée et Eurydice (Disk 2).flac" WAVE
TRACK 01 AUDIO
TITLE "Act 2, Scene 1 - Ballet des ombres heureuses"
INDEX 00 00:00:00
INDEX 01 00:00:32
TRACK 02 AUDIO
TITLE "Act 2, Scene 1 - Ballet"
INDEX 01 05:29:35
TRACK 03 AUDIO
TITLE "Act 2, Scene 1 - Air avec choeur "Cet asile aimable et tranquille" (Eurydice)"
INDEX 01 08:05:67
TRACK 04 AUDIO
TITLE "Act 2, Scene 2 - Air "Quel nouveau pour ces lieux""
INDEX 01 10:44:45
TRACK 05 AUDIO
TITLE "Act 2, Scene 3 - Air "Viens dans ce sejour paisable""
INDEX 01 15:28:55
TRACK 06 AUDIO
TITLE "Act 2, Scene 3 - Ballet"
INDEX 01 17:24:05
TRACK 07 AUDIO
TITLE "Act 2, Scene 3 - Recit avec choeur "O vous, ombres que j'implore" (Orphee)"
INDEX 01 19:18:60
TRACK 08 AUDIO
TITLE "Act 2, Scene 3 - Choeur "Pres du tendre objet""
INDEX 01 19:52:17
TRACK 09 AUDIO
TITLE "Act 2, Scene 3 - Recit "Viens, viens, suis-moi""
INDEX 00 22:21:02
INDEX 01 22:23:20
TRACK 10 AUDIO
TITLE "Act 3, Scene 1 - Duo "Viens, suis un epoux qui t'adore""
INDEX 01 25:55:10
TRACK 11 AUDIO
TITLE "Act 3, Scene 1 - Recit "Mais d'ou vient qu'il persiste a garder le silence" (Eurydice)"
INDEX 01 29:05:27
TRACK 12 AUDIO
TITLE "Act 3, Scene 1 - Air "Fortune ennemie, quelle barbarie" (Eurydice)"
INDEX 01 30:32:12
TRACK 13 AUDIO
TITLE "Act 3, Scene 1 - Recit "Quelle epreuve crulle" (Orphee, Eurydice)"
INDEX 01 33:25:47
TRACK 14 AUDIO
TITLE "Act 3, Scene 1 - Air "J'ai perdu mon Eurydice" (Orphee)"
INDEX 01 35:56:62
TRACK 15 AUDIO
TITLE "Act 3, Scene 1 - Recit "Ah... Puisse me douleur" (Orphee)"
INDEX 01 39:24:37
TRACK 16 AUDIO
TITLE "Act 3, Scene 2 - Recit "Arrete, Orphee" (L'Amour, Orphee)"
INDEX 01 40:26:05
TRACK 17 AUDIO
TITLE "Act 3, Scene 3 - Trio "Tendre amout" (L'Amour, Orhpee, Eurydice)"
INDEX 01 41:40:15
TRACK 18 AUDIO
TITLE "Act 3, Scene 3 - Choeur final - Hymne de l'Amour "Le dieu de Paphos""
INDEX 01 44:27:27



Показать сообщения:    

Текущее время: 08-Дек 23:11

Часовой пояс: UTC + 3


Вы не можете начинать темы
Вы не можете отвечать на сообщения
Вы не можете редактировать свои сообщения
Вы не можете удалять свои сообщения
Вы не можете голосовать в опросах
Вы не можете прикреплять файлы к сообщениям
Вы не можете скачивать файлы