Молодёжка. Фильм о фильме (Aндрей Головков) [2015, Документальный, кинематограф, DVB-Т2]


Статистика раздачи [Обновить пиров]
Размер:  1.01 GB   |    Зарегистрирован:  8 месяцев 14 дней   |    Скачан:  0 раз

Полного источника не было: Никогда

 
   
 
 
 

[Цитировать]

Молодёжка. Фильм о фильме
Дата/Год выпуска: 2015
Страна: Россия
Жанр: Документальный, кинематограф
Продолжительность: 00:47:07
Перевод: Не требуется
Русские субтитры: нет
Режиссер: Aндрей Головков
Телеканал: СТС
Описание: Вы узнаете, как проходил съемочный процесс, подбор актеров, как снимались те или иные сцены и много всего интересного и увлекательного о съемках.
Сэмпл
Качество: DVB-T2
Формат: TS
Видео кодек: AVC
Аудио кодек: MP2
Видео: AVC, 720х576 (4:3), 2729 Kbps, 25 fps, Bits/(Pixel*Frame) : 0.263
Аудио: MP2, 192 Kbps, 48.0 KHz, 2 ch

MediaInfo

D:\видео\Молодёжка. Фильм о фильме.ts
General #1
ID : 1 (0x1)
Complete name : D:\видео\Молодёжка. Фильм о фильме.ts
Format : MPEG-TS
File size : 1.01 GiB
Duration : 47mn 7s
Overall bit rate : 3 075 Kbps
Video #2031
ID : 2031 (0x7EF)
Menu ID : 1 (0x1)
Format : AVC
Format/Info : Advanced Video Codec
Format profile : Main@L3.0
Format settings, CABAC : Yes
Format settings, ReFrames : 3 frames
Codec ID : 27
Duration : 47mn 7s
Bit rate : 2 729 Kbps
Width : 720 pixels
Height : 576 pixels
Display aspect ratio : 4:3
Frame rate : 25.000 fps
Standard : Component
Color space : YUV
Chroma subsampling : 4:2:0
Bit depth : 8 bits
Scan type : Interlaced
Scan order : Top Field First
Bits/(Pixel*Frame) : 0.263
Stream size : 920 MiB (89%)
Color primaries : BT.470-6 System B, BT.470-6 System G, BT.601-6 625, BT.1358 625, BT.1700 625 PAL, BT.1700 625 SECAM
Transfer characteristics : BT.470-6 System B, BT.470-6 System G
Matrix coefficients : BT.470-6 System B, BT.470-6 System G, BT.601-6 625, BT.1358 625, BT.1700 625 PAL, BT.1700 625 SECAM, IEC 61966-2-4 601
Audio #2032
ID : 2032 (0x7F0)
Menu ID : 1 (0x1)
Format : MPEG Audio
Format version : Version 1
Format profile : Layer 2
Codec ID : 3
Duration : 47mn 7s
Bit rate mode : Constant
Bit rate : 192 Kbps
Channel(s) : 2 channels
Sampling rate : 48.0 KHz
Compression mode : Lossy
Stream size : 64.7 MiB (6%)
Language : English

Скриншоты

[teatrix.ru].t20474.torrent 
Торрент: Зарегистрирован [ 2016-03-19 20:35 ] · 29CA5172D5D7FE28CE08AA647D3A544D07200BB4

Скачать .torrent

Скачать

11 KB

Статус: проверено
Скачан: 0 раз
Размер: 1.01 GB
terms.php



Показать сообщения:    

Текущее время: 03-Дек 05:24

Часовой пояс: UTC + 3


Вы не можете начинать темы
Вы не можете отвечать на сообщения
Вы не можете редактировать свои сообщения
Вы не можете удалять свои сообщения
Вы не можете голосовать в опросах
Вы не можете прикреплять файлы к сообщениям
Вы можете скачивать файлы