[TR24][SM][OF] On Wenlock Edge (Ralph Vaughan Williams, Peter Warlock, Arthur Bliss, Ivor Gurney) - James Gilchrist, Anna Tilbrook & The Fitzwilliam String Quartet - 2007 (Classical)


Статистика раздачи [Обновить пиров]
Размер:  1.11 GB   |    Зарегистрирован:  8 месяцев 17 дней   |    Скачан:  0 раз

Полного источника не было: Никогда

 
   
 
 
 

[Цитировать]

·
·

On Wenlock Edge·Жанр: Vocal Music
Носитель: Official Digital Download
Год издания диска: 2007
Издатель(лейбл): Linn Records
Номер по каталогу: CKD 296
Продолжительность: 69:34
Наличие сканов в содержимом раздачи: cover art & booklet
Контейнер: FLAC (*.flac)
Разрядность: 24/88,2
Количество каналов: 2.0
Формат: tracks
Источник: linnrecords.com
Pелизер: WEB (thanks to the original customer)
Finalist Solo Vocal Album of the Year
Classic FM Gramophone Awards 2008

Треклист

Ralph Vaughan Williams (1872-1958)
On Wenlock Edge
01 On Wenlock Edge 3:33
02 From far, from eve and morning 2:02
03 Is my team ploughing 3:48
04 Oh, when I was in love with you 0:41
05 Bredon Hill 7:33
06 Clun 3:27
Peter Warlock (1894-1930)
07 The Curlew 22:19
He reproves the curlew
The lover mourns for the loss of love
The withering of the boughs
He hears the cry of the sedge

Arthur Bliss (1891-1975)
08 Elegiac Sonnet 7:47
Ivor Gurney (1890-1937)
Ludlow and Teme
09 When smoke stood up from Ludlow 3:04
10 Far in a western brookland 4:11
11 Tis time I think 1:11
12 Ludlow Fair 2:17
13 On the idle hill of summer 2:58
14 When I was one and twenty 1:26
15 The Lent Lily 3:10

Исполнители

James Gilchrist tenor
Anna Tilbrook piano
Michael Cox flute
Gareth Hulse cor anglais
THE FITZWILLIAM STRING QUARTET
Lucy Russell violin
Jonathan Sparey violin
Alan George viola
Andrew Skidmore cello

Dynamic Range Meter

foobar2000 1.2.6 / Dynamic Range Meter 1.1.1
log date: 2015-02-27 00:19:12
--------------------------------------------------------------------------------
Analyzed: James Gilchrist, Anna Tilbrook, The Fitzwilliam String Quartet / Ralph Vaughan Williams: On Wenlock Edge
--------------------------------------------------------------------------------
DR Peak RMS Duration Track
--------------------------------------------------------------------------------
DR13 -0.44 dB -18.48 dB 3:32 01-On Wenlock Edge
DR14 -5.01 dB -27.15 dB 2:03 02-From far, from eve and morning
DR13 -0.10 dB -19.66 dB 3:49 03-Is my team ploughing
DR12 -4.05 dB -22.83 dB 0:41 04-Oh, when I was in love with you
DR16 -0.09 dB -22.67 dB 7:33 05-Bredon Hill
DR15 -1.28 dB -22.69 dB 3:28 06-Clun
DR19 -0.28 dB -26.93 dB 22:19 07-The Curlew
DR16 -1.61 dB -23.32 dB 7:48 08-Elegiac Sonnet
DR14 -0.90 dB -20.81 dB 3:04 09-When smoke stood up from Ludlow
DR14 -6.19 dB -27.46 dB 4:12 10-Far in a western brookland
DR13 -3.21 dB -20.77 dB 1:12 11-'Tis time I think
DR12 -0.58 dB -17.23 dB 2:18 12-Ludlow Fair
DR12 -0.10 dB -16.78 dB 2:58 13-On the idle hill of summer
DR13 -7.10 dB -25.17 dB 1:27 14-When I was one and twenty
DR14 -0.20 dB -21.30 dB 3:10 15-The Lent Lily
--------------------------------------------------------------------------------
Number of tracks: 15
Official DR value: DR14
Samplerate: 88200 Hz
Channels: 2
Bits per sample: 24
Bitrate: 2322 kbps
Codec: FLAC
================================================================================
[teatrix.ru].t20475.torrent 
Торрент: Зарегистрирован [ 2016-03-19 20:35 ] · D7BE157C7F539C03745BFBCCEE08DB59C64BF09C

Скачать .torrent

Скачать

13 KB

Статус: проверено
Скачан: 0 раз
Размер: 1.11 GB
terms.php



Быстрый ответ

Имя:

      
Для отправки сообщений необходимо включить JavaScript
Показать сообщения:    

Текущее время: 06-Дек 11:14

Часовой пояс: UTC + 3


Вы можете начинать темы
Вы можете отвечать на сообщения
Вы не можете редактировать свои сообщения
Вы не можете удалять свои сообщения
Вы не можете голосовать в опросах
Вы не можете прикреплять файлы к сообщениям
Вы можете скачивать файлы