(Baroque concertos for organ) Corrette – Concertos for Organ and Orchestra (Rene Saorgin / Ensemble Baroque de Nice, Gilbert Bezzina) - 1985, 2003, FLAC (image+.cue) lossless


Статистика раздачи [Обновить пиров]
Размер:  266 MB   |    Зарегистрирован:  8 месяцев 18 дней   |    Скачан:  0 раз

Полного источника не было: Никогда

 
   
 
 
 

[Цитировать]

Corrette – Concertos for Organ and Orchestra – René Saorgin

Жанр: Baroque concertos for organ
Страна-производитель диска: Made in Germany
Год издания диска: 1985, 2003
Издатель (лейбл): harmonia mundi france
Номер по каталогу: HMA 1955148
Дата записи: 1984
Аудиокодек: FLAC
Тип рипа: image+.cue
Битрейт аудио: lossless
Продолжительность: 53'47
Источник: релизер
сайт-источник/ник/другое: Odeon
Наличие сканов в содержимом раздачи: да
Треклист:

скрытый текст

01. Organ Concerto No. 1 in G major: I. Allegro [0:02:47.60]
02. II. Aria I - Aria II [0:03:54.45]
03. III. Allegro [0:03:05.10]
04. Organ Concerto No. 2 in A major: I. Allegro [0:02:24.05]
05. II. Adagio [0:03:07.30]
06. III. Allegro [0:02:24.03]
07. Organ Concerto No. 3 in D major: I. Allegro [0:02:59.57]
08. II. Aria: Andante [0:02:06.13]
09. III. Adagio [0:01:02.42]
10. IV. Allegro [0:03:32.45]
11. Organ Concerto No. 4 in C major: I. Allegro [0:03:29.15]
12. II. Aria [0:02:40.38]
13. III. Allegro [0:03:16.07]
14. Organ Concerto No. 5 in F major: I. Allegro [0:02:46.45]
15. II. Aria [0:03:39.73]
16. III. Allegro [0:02:51.05]
17. Organ Concerto No. 6 in d minor: I. Allegro [0:03:00.42]
18. II. Andante [0:01:48.53]
19. III. Presto [0:02:49.67]
Исполнители:

скрытый текст

Michel Corrette (1707-1795)
Concertos for Organ, op.26:
Concerto no.1 in G major
Concerto no.2 in A major
Concerto no.3 in D major
Concerto no.4 in C major
Concerto no.5 in F major
Concerto no.6 in D minor
René Saorgin - organ
Ensemble Baroque de Nice [on period instruments]
Gilbert Bezzina - conductor
Записано в ноябре 1984

Лог создания рипа

Exact Audio Copy V1.0 beta 3 from 29. August 2011
EAC extraction logfile from 9. May 2014, 14:10
René Saorgin / Corrette - Concertos for Organ and Orchestra - René Saorgin
Used drive : TSSTcorpCDDVDW SH-222BB Adapter: 2 ID: 1
Read mode : Secure
Utilize accurate stream : Yes
Defeat audio cache : Yes
Make use of C2 pointers : No
Read offset correction : 6
Overread into Lead-In and Lead-Out : No
Fill up missing offset samples with silence : Yes
Delete leading and trailing silent blocks : No
Null samples used in CRC calculations : Yes
Used interface : Native Win32 interface for Win NT & 2000
Used output format : User Defined Encoder
Selected bitrate : 896 kBit/s
Quality : High
Add ID3 tag : No
Command line compressor : C:\Program Files\Exact Audio Copy\FLAC\FLAC.EXE
Additional command line options : -8 -V -T "TITLE=%title%" -T "ARTIST=%artist%" -T "ALBUMARTIST=%albumartist%" -T "ALBUM=%albumtitle%" -T "DATE=%year%" -T "TRACKNUMBER=%tracknr%" -T "TRACKTOTAL=%numtracks%" -T "GENRE=%genre%" -T "COMMENT=%comment%" -T "PERFORMER=%albuminterpret%" -T "COMPOSER=%composer%" %source% -o %dest%
TOC of the extracted CD
Track | Start | Length | Start sector | End sector
---------------------------------------------------------
1 | 0:00.32 | 2:47.60 | 32 | 12616
2 | 2:48.17 | 3:54.45 | 12617 | 30211
3 | 6:42.62 | 3:05.10 | 30212 | 44096
4 | 9:47.72 | 2:24.05 | 44097 | 54901
5 | 12:12.02 | 3:07.30 | 54902 | 68956
6 | 15:19.32 | 2:24.03 | 68957 | 79759
7 | 17:43.35 | 2:59.57 | 79760 | 93241
8 | 20:43.17 | 2:06.13 | 93242 | 102704
9 | 22:49.30 | 1:02.42 | 102705 | 107396
10 | 23:51.72 | 3:32.45 | 107397 | 123341
11 | 27:24.42 | 3:29.15 | 123342 | 139031
12 | 30:53.57 | 2:40.38 | 139032 | 151069
13 | 33:34.20 | 3:16.07 | 151070 | 165776
14 | 36:50.27 | 2:46.45 | 165777 | 178271
15 | 39:36.72 | 3:39.73 | 178272 | 194769
16 | 43:16.70 | 2:51.05 | 194770 | 207599
17 | 46:08.00 | 3:00.42 | 207600 | 221141
18 | 49:08.42 | 1:48.53 | 221142 | 229294
19 | 50:57.20 | 2:49.67 | 229295 | 242036
Range status and errors
Selected range
Filename E:\4000\[4109] Corrette – Concertos for Organ and Orchestra – René Saorgin\Corrette - Concertos for Organ and Orchestra - René Saorgin.wav
Peak level 98.1 %
Extraction speed 2.2 X
Range quality 100.0 %
Test CRC 6875AF67
Copy CRC 6875AF67
Copy OK
No errors occurred
AccurateRip summary
Track 1 accurately ripped (confidence 2) [8344F8D6] (AR v2)
Track 2 accurately ripped (confidence 2) [4B53F4ED] (AR v2)
Track 3 accurately ripped (confidence 2) [88EC2380] (AR v2)
Track 4 accurately ripped (confidence 2) [3F91D318] (AR v2)
Track 5 accurately ripped (confidence 2) [E29CCC88] (AR v2)
Track 6 accurately ripped (confidence 2) [EEA5156A] (AR v2)
Track 7 accurately ripped (confidence 2) [F1143BDD] (AR v2)
Track 8 accurately ripped (confidence 2) [95F93357] (AR v2)
Track 9 accurately ripped (confidence 2) [AE70F92A] (AR v2)
Track 10 accurately ripped (confidence 2) [FB8C93B3] (AR v2)
Track 11 accurately ripped (confidence 2) [E495D504] (AR v2)
Track 12 accurately ripped (confidence 2) [11A074B4] (AR v2)
Track 13 accurately ripped (confidence 2) [59AB3627] (AR v2)
Track 14 accurately ripped (confidence 2) [89D773AA] (AR v2)
Track 15 accurately ripped (confidence 2) [DCDBCE0C] (AR v2)
Track 16 accurately ripped (confidence 2) [7A6A9AC9] (AR v2)
Track 17 accurately ripped (confidence 2) [634D821B] (AR v2)
Track 18 accurately ripped (confidence 2) [6425CBE9] (AR v2)
Track 19 accurately ripped (confidence 2) [8F049E8D] (AR v2)
All tracks accurately ripped
End of status report
==== Log checksum BC04135ACACD8FEBF04C6B62547B1B697759F94A5EF1A536CA30D0C526159EAC ====

Содержание индексной карты (.CUE)

REM GENRE Classical
REM DATE 1992
REM DISCID 030C9B13
REM COMMENT "ExactAudioCopy v1.0b3"
PERFORMER "Renй Saorgin"
TITLE "Corrette - Concertos for Organ and Orchestra - Renй Saorgin"
FILE "Corrette - Concertos for Organ and Orchestra - Renй Saorgin.flac" WAVE
TRACK 01 AUDIO
TITLE "Organ Concerto No. 1 in G major: I. Allegro"
PERFORMER "Renй Saorgin"
ISRC FRZ148414010
INDEX 00 00:00:00
INDEX 01 00:00:32
TRACK 02 AUDIO
TITLE "Organ Concerto No. 1 in G major: II. Aria I - Aria II"
PERFORMER "Renй Saorgin"
ISRC FRZ148414020
INDEX 00 02:48:07
INDEX 01 02:48:17
TRACK 03 AUDIO
TITLE "Organ Concerto No. 1 in G major: III. Allegro"
PERFORMER "Renй Saorgin"
ISRC FRZ148414030
INDEX 00 06:41:57
INDEX 01 06:42:62
TRACK 04 AUDIO
TITLE "Organ Concerto No. 2 in A major: I. Allegro"
PERFORMER "Renй Saorgin"
ISRC FRZ148414040
INDEX 00 09:42:47
INDEX 01 09:47:72
TRACK 05 AUDIO
TITLE "Organ Concerto No. 2 in A major: II. Adagio"
PERFORMER "Renй Saorgin"
ISRC FRZ148414050
INDEX 00 12:10:47
INDEX 01 12:12:02
TRACK 06 AUDIO
TITLE "Organ Concerto No. 2 in A major: III. Allegro"
PERFORMER "Renй Saorgin"
ISRC FRZ148414060
INDEX 00 15:19:10
INDEX 01 15:19:32
TRACK 07 AUDIO
TITLE "Organ Concerto No. 3 in D major: I. Allegro"
PERFORMER "Renй Saorgin"
ISRC FRZ148414070
INDEX 00 17:40:52
INDEX 01 17:43:35
TRACK 08 AUDIO
TITLE "Organ Concerto No. 3 in D major: II. Aria: Andante"
PERFORMER "Renй Saorgin"
ISRC FRZ148414080
INDEX 00 20:42:15
INDEX 01 20:43:17
TRACK 09 AUDIO
TITLE "Organ Concerto No. 3 in D major: III. Adagio"
PERFORMER "Renй Saorgin"
ISRC FRZ148414090
INDEX 00 22:47:67
INDEX 01 22:49:30
TRACK 10 AUDIO
TITLE "Organ Concerto No. 3 in D major: IV. Allegro"
PERFORMER "Renй Saorgin"
ISRC FRZ148414100
INDEX 00 23:51:70
INDEX 01 23:51:72
TRACK 11 AUDIO
TITLE "Organ Concerto No. 4 in C major: I. Allegro"
PERFORMER "Renй Saorgin"
ISRC FRZ148414110
INDEX 00 27:19:15
INDEX 01 27:24:42
TRACK 12 AUDIO
TITLE "Organ Concerto No. 4 in C major: II. Aria"
PERFORMER "Renй Saorgin"
ISRC FRZ148414120
INDEX 00 30:53:32
INDEX 01 30:53:57
TRACK 13 AUDIO
TITLE "Organ Concerto No. 4 in C major: III. Allegro"
PERFORMER "Renй Saorgin"
ISRC FRZ148414130
INDEX 00 33:34:17
INDEX 01 33:34:20
TRACK 14 AUDIO
TITLE "Organ Concerto No. 5 in F major: I. Allegro"
PERFORMER "Renй Saorgin"
ISRC FRZ148414140
INDEX 00 36:47:32
INDEX 01 36:50:27
TRACK 15 AUDIO
TITLE "Organ Concerto No. 5 in F major: II. Aria"
PERFORMER "Renй Saorgin"
ISRC FRZ148414150
INDEX 00 39:36:70
INDEX 01 39:36:72
TRACK 16 AUDIO
TITLE "Organ Concerto No. 5 in F major: III. Allegro"
PERFORMER "Renй Saorgin"
ISRC FRZ148414160
INDEX 00 43:16:67
INDEX 01 43:16:70
TRACK 17 AUDIO
TITLE "Organ Concerto No. 6 in d minor: I. Allegro"
PERFORMER "Renй Saorgin"
ISRC FRZ148414170
INDEX 00 46:03:67
INDEX 01 46:08:00
TRACK 18 AUDIO
TITLE "Organ Concerto No. 6 in d minor: II. Andante"
PERFORMER "Renй Saorgin"
ISRC FRZ148414180
INDEX 00 49:07:00
INDEX 01 49:08:42
TRACK 19 AUDIO
TITLE "Organ Concerto No. 6 in d minor: III. Presto"
PERFORMER "Renй Saorgin"
ISRC FRZ148414190
INDEX 00 50:55:70
INDEX 01 50:57:20
[teatrix.ru].t20476.torrent 
Торрент: Зарегистрирован [ 2016-03-19 20:35 ] · FE3233DDE532D766EF17D71870EBEDE69935BF75

Скачать .torrent

Скачать

11 KB

Статус: проверено
Скачан: 0 раз
Размер: 266 MB
terms.php



Быстрый ответ

Имя:

      
Для отправки сообщений необходимо включить JavaScript
Показать сообщения:    

Текущее время: 07-Дек 00:50

Часовой пояс: UTC + 3


Вы можете начинать темы
Вы можете отвечать на сообщения
Вы не можете редактировать свои сообщения
Вы не можете удалять свои сообщения
Вы не можете голосовать в опросах
Вы не можете прикреплять файлы к сообщениям
Вы можете скачивать файлы